osu file format v12

[General]
AudioFilename: Unite.mp3
AudioLeadIn: 2000
PreviewTime: 41493
Countdown: 0
SampleSet: Soft
StackLeniency: 0.7
Mode: 0
LetterboxInBreaks: 0
WidescreenStoryboard: 0

[Editor]
DistanceSpacing: 1.1
BeatDivisor: 4
GridSize: 4

[Metadata]
Title:Unite (TV Size)
TitleUnicode:ユナイト (TV Size)
Artist:Misawa Sachika
ArtistUnicode:三澤紗千香
Creator:Losertic
Version:Insane
Source:Accel World
Tags:アクセル・ワールド yunaito ending kuroyukihime wakeshima kanon
BeatmapID:253449
BeatmapSetID:94078

[Difficulty]
HPDrainRate:7
CircleSize:4
OverallDifficulty:8
ApproachRate:9
SliderMultiplier:1.74999990463257
SliderTickRate:2

[Events]
//Background and Video events
0,0,"Background-Unite.jpg",0,0
Video,0,"Video-Unite.avi"
//Break Periods
//Storyboard Layer 0 (Background)
//Storyboard Layer 1 (Fail)
//Storyboard Layer 2 (Pass)
//Storyboard Layer 3 (Foreground)
//Storyboard Sound Samples
//Background Colour Transformations
3,100,163,162,255

[TimingPoints]
642,319.148936170213,4,2,1,75,1,0
1280,-100,4,2,7,75,0,0
1360,-100,4,2,1,75,0,0
1439,-100,4,2,7,75,0,0
1599,-100,4,2,1,75,0,0
1918,-100,4,2,7,75,0,0
1998,-100,4,2,1,75,0,0
2397,-100,4,2,7,75,0,0
2636,-100,4,2,1,75,0,0
2716,-100,4,2,7,75,0,0
2876,-100,4,2,1,75,0,0
3035,-100,4,2,7,75,0,0
3115,-100,4,2,1,75,0,0
3195,-100,4,2,7,75,0,0
3274,-100,4,2,1,75,0,0
3673,-100,4,2,7,75,0,0
3753,-100,4,2,1,75,0,0
3833,-100,4,2,1,50,0,0
3913,-100,4,2,1,75,0,0
4471,-100,4,2,7,75,0,0
4551,-100,4,2,1,75,0,0
4950,-100,4,2,7,75,0,0
5269,-100,4,2,7,50,0,0
5349,-100,4,2,1,75,0,0
5588,-100,4,2,7,75,0,0
5668,-100,4,2,1,75,0,0
6227,-100,4,2,7,75,0,0
6705,-100,4,2,1,75,0,0
7024,-100,4,2,7,75,0,0
7184,-100,4,2,1,75,0,0
7503,-100,4,2,7,75,0,0
7743,-100,4,2,1,75,0,0
7822,-100,4,2,7,75,0,0
7902,-100,4,2,1,75,0,0
10695,-100,4,2,1,70,0,0
11173,-100,4,2,7,70,0,0
11253,-100,4,2,1,70,0,0
11493,-100,4,2,7,70,0,0
11572,-100,4,2,1,70,0,0
11812,-100,4,2,7,70,0,0
11892,-100,4,2,1,70,0,0
12131,-100,4,2,7,70,0,0
12211,-100,4,2,1,70,0,0
12450,-100,4,2,7,70,0,0
12530,-100,4,2,1,70,0,0
12769,-100,4,2,7,70,0,0
12849,-100,4,2,1,70,0,0
13088,-100,4,2,7,70,0,0
13168,-100,4,2,1,70,0,0
13407,-100,4,2,7,70,0,0
13487,-100,4,2,1,70,0,0
13727,-100,4,2,7,70,0,0
13806,-100,4,2,1,70,0,0
14046,-100,4,2,7,70,0,0
14126,-100,4,2,1,70,0,0
14365,-100,4,2,7,70,0,0
14445,-100,4,2,1,70,0,0
15003,-100,4,2,7,70,0,0
15083,-100,4,2,1,70,0,0
15163,-100,4,2,7,70,0,0
15482,-100,4,2,1,45,0,0
15642,-100,4,1,2,70,0,0
15721,-100,4,2,1,70,0,0
15961,-100,4,2,7,70,0,0
16360,-100,4,2,1,70,0,0
16599,-100,4,2,7,70,0,0
16679,-100,4,2,1,70,0,0
16918,-100,4,2,7,70,0,0
17078,-100,4,2,1,70,0,0
17237,-100,4,2,7,70,0,0
17317,-100,4,2,1,70,0,0
17556,-100,4,2,7,70,0,0
17636,-100,4,2,1,70,0,0
17876,-100,4,2,7,70,0,0
17955,-100,4,2,1,70,0,0
18195,-100,4,2,7,70,0,0
18514,-100,4,2,7,70,0,0
18594,-100,4,2,1,70,0,0
18833,-100,4,2,7,70,0,0
18913,-100,4,2,1,70,0,0
19152,-100,4,2,7,70,0,0
19232,-100,4,2,1,70,0,0
19471,-100,4,2,1,45,0,0
19790,-100,4,1,2,70,0,0
19950,-100,4,1,2,45,0,0
20269,-100,4,2,1,70,0,0
20429,-100,4,1,2,45,0,0
20588,-100,4,2,1,70,0,0
20748,-100,4,1,2,45,0,0
20907,-100,4,2,1,70,0,0
20987,-100,4,1,2,45,0,0
21067,-100,4,2,1,70,0,0
21386,-100,4,1,1,70,0,0
21546,-100,4,2,1,70,0,0
21705,-100,4,2,7,70,0,0
21785,-100,4,2,1,70,0,0
21865,-100,4,2,7,70,0,0
22024,-100,4,1,1,70,0,0
22184,-100,4,2,1,70,0,0
22344,-100,4,2,7,70,0,0
22423,-100,4,2,1,70,0,0
22663,-100,4,1,1,70,0,0
22743,-100,4,2,1,70,0,0
22822,-100,4,2,7,70,0,0
23301,-100,4,1,1,70,0,0
23381,-100,4,2,1,70,0,0
23939,-100,4,1,1,70,0,0
24019,-100,4,2,1,70,0,0
24259,-100,4,2,7,70,0,0
24338,-100,4,2,1,70,0,0
24418,-100,4,2,7,70,0,0
24578,-100,4,1,1,70,0,0
24657,-100,4,2,1,70,0,0
25216,-100,4,1,1,70,0,0
25376,-100,4,2,7,70,0,0
25615,-100,4,2,1,70,0,0
25695,-100,4,2,7,70,0,0
25854,-100,4,1,1,70,0,0
26014,-100,4,2,1,70,0,0
26493,-100,4,1,1,70,0,0
26652,-100,4,2,7,70,0,0
26732,-100,4,2,1,70,0,0
26971,-100,4,2,7,70,0,0
27051,-100,4,2,1,70,0,0
27131,-100,4,1,1,70,0,0
27290,-100,4,2,7,70,0,0
27370,-100,4,2,1,70,0,0
27450,-100,4,2,7,70,0,0
27769,-100,4,1,1,70,0,0
27849,-100,4,2,1,70,0,0
27929,-100,4,2,8,60,0,0
28009,-100,4,2,1,70,0,0
28407,-100,4,1,1,70,0,0
28487,-100,4,2,1,70,0,0
29046,-100,4,1,1,70,0,0
29205,-100,4,2,1,70,0,0
29524,-100,4,2,7,70,0,0
29604,-100,4,2,1,70,0,0
29684,-100,4,1,1,70,0,0
29844,-100,4,2,1,70,0,0
30003,-100,4,2,7,70,0,0
30322,-100,4,1,1,70,0,0
30482,-100,4,2,1,70,0,0
30642,-100,4,1,1,45,0,0
31040,-100,4,2,1,70,0,0
31280,-100,4,2,7,70,0,0
31360,-100,4,2,1,70,0,0
31599,-100,4,1,1,70,0,0
31679,-100,4,2,1,70,0,0
32876,-100,4,1,1,70,0,0
33035,-100,4,2,1,70,0,0
33195,-100,4,2,7,70,0,0
33274,-100,4,2,1,70,0,0
33354,-100,4,2,7,70,0,0
33514,-100,4,1,1,70,0,0
33594,-100,4,2,1,70,0,0
34152,-100,4,1,1,70,0,0
34312,-100,4,2,1,70,0,0
34471,-100,4,2,7,70,0,0
34950,-100,4,2,1,70,0,0
35429,-100,4,1,1,70,0,0
35588,-100,4,2,7,70,0,0
35748,-100,4,2,1,70,0,0
36546,-100,4,1,1,45,0,0
36705,-100,4,1,1,70,0,0
36865,-100,4,2,1,70,0,0
37024,-100,4,2,7,70,0,0
37104,-100,4,2,1,70,0,0
37344,-100,4,2,7,70,0,0
37503,-100,4,2,1,70,0,0
37663,-100,4,2,1,70,0,0
37982,-100,4,1,1,70,0,0
38301,-100,4,2,7,70,0,0
38620,-100,4,1,1,70,0,0
38939,-100,4,2,1,70,0,0
39259,-100,4,1,1,70,0,0
39578,-100,4,2,7,70,0,0
39897,-100,4,1,1,70,0,0
40056,-100,4,2,7,100,0,0
40535,-100,4,1,1,70,0,0
40854,-100,4,2,7,70,0,0
41173,-100,4,1,1,70,0,0
41493,-100,4,2,1,80,0,0
42290,-100,4,2,7,80,0,0
42450,-100,4,2,1,80,0,0
42769,-100,4,1,1,80,0,1
43407,-100,4,2,7,80,0,1
43727,-100,4,1,1,80,0,1
44046,-100,4,1,1,50,0,1
44126,-100,4,1,1,80,0,1
44524,-100,4,2,7,80,0,1
44684,-100,4,1,1,80,0,1
45003,-100,4,2,7,80,0,1
45163,-100,4,1,1,80,0,1
45322,-100,4,1,1,50,0,1
45402,-100,4,1,1,80,0,1
45961,-100,4,2,7,80,0,1
46040,-100,4,1,1,80,0,1
46120,-100,4,2,7,80,0,1
46280,-100,4,1,1,80,0,1
46439,-100,4,2,7,80,0,1
46519,-100,4,1,1,80,0,1
46599,-100,4,2,7,80,0,1
46838,-100,4,1,1,80,0,1
47237,-100,4,2,7,80,0,1
47317,-100,4,1,1,80,0,1
47397,-100,4,2,7,80,0,1
47556,-100,4,1,1,80,0,1
47716,-100,4,2,7,80,0,1
47876,-100,4,1,1,80,0,1
48195,-100,4,2,7,80,0,1
48354,-100,4,1,1,80,0,1
48514,-100,4,2,7,80,0,1
48753,-100,4,1,1,80,0,1
48993,-100,4,2,7,80,0,1
49072,-100,4,1,1,80,0,1
49312,-100,4,2,7,80,0,1
49471,-100,4,1,1,80,0,1
49790,-100,4,2,7,80,0,1
50110,-100,4,1,1,80,0,1
50429,-100,4,2,7,80,0,1
50588,-100,4,1,1,55,0,1
50748,-100,4,1,1,65,0,1
50907,-100,4,1,1,80,0,1
51227,-100,4,2,7,80,0,1
51306,-100,4,1,1,80,0,1
51386,-100,4,2,7,80,0,1
51546,-100,4,1,1,80,0,1
51705,-100,4,2,5,40,0,1
51785,-100,4,1,1,80,0,1
51865,-100,4,2,7,80,0,1
52024,-100,4,1,1,80,0,1
52184,-100,4,1,1,55,0,1
52663,-100,4,1,1,65,0,1
52982,-100,4,2,7,80,0,1
53062,-100,4,1,1,80,0,1
53620,-100,4,2,7,80,0,1
53939,-100,4,1,1,80,0,1
54259,-100,4,2,7,80,0,1
54338,-100,4,1,1,80,0,1
54737,-100,4,2,8,70,0,1
54817,-100,4,1,1,80,0,1
54897,-100,4,2,7,80,0,1
55216,-100,4,1,1,80,0,1
55535,-100,4,2,7,80,0,1
55615,-100,4,1,1,80,0,1
56173,-100,4,2,7,80,0,1
56253,-100,4,1,1,80,0,1
56333,-100,4,2,7,80,0,1
56493,-100,4,1,1,80,0,1
56652,-100,4,2,7,80,0,1
57131,-100,4,1,1,80,0,1
57450,-100,4,2,7,80,0,1
57530,-100,4,1,1,80,0,1
57610,-100,4,2,7,80,0,1
57769,-100,4,1,1,80,0,1
58727,-100,4,2,7,80,0,1
59046,-100,4,1,1,80,0,1
59205,-100,4,2,7,80,0,1
59285,-100,4,1,1,80,0,1
59524,-100,4,2,7,80,0,1
59684,-100,4,1,1,80,0,1
59844,-100,4,2,7,80,0,1
60083,-100,4,1,1,80,0,1
60163,-100,4,2,7,80,0,1
60322,-100,4,1,1,80,0,1
60642,-100,4,2,7,80,0,1
60721,-100,4,1,1,80,0,1
61599,-100,4,1,1,55,0,1
61759,-100,4,1,1,80,0,1
62237,-100,4,1,1,70,0,0
62716,-100,4,2,7,70,0,0
62955,-100,4,1,1,70,0,0
63035,-100,4,2,7,70,0,0
63115,-100,4,1,1,70,0,0
63514,-100,4,2,7,70,0,0
63833,-100,4,1,1,70,0,0
64312,-100,4,2,7,70,0,0
64471,-100,4,1,1,70,0,0
65030,-100,4,1,2,45,0,0
65145,319.148936170213,4,1,2,70,1,0
65748,319.148936170213,4,2,1,75,1,0
66386,-100,4,2,7,75,0,0
66466,-100,4,2,1,75,0,0
66545,-100,4,2,7,75,0,0
66705,-100,4,2,1,75,0,0
67024,-100,4,2,7,75,0,0
67184,-100,4,2,1,75,0,0
67503,-100,4,2,7,75,0,0
67742,-100,4,2,1,75,0,0
67822,-100,4,2,8,65,0,0
67902,-100,4,2,1,75,0,0
68141,-100,4,2,1,75,0,0
68301,-100,4,2,7,75,0,0
68460,-100,4,2,1,75,0,0
68939,-100,4,2,7,75,0,0
69019,-100,4,2,1,75,0,0
69099,-100,4,2,7,75,0,0
69258,-100,4,2,1,75,0,0
69577,-100,4,2,8,65,0,0
69657,-100,4,2,1,75,0,0
70056,-100,4,2,8,65,0,0
70136,-100,4,2,1,75,0,0
70216,-100,4,2,7,75,0,0
70535,-100,4,2,1,75,0,0
71492,-100,4,2,7,75,0,0
71572,-100,4,2,1,75,0,0
71652,-100,4,2,7,75,0,0
71811,-100,4,2,1,75,0,0
71971,-100,4,2,7,75,0,0
72290,-100,4,2,1,75,0,0
72609,-100,4,2,7,75,0,0
72849,-100,4,2,1,75,0,0
72928,-100,4,2,7,75,0,0
73088,-100,4,2,1,75,0,0
73407,-100,4,2,1,75,0,0
73567,-100,4,2,1,50,0,0
73726,-100,4,2,1,75,0,0
73886,-100,4,2,1,50,0,0
74205,-100,4,2,7,75,0,0
74285,-100,4,2,1,75,0,0
74843,-100,4,2,7,75,0,0
75162,-100,4,2,1,75,0,0
75880,-100,4,2,1,60,0,0
76599,-100,4,2,1,50,0,0
77237,-100,4,2,1,40,0,0
77875,-100,4,2,1,30,0,0
78513,-100,4,2,1,20,0,0
79152,-100,4,2,1,10,0,0
79471,-100,4,2,1,5,0,0

[Colours]
Combo1 : 0,0,215
Combo2 : 255,255,255
Combo3 : 33,1,126
Combo4 : 183,0,4

[HitObjects]
52,184,482,1,8,0:0:0:0:
52,184,562,1,8,0:0:0:0:
52,184,642,2,0,P|63:225|92:258,1,87.4999952316285,4|0,0:0|0:0,0:0:0:0:
162,325,961,1,8,0:0:0:0:
224,252,1120,1,0,0:0:0:0:
356,204,1280,2,0,P|384:237|396:278,1,87.4999952316285,4|2,0:0|0:0,0:0:0:0:
309,280,1599,1,8,0:0:0:0:
268,172,1759,1,0,0:0:0:0:
352,64,1918,6,0,L|288:0,1,87.4999952316285,2|0,0:0|0:0,0:0:0:0:
159,29,2237,2,0,L|236:72,1,87.4999952316285,8|2,0:0|0:0,0:0:0:0:
140,116,2556,2,0,L|36:104,1,87.4999952316285,4|2,0:0|0:0,0:0:0:0:
2,216,2876,2,0,L|88:196,1,87.4999952316285,8|4,0:0|0:0,0:0:0:0:
208,324,3195,5,6,0:0:0:0:
284,280,3354,1,0,0:0:0:0:
378,278,3514,2,0,P|368:236|335:207,1,87.4999952316285,8|4,0:0|0:0,0:0:0:0:
172,156,3833,2,0,P|208:180|252:180,2,87.4999952316285,8|0|8,0:0|0:0|0:0,0:0:0:0:
67,132,4312,6,0,P|87:93|121:67,1,87.4999952316285,0|6,0:0|0:0,0:0:0:0:
268,96,4631,1,0,0:0:0:0:
288,192,4790,1,8,0:0:0:0:
116,208,4950,1,2,0:0:0:0:
122,67,5110,1,4,0:0:0:0:
200,164,5269,1,0,0:0:0:0:
168,296,5429,2,0,P|200:312|250:316,1,87.4999952316285,8|4,0:0|0:0,0:0:0:0:
288,192,5748,5,4,0:0:0:0:
378,278,5907,1,0,0:0:0:0:
448,127,6067,2,0,B|408:103|408:103|368:67,1,87.4999952316285,8|4,0:0|0:0,0:0:0:0:
214,41,6386,1,6,0:0:0:0:
288,192,6546,1,2,0:0:0:0:
116,208,6705,1,8,0:0:0:0:
45,156,6865,2,0,B|85:180|85:180|116:208,1,87.4999952316285,0|6,0:0|0:0,0:0:0:0:
211,108,7184,1,0,0:0:0:0:
288,191,7344,2,0,P|277:233|275:277,1,87.4999952316285,8|4,0:0|0:0,0:0:0:0:
414,227,7663,2,0,P|424:184|427:141,2,87.4999952316285,4|4|8,0:0|0:0|0:0,0:0:0:0:
98,157,8301,6,0,L|160:96,1,87.4999952316285,8|0,0:0|0:0,0:0:0:0:
414,227,8620,2,0,L|352:288,1,87.4999952316285,0|8,0:0|0:0,0:0:0:0:
256,64,9099,5,8,0:0:0:0:
304,192,9259,1,0,0:0:0:0:
208,192,9418,1,4,0:0:0:0:
256,16,9737,5,8,0:0:0:0:
352,192,9896,1,0,0:0:0:0:
160,192,10056,2,0,P|128:224|112:276,1,87.4999952316285,4|0,0:0|0:0,0:0:0:0:
211,276,10376,2,0,P|243:308|295:324,1,87.4999952316285,4|0,0:0|0:0,0:0:0:0:
420,152,10695,1,8,0:0:0:0:
420,152,10774,1,8,0:0:0:0:
420,152,10854,2,0,P|436:112|416:64,1,87.4999952316285,4|0,3:0|0:0,0:0:0:0:
296,88,11173,6,0,L|220:36,1,87.4999952316285,4|0,0:0|0:0,0:0:0:0:
104,96,11493,2,0,L|190:107,1,87.4999952316285,2|0,0:0|0:0,0:0:0:0:
84,184,11812,2,0,L|4:264,1,87.4999952316285
100,288,12131,2,0,P|140:316|200:304,1,87.4999952316285,6|0,0:0|0:0,0:0:0:0:
186,145,12450,2,0,P|167:184|168:228,1,87.4999952316285,6|0,0:0|0:0,0:0:0:0:
339,198,12769,2,0,P|297:187|256:200,1,87.4999952316285,6|0,0:0|0:0,0:0:0:0:
296,359,13088,2,0,P|308:317|296:276,1,87.4999952316285,6|0,0:0|0:0,0:0:0:0:
380,312,13407,6,0,L|448:256,1,87.4999952316285,6|0,0:0|0:0,0:0:0:0:
368,220,13727,2,0,L|396:136,1,87.4999952316285
492,124,14046,2,0,P|440:48|344:56,1,174.999990463257,6|6,0:0|0:0,0:0:0:0:
272,76,14524,1,0,0:0:0:0:
188,28,14684,1,8,0:0:0:0:
24,176,15003,6,0,P|40:236|72:280,1,87.4999952316285,6|4,0:0|0:0,0:0:0:0:
120,188,15322,1,4,0:0:0:0:
188,120,15482,2,0,P|200:141|216:201,1,87.4999952316285,0|8,0:0|0:0,0:0:0:0:
120,188,15801,1,0,0:0:0:0:
160,276,15961,1,6,0:0:0:0:
400,228,16280,6,0,P|436:256|452:304,1,87.4999952316285,6|0,0:0|0:0,0:0:0:0:
356,316,16599,2,0,P|280:360|200:332,1,174.999990463257,2|2,0:0|0:0,0:0:0:0:
272,264,17078,1,0,0:0:0:0:
136,212,17237,2,0,L|172:108,1,87.4999952316285,6|0,0:0|0:0,0:0:0:0:
252,120,17556,2,0,L|320:36,1,87.4999952316285,6|0,0:0|0:0,0:0:0:0:
364,120,17876,2,0,L|460:88,1,87.4999952316285,6|0,0:0|0:0,0:0:0:0:
447,92,18195,1,6,0:0:0:0:
165,149,18514,6,0,L|49:129,1,87.4999952316285,6|0,0:0|0:0,0:0:0:0:
185,229,18833,2,0,L|301:249,1,87.4999952316285,6|0,0:0|0:0,0:0:0:0:
355,291,19152,2,0,B|387:227|327:191|365:120,1,174.999990463257,6|4,0:0|0:0,0:0:0:0:
185,229,19790,5,8,0:0:0:0:
185,229,19950,1,8,0:0:0:0:
84,60,20269,1,0,0:0:0:0:
56,104,20349,1,0,0:0:0:0:
56,152,20429,2,0,P|44:193|44:220,2,43.7499976158143,8|8|0,0:0|0:0|0:0,0:0:0:0:
188,156,20748,1,8,0:0:0:0:
106,310,20907,1,0,0:0:0:0:
106,310,20987,1,8,0:0:0:0:
106,310,21067,1,4,0:0:0:0:
296,344,21386,5,8,0:0:0:0:
378,315,21545,1,0,0:0:0:0:
429,247,21705,2,0,P|384:227|356:188,1,87.4999952316285,2|2,0:0|0:0,0:0:0:0:
296,40,22024,1,8,0:0:0:0:
378,69,22183,1,0,0:0:0:0:
429,136,22344,2,0,P|388:153|360:186,1,87.4999952316285,6|0,0:0|0:0,0:0:0:0:
296,40,22663,2,0,P|248:32|192:56,1,87.4999952316285,0|2,0:0|0:0,0:0:0:0:
132,80,22982,1,4,0:0:0:0:
92,164,23142,1,2,0:0:0:0:
108,248,23301,2,0,P|148:224|184:180,1,87.4999952316285,8|0,0:0|0:0,0:0:0:0:
228,104,23620,6,0,P|257:72|295:50,1,87.4999952316285,8|0,0:0|0:0,0:0:0:0:
312,136,23939,2,0,P|353:123|397:122,1,87.4999952316285,8|0,0:0|0:0,0:0:0:0:
284,280,24259,2,0,P|254:311|216:333,1,87.4999952316285,6|2,0:0|0:0,0:0:0:0:
200,248,24578,2,0,P|158:260|114:261,1,87.4999952316285,8|0,0:0|0:0,0:0:0:0:
137,58,24897,2,0,P|181:56|220:76,1,87.4999952316285,8|0,0:0|0:0,0:0:0:0:
12,132,25216,1,8,0:0:0:0:
52,36,25376,1,2,0:0:0:0:
165,179,25535,2,0,P|126:199|84:208,1,87.4999952316285,4|2,0:0|0:0,0:0:0:0:
248,112,25854,1,8,0:0:0:0:
336,168,26014,1,0,0:0:0:0:
384,260,26173,6,0,B|356:296|356:296|312:316,1,87.4999952316285,4|0,0:0|0:0,0:0:0:0:
212,328,26493,1,8,0:0:0:0:
252,232,26652,2,0,B|244:184|244:184|224:144,1,87.4999952316285,2|0,0:0|0:0,0:0:0:0:
164,64,26971,2,0,P|216:48|268:48,1,87.4999952316285,2|8,0:0|0:0,0:0:0:0:
344,164,27290,2,0,P|350:227|334:272,1,87.4999952316285,2|4,0:0|0:0,0:0:0:0:
268,208,27610,1,2,0:0:0:0:
221,124,27769,2,0,P|182:199|206:282,1,174.999990463257,8|0,0:0|0:0,0:0:0:0:
205,281,28407,2,0,B|244:296|244:296|264:296|264:296|312:308,1,87.4999952316285,8|0,0:0|0:0,0:0:0:0:
124,244,28727,6,0,B|85:229|85:229|65:229|65:229|17:217,2,87.4999952316285,4|0|8,0:0|0:0|0:0,0:0:0:0:
196,192,29205,2,0,P|232:156|240:116,1,87.4999952316285,4|0,0:0|0:0,0:0:0:0:
152,116,29524,2,0,P|88:116|56:140,1,87.4999952316285,2|8,0:0|0:0,0:0:0:0:
122,206,29844,1,4,0:0:0:0:
125,348,30003,1,4,0:0:0:0:
206,232,30163,1,2,0:0:0:0:
72,278,30322,1,8,0:0:0:0:
208,320,30482,1,0,0:0:0:0:
320,308,30642,5,8,0:0:0:0:
356,284,30721,1,8,0:0:0:0:
388,252,30801,1,8,0:0:0:0:
408,212,30881,1,8,0:0:0:0:
428,172,30961,2,0,P|412:120|372:88,1,87.4999952316285,8|0,0:0|0:0,0:0:0:0:
332,164,31280,2,0,P|272:152|248:128,1,87.4999952316285,2|0,0:0|0:0,0:0:0:0:
168,121,31599,2,0,P|180:88|220:56,2,87.4999952316285,8|8|0,0:0|0:0|0:0,0:0:0:0:
212,196,32078,2,0,P|256:256|304:184,1,174.999990463257,8|4,0:0|0:0,0:0:0:0:
500,164,32716,5,0,0:0:0:0:
416,112,32875,1,8,0:0:0:0:
412,216,33035,2,0,P|420:248|408:300,2,87.4999952316285,0|2|2,0:0|0:0|0:0,0:0:0:0:
324,256,33514,2,0,P|316:224|328:172,1,87.4999952316285,8|0,0:0|0:0,0:0:0:0:
236,268,33833,6,0,L|300:340,2,87.4999952316285,4|0|8,0:0|0:0|0:0,0:0:0:0:
228,164,34312,2,0,L|164:92,1,87.4999952316285,8|4,0:0|0:0,0:0:0:0:
104,180,34631,1,2,0:0:0:0:
332,180,34950,1,8,0:0:0:0:
164,228,35269,1,0,0:0:0:0:
100,288,35429,1,8,0:0:0:0:
176,332,35588,1,2,0:0:0:0:
260,308,35748,2,0,P|292:292|332:252,1,87.4999952316285,8|0,0:0|0:0,0:0:0:0:
152,116,36067,5,8,0:0:0:0:
232,200,36227,1,0,0:0:0:0:
152,116,36386,2,0,P|100:136|76:184,2,87.4999952316285,4|8|8,0:0|0:0|0:0,0:0:0:0:
188,36,36865,2,0,P|224:64|244:104,1,87.4999952316285,8|4,0:0|0:0,0:0:0:0:
316,52,37184,2,0,P|336:108|328:164,1,87.4999952316285,8|4,0:0|0:0,0:0:0:0:
256,200,37503,1,4,0:0:0:0:
157,271,37663,1,0,0:0:0:0:
82,161,37822,1,0,0:0:0:0:
256,364,37982,1,8,0:0:0:0:
256,364,38301,5,2,0:0:0:0:
256,260,38461,1,2,0:0:0:0:
352,220,38620,2,0,P|440:308|412:372,1,174.999990463257,8|4,0:0|0:0,0:0:0:0:
256,364,39099,1,0,0:0:0:0:
79,343,39259,2,0,P|72:308|160:220,1,174.999990463257,8|2,0:0|0:0,0:0:0:0:
256,260,39737,1,2,0:0:0:0:
256,72,39897,1,8,0:0:0:0:
352,220,40056,6,0,L|472:196,1,87.4999952316285,4|0,0:0|0:0,0:0:0:0:
496,128,40376,2,0,L|396:100,1,87.4999952316285,0|8,0:0|0:0,0:0:0:0:
312,60,40695,1,0,0:0:0:0:
148,112,40853,1,6,0:0:0:0:
224,64,41014,1,2,0:0:0:0:
112,192,41173,1,8,0:0:0:0:
312,60,41493,5,0,0:0:0:0:
384,280,41652,1,0,0:0:0:0:
432,152,41812,1,0,0:0:0:0:
256,316,41971,1,0,0:0:0:0:
256,316,42290,1,2,0:0:0:0:
256,108,42450,1,8,0:0:0:0:
192,256,42609,1,0,0:0:0:0:
320,256,42769,5,4,0:0:0:0:
256,36,43088,1,8,0:0:0:0:
256,316,43407,1,4,0:0:0:0:
320,256,43567,1,2,0:0:0:0:
192,256,43727,1,8,0:0:0:0:
408,252,44046,2,0,B|408:168|408:168|440:124|440:124|440:52,1,174.999990463257,4|8,0:0|0:0,0:0:0:0:
360,100,44523,1,2,0:0:0:0:
332,204,44684,1,0,0:0:0:0:
180,204,45003,1,4,0:0:0:0:
152,100,45163,1,0,0:0:0:0:
72,87,45322,6,0,B|72:124|72:124|104:168|104:168|104:252,1,174.999990463257,4|8,0:0|0:0,0:0:0:0:
204,324,45801,1,0,0:0:0:0:
324,284,45961,2,0,P|408:272|424:248,1,87.4999952316285,2|2,0:0|0:0,0:0:0:0:
356,200,46280,1,8,0:0:0:0:
396,120,46439,1,2,0:0:0:0:
376,80,46519,1,0,0:0:0:0:
344,48,46599,1,4,0:0:0:0:
268,88,46759,2,0,P|244:124|252:168,2,87.4999952316285,2|8|0,0:0|0:0|0:0,0:0:0:0:
390,193,47237,2,0,P|360:184|324:144,1,87.4999952316285,4|2,0:0|0:0,0:0:0:0:
192,216,47556,1,8,0:0:0:0:
192,216,47716,1,0,0:0:0:0:
88,244,47876,6,0,P|140:312|232:316,1,174.999990463257,4|4,0:0|0:0,0:0:0:0:
224,319,48354,1,0,0:0:0:0:
316,264,48514,1,6,0:0:0:0:
458,221,48673,2,0,P|434:165|402:145,1,87.4999952316285,2|8,0:0|0:0,0:0:0:0:
264,144,48993,2,0,L|196:184,2,43.7499976158143,2|0|0,0:0|0:0|0:0,0:0:0:0:
98,67,49312,1,2,0:0:0:0:
98,67,49471,2,0,P|128:96|136:140,1,87.4999952316285,8|0,0:0|0:0,0:0:0:0:
48,140,49790,1,6,0:0:0:0:
152,248,49950,1,2,0:0:0:0:
256,114,50110,1,8,0:0:0:0:
189,333,50428,5,6,0:0:0:0:
324,290,50588,1,8,0:0:0:0:
236,250,50747,1,8,0:0:0:0:
272,360,50907,1,8,0:0:0:0:
256,114,51227,2,0,P|240:58|268:18,1,87.4999952316285,2|4,0:0|0:0,0:0:0:0:
328,74,51546,2,0,B|356:114|316:178|316:178|316:246,1,174.999990463257,4|2,0:0|0:0,0:0:0:0:
400,268,52024,1,4,0:0:0:0:
472,88,52184,1,8,0:0:0:0:
340,196,52344,1,8,0:0:0:0:
512,168,52503,1,8,0:0:0:0:
464,340,52663,1,8,0:0:0:0:
340,196,52822,1,8,0:0:0:0:
188,260,52982,6,0,P|135:207|129:165,1,87.4999952316285,6|0,0:0|0:0,0:0:0:0:
216,134,53301,2,0,P|235:62|268:36,1,87.4999952316285,8|0,0:0|0:0,0:0:0:0:
396,104,53620,1,4,0:0:0:0:
396,104,53780,1,2,0:0:0:0:
396,104,53939,2,0,P|352:44|312:32,1,87.4999952316285,8|0,0:0|0:0,0:0:0:0:
304,120,54259,2,0,P|368:188|464:172,2,174.999990463257,6|8|4,0:0|0:0|0:0,0:0:0:0:
94,137,55216,6,0,P|112:104|152:76,1,87.4999952316285,8|0,0:0|0:0,0:0:0:0:
108,252,55535,2,0,P|72:232|44:195,1,87.4999952316285,6|0,0:0|0:0,0:0:0:0:
192,252,55854,2,0,P|184:288|152:326,1,87.4999952316285,8|0,0:0|0:0,0:0:0:0:
180,160,56173,2,0,P|236:172|257:191,1,87.4999952316285,6|2,0:0|0:0,0:0:0:0:
336,160,56493,1,8,0:0:0:0:
456,132,56652,1,2,0:0:0:0:
412,204,56812,1,4,0:0:0:0:
380,84,56971,1,2,0:0:0:0:
304,40,57131,2,0,L|204:28,1,87.4999952316285,8|0,0:0|0:0,0:0:0:0:
136,100,57450,2,0,L|32:124,1,87.4999952316285,6|2,0:0|0:0,0:0:0:0:
180,172,57769,1,8,0:0:0:0:
492,320,58088,6,0,P|412:280|312:280,1,174.999990463257,4|8,0:0|0:0,0:0:0:0:
276,200,58567,1,0,0:0:0:0:
212,128,58726,1,6,0:0:0:0:
132,180,58886,1,6,0:0:0:0:
156,272,59046,1,0,0:0:0:0:
200,376,59205,2,0,P|244:340|260:308,1,87.4999952316285,2|0,0:0|0:0,0:0:0:0:
276,200,59524,1,2,0:0:0:0:
292,88,59684,2,0,P|324:48|384:36,1,87.4999952316285,8|4,0:0|0:0,0:0:0:0:
437,178,60003,2,0,L|372:120,1,87.4999952316285,4|2,0:0|0:0,0:0:0:0:
368,228,60322,2,0,L|433:286,1,87.4999952316285
236,268,60642,6,0,P|200:284|152:292,2,87.4999952316285,6|8|8,0:0|0:0|0:0,0:0:0:0:
320,312,61120,1,4,0:0:0:0:
320,72,61439,1,4,0:0:0:0:
437,178,61599,1,8,0:0:0:0:
260,140,61759,2,0,L|216:184,2,43.7499976158143,4|0|0,0:0|0:0|0:0,0:0:0:0:
124,56,62237,6,0,P|100:108|108:148,1,87.4999952316285,8|0,0:0|0:0,0:0:0:0:
188,160,62556,2,0,P|244:188|268:236,1,87.4999952316285,0|2,0:0|0:0,0:0:0:0:
124,212,62876,2,0,P|108:272|88:296,2,87.4999952316285,2|2|4,0:0|0:0|0:0,0:0:0:0:
204,180,63354,1,0,0:0:0:0:
268,120,63514,1,4,0:0:0:0:
224,44,63673,1,2,0:0:0:0:
136,36,63833,2,0,L|156:80,2,43.7499976158143,8|0|0,0:0|0:0|0:0,0:0:0:0:
64,92,64152,5,0,0:0:0:0:
104,168,64312,1,2,0:0:0:0:
64,244,64471,1,8,0:0:0:0:
104,320,64631,1,8,0:0:0:0:
188,300,64790,2,0,P|240:324|316:312,1,131.249992847443,0|8,0:0|0:0,0:0:0:0:
360,292,65145,5,8,0:0:0:0:
295,133,65304,1,8,0:0:0:0:
385,189,65464,1,4,3:0:0:0:
104,168,65748,5,4,0:0:0:0:
104,168,65828,1,0,0:0:0:0:
104,168,65907,1,0,0:0:0:0:
47,79,66067,2,0,P|89:68|133:66,1,87.4999952316285,8|0,0:0|0:0,0:0:0:0:
209,174,66386,2,0,P|196:215|176:254,1,87.4999952316285,4|2,0:0|0:0,0:0:0:0:
256,80,66705,1,8,0:0:0:0:
256,80,66865,2,0,P|300:76|344:80,1,87.4999952316285,0|6,0:0|0:0,0:0:0:0:
404,168,67184,1,0,0:0:0:0:
344,248,67343,2,0,P|300:252|256:248,1,87.4999952316285,8|2,0:0|0:0,0:0:0:0:
208,328,67662,2,0,P|168:256|212:168,1,174.999990463257,4|8,0:0|0:0,0:0:0:0:
272,112,68141,1,0,0:0:0:0:
212,48,68301,5,6,0:0:0:0:
176,128,68460,1,0,0:0:0:0:
112,64,68620,1,8,0:0:0:0:
80,144,68779,1,0,0:0:0:0:
176,128,68939,2,0,P|228:164|240:220,1,87.4999952316285,4|2,0:0|0:0,0:0:0:0:
324,164,69258,1,8,0:0:0:0:
428,260,69418,2,0,P|384:240|268:292,1,174.999990463257
273,284,69817,1,0,0:0:0:0:
273,284,69896,2,0,P|184:312|100:244,1,174.999990463257,8|4,0:0|0:0,0:0:0:0:
52,216,70375,1,2,0:0:0:0:
100,144,70535,1,8,0:0:0:0:
324,164,70854,6,0,P|354:209|402:233,1,87.4999952316285,4|0,0:0|0:0,0:0:0:0:
424,127,71173,2,0,P|401:89|366:64,1,87.4999952316285,8|0,0:0|0:0,0:0:0:0:
268,44,71492,2,0,L|212:80,2,43.7499976158143,4|0|2,0:0|0:0|0:0,0:0:0:0:
292,128,71812,1,8,0:0:0:0:
204,140,71971,1,4,0:0:0:0:
140,204,72131,1,2,0:0:0:0:
140,204,72290,1,0,0:0:0:0:
128,292,72450,1,8,0:0:0:0:
128,292,72609,1,2,0:0:0:0:
212,308,72769,2,0,P|253:276|272:232,1,87.4999952316285,4|2,0:0|0:0,0:0:0:0:
364,256,73088,2,0,P|356:204|328:166,1,87.4999952316285,8|0,0:0|0:0,0:0:0:0:
72,120,73407,5,8,0:0:0:0:
92,204,73566,1,8,0:0:0:0:
132,56,73726,1,0,0:0:0:0:
220,72,73886,1,8,0:0:0:0:
276,236,74205,2,0,P|324:208|356:160,1,87.4999952316285,4|0,0:0|0:0,0:0:0:0:
260,156,74524,1,8,0:0:0:0:
384,32,74844,1,2,0:0:0:0:
320,92,75003,1,2,0:0:0:0:
256,32,75163,5,4,0:0:0:0:
416,336,75482,1,4,0:0:0:0:
96,336,75801,1,4,0:0:0:0:
256,192,75880,12,0,79470,0:0:0:0:
