osu file format v12

[General]
AudioFilename: Unite.mp3
AudioLeadIn: 2000
PreviewTime: 41493
Countdown: 0
SampleSet: Soft
StackLeniency: 0.7
Mode: 0
LetterboxInBreaks: 0
WidescreenStoryboard: 0

[Editor]
DistanceSpacing: 1.1
BeatDivisor: 4
GridSize: 4

[Metadata]
Title:Unite (TV Size)
TitleUnicode:ユナイト (TV Size)
Artist:Misawa Sachika
ArtistUnicode:三澤紗千香
Creator:Losertic
Version:Hard
Source:Accel World
Tags:アクセル・ワールド yunaito ending kuroyukihime wakeshima kanon
BeatmapID:253448
BeatmapSetID:94078

[Difficulty]
HPDrainRate:6
CircleSize:4
OverallDifficulty:6
ApproachRate:8
SliderMultiplier:1.39999990463257
SliderTickRate:2

[Events]
//Background and Video events
0,0,"Background-Unite.jpg",0,0
Video,0,"Video-Unite.avi"
//Break Periods
//Storyboard Layer 0 (Background)
//Storyboard Layer 1 (Fail)
//Storyboard Layer 2 (Pass)
//Storyboard Layer 3 (Foreground)
//Storyboard Sound Samples
//Background Colour Transformations
3,100,163,162,255

[TimingPoints]
642,319.148936170213,4,2,1,75,1,0
1280,-100,4,2,7,75,0,0
1360,-100,4,2,1,75,0,0
1439,-100,4,2,7,75,0,0
1519,-100,4,2,1,75,0,0
1759,-100,4,2,7,75,0,0
1838,-100,4,2,1,75,0,0
1918,-100,4,2,8,65,0,0
1998,-100,4,2,1,75,0,0
2397,-100,4,2,7,75,0,0
2636,-100,4,2,1,75,0,0
2716,-100,4,2,7,75,0,0
2876,-100,4,2,1,75,0,0
3195,-100,4,2,7,75,0,0
3274,-100,4,2,1,75,0,0
3833,-100,4,2,7,75,0,0
4152,-100,4,2,1,75,0,0
4471,-100,4,2,7,75,0,0
4631,-100,4,2,1,75,0,0
4950,-100,4,2,7,75,0,0
5349,-100,4,2,1,75,0,0
5588,-100,4,2,7,75,0,0
5748,-100,4,2,1,75,0,0
6386,-100,4,2,7,75,0,0
6626,-100,4,2,1,75,0,0
7024,-100,4,2,8,65,0,0
7104,-100,4,2,1,75,0,0
7503,-100,4,2,7,75,0,0
7743,-100,4,2,1,75,0,0
8461,-100,4,2,1,50,0,0
8540,-100,4,2,1,75,0,0
9897,-100,4,2,7,75,0,0
10056,-100,4,2,1,75,0,0
10695,-100,4,2,1,70,0,0
11173,-100,4,2,7,70,0,0
11253,-100,4,2,1,70,0,0
11493,-100,4,2,7,70,0,0
12211,-100,4,2,1,70,0,0
12450,-100,4,2,7,70,0,0
12530,-100,4,2,1,70,0,0
12769,-100,4,2,7,70,0,0
13487,-100,4,2,1,70,0,0
13727,-100,4,2,7,70,0,0
13806,-100,4,2,1,70,0,0
14046,-100,4,2,7,70,0,0
14684,-100,4,2,1,70,0,0
15003,-100,4,2,7,70,0,0
15482,-100,4,2,1,70,0,0
15642,-100,4,1,2,70,0,0
15961,-100,4,2,7,70,0,0
16360,-100,4,2,1,70,0,0
16599,-100,4,2,7,70,0,0
16679,-100,4,2,1,70,0,0
16918,-100,4,2,7,70,0,0
17955,-100,4,2,1,70,0,0
18195,-100,4,2,7,70,0,0
19232,-100,4,2,1,70,0,0
19471,-100,4,2,7,70,0,0
19790,-100,4,1,2,70,0,0
19950,-100,4,1,2,45,0,0
20748,-100,4,2,1,45,0,0
20907,-100,4,2,1,70,0,0
21386,-100,4,1,1,70,0,0
21466,-100,4,2,1,70,0,0
21705,-100,4,2,7,70,0,0
21785,-100,4,2,1,70,0,0
21865,-100,4,2,7,70,0,0
22024,-100,4,1,1,70,0,0
22104,-100,4,2,1,70,0,0
22344,-100,4,2,1,70,0,0
22663,-100,4,1,1,70,0,0
22822,-100,4,2,7,70,0,0
23062,-100,4,2,1,70,0,0
23142,-100,4,2,7,70,0,0
23301,-100,4,1,1,70,0,0
23381,-100,4,2,1,70,0,0
23620,-100,4,2,7,70,0,0
23700,-100,4,2,1,70,0,0
23939,-100,4,1,1,70,0,0
24019,-100,4,2,1,70,0,0
24259,-100,4,2,7,70,0,0
24578,-100,4,1,1,70,0,0
24657,-100,4,2,1,70,0,0
25216,-100,4,1,1,70,0,0
25535,-100,4,2,7,70,0,0
25615,-100,4,2,1,70,0,0
25695,-100,4,2,8,60,0,0
25774,-100,4,2,1,70,0,0
25854,-100,4,2,1,70,0,0
26493,-100,4,1,1,70,0,0
26652,-100,4,2,7,70,0,0
26732,-100,4,2,1,70,0,0
26971,-100,4,2,7,70,0,0
27131,-100,4,1,1,70,0,0
27290,-100,4,2,7,70,0,0
27370,-100,4,2,1,70,0,0
27610,-100,4,2,7,70,0,0
27769,-100,4,2,1,70,0,0
27929,-100,4,2,8,70,0,0
28009,-100,4,2,1,70,0,0
28407,-100,4,1,1,70,0,0
28487,-100,4,2,1,70,0,0
29046,-100,4,1,1,70,0,0
29205,-100,4,2,7,70,0,0
30322,-100,4,1,1,70,0,0
30642,-100,4,1,1,45,0,0
31120,-100,4,2,1,70,0,0
31280,-100,4,2,7,70,0,0
31599,-100,4,1,1,70,0,0
31759,-100,4,2,7,70,0,0
32157,-100,4,2,1,70,0,0
32876,-100,4,1,1,70,0,0
33035,-100,4,2,1,70,0,0
33195,-100,4,2,7,70,0,0
33274,-100,4,2,1,70,0,0
33354,-100,4,2,7,70,0,0
33514,-100,4,1,1,70,0,0
33833,-100,4,2,1,70,0,0
34152,-100,4,1,1,70,0,0
34312,-100,4,2,1,70,0,0
34631,-100,4,2,7,70,0,0
34711,-100,4,2,1,70,0,0
35429,-100,4,1,1,70,0,0
35588,-100,4,2,7,70,0,0
35668,-100,4,2,1,70,0,0
35748,-100,4,2,7,70,0,0
35828,-100,4,2,1,70,0,0
36546,-100,4,2,6,60,0,0
36626,-100,4,2,1,70,0,0
36865,-100,4,2,7,70,0,0
37264,-100,4,2,1,70,0,0
37344,-100,4,2,7,70,0,0
37423,-100,4,2,1,70,0,0
37982,-100,4,1,1,70,0,0
38062,-100,4,2,1,70,0,0
38461,-100,4,2,7,70,0,0
38620,-100,4,1,1,70,0,0
38700,-100,4,2,1,70,0,0
39259,-100,4,1,1,70,0,0
39418,-100,4,2,1,70,0,0
39578,-100,4,2,7,70,0,0
39897,-100,4,2,1,70,0,0
40056,-100,4,2,7,70,0,0
40136,-100,4,2,1,70,0,0
40535,-100,4,1,1,70,0,0
40615,-100,4,2,1,70,0,0
40854,-100,4,2,7,70,0,0
40934,-100,4,2,1,70,0,0
41493,-100,4,2,1,80,0,0
42290,-100,4,2,7,80,0,0
42450,-100,4,1,1,80,0,0
42769,-100,4,1,1,80,0,1
43407,-100,4,2,7,80,0,1
43727,-100,4,1,1,80,0,1
44046,-100,4,1,1,50,0,1
44365,-100,4,1,1,80,0,1
44684,-100,4,2,7,80,0,1
45003,-100,4,1,1,80,0,1
45961,-100,4,2,7,80,0,1
46280,-100,4,1,1,80,0,1
46439,-100,4,2,7,80,0,1
46519,-100,4,1,1,80,0,1
46759,-100,4,2,7,80,0,1
46918,-100,4,1,1,80,0,1
47237,-100,4,2,7,80,0,1
47556,-100,4,1,1,80,0,1
48514,-100,4,2,7,80,0,1
48594,-100,4,1,1,80,0,1
48673,-100,4,2,8,70,0,1
48753,-100,4,1,1,80,0,1
48993,-100,4,2,7,80,0,1
49471,-100,4,1,1,80,0,1
49790,-100,4,2,7,80,0,1
50110,-100,4,1,1,80,0,1
50429,-100,4,2,7,80,0,1
50509,-100,4,1,1,80,0,1
50588,-100,4,1,1,55,0,1
50668,-100,4,1,1,80,0,1
50748,-100,4,1,1,65,0,1
50907,-100,4,2,7,80,0,1
51546,-100,4,1,1,80,0,1
51705,-100,4,2,5,40,0,1
51785,-100,4,1,1,80,0,1
51865,-100,4,2,7,80,0,1
52024,-100,4,1,1,80,0,1
52184,-100,4,1,1,55,0,1
52663,-100,4,1,1,65,0,1
52982,-100,4,1,1,80,0,1
53301,-100,4,2,1,80,0,1
53620,-100,4,2,7,80,0,1
53700,-100,4,1,1,80,0,1
54259,-100,4,2,7,80,0,1
54338,-100,4,1,1,80,0,1
54737,-100,4,2,7,80,0,1
54977,-100,4,1,1,80,0,1
55056,-100,4,2,7,80,0,1
55216,-100,4,1,1,80,0,1
55535,-100,4,2,7,80,0,1
55615,-100,4,1,1,80,0,1
56173,-100,4,2,7,80,0,1
56253,-100,4,1,1,80,0,1
56333,-100,4,2,7,80,0,1
56413,-100,4,1,1,80,0,1
56652,-100,4,2,7,80,0,1
56732,-100,4,1,1,80,0,1
56971,-100,4,2,7,80,0,1
57051,-100,4,1,1,80,0,1
57131,-100,4,2,6,70,0,1
57211,-100,4,1,1,80,0,1
57450,-100,4,2,7,80,0,1
57769,-100,4,1,1,80,0,1
58727,-100,4,2,7,80,0,1
58806,-100,4,1,1,80,0,1
58886,-100,4,2,7,80,0,1
59285,-100,4,1,1,80,0,1
59524,-100,4,2,7,80,0,1
59684,-100,4,1,1,80,0,1
60003,-100,4,2,7,80,0,1
60083,-100,4,1,1,80,0,1
60163,-100,4,2,8,70,0,1
60243,-100,4,1,1,80,0,1
60642,-100,4,2,7,80,0,1
60721,-100,4,1,1,80,0,1
60801,-100,4,2,6,70,0,1
60881,-100,4,1,1,80,0,1
61599,-100,4,2,6,70,0,1
61679,-100,4,1,1,80,0,1
62237,-100,4,1,1,70,0,0
63514,-100,4,2,7,70,0,0
63594,-100,4,1,1,70,0,0
63673,-100,4,2,8,60,0,0
63753,-100,4,1,1,70,0,0
64312,-100,4,2,7,70,0,0
64471,-100,4,1,1,70,0,0
65145,319.148936170213,4,1,2,70,1,0
65748,319.148936170213,4,2,1,75,1,0
66067,-100,4,1,1,75,0,0
66386,-100,4,2,7,75,0,0
66466,-100,4,2,1,75,0,0
66545,-100,4,2,7,75,0,0
66705,-100,4,2,1,75,0,0
67024,-100,4,2,7,75,0,0
67104,-100,4,2,1,75,0,0
67503,-100,4,2,7,75,0,0
67742,-100,4,2,1,75,0,0
67822,-100,4,2,7,75,0,0
67982,-100,4,2,1,75,0,0
68301,-100,4,2,7,75,0,0
68460,-100,4,2,1,75,0,0
68939,-100,4,2,7,75,0,0
69019,-100,4,2,1,75,0,0
69099,-100,4,2,7,75,0,0
69258,-100,4,2,1,75,0,0
69577,-100,4,2,7,75,0,0
69737,-100,4,2,1,75,0,0
69896,-100,4,2,5,65,0,0
69976,-100,4,2,1,75,0,0
70056,-100,4,2,7,75,0,0
70455,-100,4,2,1,75,0,0
71492,-100,4,2,7,75,0,0
71572,-100,4,2,1,75,0,0
71652,-100,4,2,7,75,0,0
71732,-100,4,2,1,75,0,0
72130,-100,4,2,7,75,0,0
72290,-100,4,2,1,75,0,0
72609,-100,4,2,7,75,0,0
72689,-100,4,2,1,75,0,0
72769,-100,4,2,7,75,0,0
72849,-100,4,2,1,75,0,0
72928,-100,4,2,7,75,0,0
73088,-100,4,2,1,75,0,0
73567,-100,4,2,1,50,0,0
73726,-100,4,2,1,75,0,0
73886,-100,4,2,1,50,0,0
74205,-100,4,2,7,75,0,0
74285,-100,4,2,1,75,0,0
74843,-100,4,2,7,75,0,0
75162,-100,4,2,1,75,0,0
75880,-100,4,2,1,60,0,0
76599,-100,4,2,1,50,0,0
77237,-100,4,2,1,40,0,0
77875,-100,4,2,1,30,0,0
78513,-100,4,2,1,20,0,0
79152,-100,4,2,1,10,0,0
79471,-100,4,2,1,5,0,0

[Colours]
Combo1 : 0,0,215
Combo2 : 255,255,255
Combo3 : 33,1,126
Combo4 : 183,0,4

[HitObjects]
113,186,482,2,0,L|136:160,2,34.9999976158143,8|8|4,0:0|0:0|0:0,0:0:0:0:
84,252,801,1,0,0:0:0:0:
136,300,961,1,8,0:0:0:0:
276,280,1280,2,0,P|296:308|352:328,2,69.9999952316285,4|2|8,0:0|0:0|0:0,0:0:0:0:
236,208,1759,6,0,P|304:200|356:260,1,139.999990463257,4|0,0:0|0:0,0:0:0:0:
424,200,2237,2,0,L|440:120,1,69.9999952316285,8|2,0:0|0:0,0:0:0:0:
360,144,2556,2,0,L|332:80,1,69.9999952316285,4|2,0:0|0:0,0:0:0:0:
260,48,2876,1,8,0:0:0:0:
236,208,3195,6,0,L|184:276,1,69.9999952316285,6|0,0:0|0:0,0:0:0:0:
136,212,3514,2,0,B|104:252|120:300|120:300|120:348,1,139.999990463257,8|6,0:0|0:0,0:0:0:0:
200,344,3993,1,2,0:0:0:0:
260,296,4152,1,0,0:0:0:0:
328,328,4313,6,0,P|364:288|376:256,1,69.9999952316285,0|6,0:0|0:0,0:0:0:0:
384,204,4632,1,0,0:0:0:0:
388,128,4790,1,8,0:0:0:0:
340,68,4949,1,2,0:0:0:0:
256,188,5269,2,0,P|230:211|213:242,2,69.9999952316285,4|8|4,0:0|0:0|0:0,0:0:0:0:
283,116,5747,1,4,0:0:0:0:
168,32,6067,6,0,P|100:84|80:152,1,139.999990463257,8|6,0:0|0:0,0:0:0:0:
63,211,6546,2,0,P|48:232|39:243,2,34.9999976158143,2|0|8,0:0|0:0|0:0,0:0:0:0:
124,264,6865,2,0,P|192:212|210:163,1,139.999990463257
274,117,7344,2,0,P|306:89|346:73,1,69.9999952316285,8|4,0:0|0:0,0:0:0:0:
352,172,7663,2,0,P|348:220|336:252,1,69.9999952316285,4|0,0:0|0:0,0:0:0:0:
299,312,7982,1,8,0:0:0:0:
184,164,8301,5,8,0:0:0:0:
184,164,8461,2,0,L|132:112,1,69.9999952316285,8|0,0:0|0:0,0:0:0:0:
104,48,8780,2,0,P|60:108|80:168,1,139.999990463257,4|8,0:0|0:0,0:0:0:0:
88,236,9259,2,0,L|128:320,1,69.9999952316285,0|4,0:0|0:0,0:0:0:0:
244,284,9737,6,0,L|324:320,1,69.9999952316285,8|2,0:0|0:0,0:0:0:0:
348,256,10056,2,0,L|424:236,1,69.9999952316285,4|0,0:0|0:0,0:0:0:0:
476,200,10376,1,4,0:0:0:0:
352,128,10695,2,0,L|310:107,2,34.9999976158143,8|8|4,0:0|0:0|3:0,0:0:0:0:
160,128,11173,6,0,P|128:192|160:256,1,139.999990463257,6|2,0:0|0:0,0:0:0:0:
256,192,11812,1,6,0:0:0:0:
352,128,12131,2,0,P|384:192|358:250,2,139.999990463257,6|6|6,0:0|0:0|0:0,0:0:0:0:
384,32,13089,1,2,0:0:0:0:
192,64,13407,6,0,P|256:36|316:64,2,139.999990463257,2|2|2,0:0|0:0|0:0,0:0:0:0:
256,192,14365,1,6,0:0:0:0:
256,332,14685,1,8,0:0:0:0:
112,280,15003,5,6,0:0:0:0:
156,332,15163,1,4,0:0:0:0:
356,332,15482,1,0,0:0:0:0:
400,280,15642,1,8,0:0:0:0:
256,192,15961,1,6,0:0:0:0:
116,192,16280,6,0,P|112:112|176:76,2,139.999990463257,6|2|2,0:0|0:0|0:0,0:0:0:0:
256,192,17237,1,6,0:0:0:0:
360,100,17556,1,6,0:0:0:0:
424,224,17876,2,0,P|360:296|304:316,1,139.999990463257,6|6,0:0|0:0,0:0:0:0:
300,180,18514,5,4,0:0:0:0:
204,76,18833,1,6,0:0:0:0:
116,184,19152,2,0,P|180:256|236:276,1,139.999990463257,2|6,0:0|0:0,0:0:0:0:
344,188,19790,5,8,0:0:0:0:
344,188,19950,1,8,0:0:0:0:
96,112,20429,2,0,L|80:80,2,34.9999976158143,8|8|8,0:0|0:0|0:0,0:0:0:0:
45,179,20748,1,8,0:0:0:0:
96,247,20907,1,0,0:0:0:0:
175,221,21067,1,4,0:0:0:0:
292,64,21386,6,0,L|384:80,1,69.9999952316285,8|0,0:0|0:0,0:0:0:0:
324,144,21705,2,0,L|395:203,1,69.9999952316285,2|2,0:0|0:0,0:0:0:0:
320,240,22024,2,0,L|352:327,2,69.9999952316285,8|0|0,0:0|0:0|0:0,0:0:0:0:
260,192,22503,1,0,0:0:0:0:
248,116,22663,1,8,0:0:0:0:
184,76,22822,1,2,0:0:0:0:
112,108,22982,2,0,L|132:200,1,69.9999952316285,4|2,0:0|0:0,0:0:0:0:
52,200,23301,2,0,L|115:269,1,69.9999952316285,8|0,0:0|0:0,0:0:0:0:
156,332,23620,6,0,P|180:304|196:268,1,69.9999952316285,6|0,0:0|0:0,0:0:0:0:
156,208,23939,2,0,P|236:212|272:284,1,139.999990463257,8|6,0:0|0:0,0:0:0:0:
296,328,24418,1,2,0:0:0:0:
348,268,24578,2,0,P|428:264|464:192,1,139.999990463257,8|8,0:0|0:0,0:0:0:0:
492,148,25056,1,0,0:0:0:0:
414,157,25216,1,8,0:0:0:0:
414,157,25535,6,0,P|390:93|328:68,1,139.999990463257,4|8,0:0|0:0,0:0:0:0:
213,175,26173,2,0,P|123:159|94:95,1,139.999990463257,4|8,0:0|0:0,0:0:0:0:
194,33,26652,2,0,P|186:67|176:100,1,69.9999952316285,6|0,0:0|0:0,0:0:0:0:
98,122,26971,1,2,0:0:0:0:
52,184,27131,1,8,0:0:0:0:
52,184,27290,2,0,P|109:235|176:260,1,139.999990463257,6|2,0:0|0:0,0:0:0:0:
304,332,27769,2,0,B|318:261|318:261|368:200,1,139.999990463257,8|0,0:0|0:0,0:0:0:0:
336,44,28407,6,0,L|385:93,1,69.9999952316285,8|0,0:0|0:0,0:0:0:0:
432,152,28727,2,0,B|424:192|448:216|448:216|424:240|416:280,1,139.999990463257,4|8,0:0|0:0,0:0:0:0:
360,208,29205,1,6,0:0:0:0:
228,164,29524,1,2,0:0:0:0:
228,164,29844,1,2,0:0:0:0:
427,284,30322,1,8,0:0:0:0:
427,284,30642,2,0,P|451:300|475:308,2,34.9999976158143,8|8|8,0:0|0:0|0:0,0:0:0:0:
464,216,30961,5,8,0:0:0:0:
448,140,31120,1,0,0:0:0:0:
372,124,31280,1,2,0:0:0:0:
224,64,31599,2,0,P|258:66|291:78,1,69.9999952316285,8|2,0:0|0:0,0:0:0:0:
140,104,32078,2,0,P|56:112|20:168,1,139.999990463257,6|4,0:0|0:0,0:0:0:0:
124,268,32716,2,0,P|114:234|118:200,1,69.9999952316285,0|8,0:0|0:0,0:0:0:0:
188,308,33035,2,0,P|162:331|129:342,2,69.9999952316285,0|2|2,0:0|0:0|0:0,0:0:0:0:
264,328,33514,5,8,0:0:0:0:
268,176,33833,1,4,0:0:0:0:
444,320,34152,1,8,0:0:0:0:
383,273,34312,1,8,0:0:0:0:
383,273,34631,6,0,P|395:217|371:105,1,139.999990463257,2|8,0:0|0:0,0:0:0:0:
336,76,35110,1,0,0:0:0:0:
336,76,35269,2,0,P|301:71|269:56,1,69.9999952316285,0|8,0:0|0:0,0:0:0:0:
194,77,35588,2,0,P|162:62|127:57,2,69.9999952316285,2|0|0,0:0|0:0|0:0,0:0:0:0:
142,133,36067,2,0,L|138:225,1,69.9999952316285,8|0,0:0|0:0,0:0:0:0:
200,280,36386,6,0,P|276:280|340:316,1,139.999990463257,4|8,0:0|0:0,0:0:0:0:
408,320,36865,1,6,0:0:0:0:
408,320,37184,2,0,B|416:296|416:296|416:280|416:280|428:248,1,69.9999952316285,2|4,0:0|0:0,0:0:0:0:
472,192,37503,2,0,P|408:176|352:240,1,139.999990463257,4|0,0:0|0:0,0:0:0:0:
280,212,37982,2,0,P|235:161|250:96,1,139.999990463257,8|0,0:0|0:0,0:0:0:0:
312,144,38461,1,2,0:0:0:0:
312,144,38620,2,0,P|336:116|356:76,1,69.9999952316285,8|0,0:0|0:0,0:0:0:0:
276,24,38939,6,0,P|204:40|116:16,1,139.999990463257,4|8,0:0|0:0,0:0:0:0:
80,80,39418,2,0,L|64:152,1,69.9999952316285,0|2,0:0|0:0,0:0:0:0:
96,220,39737,1,6,0:0:0:0:
68,292,39897,1,8,0:0:0:0:
144,280,40056,6,0,P|212:267|280:283,1,139.999990463257,4|0,0:0|0:0,0:0:0:0:
288,360,40535,2,0,P|324:344|348:320,1,69.9999952316285,8|0,0:0|0:0,0:0:0:0:
424,312,40854,2,0,P|408:276|384:252,1,69.9999952316285,6|0,0:0|0:0,0:0:0:0:
380,176,41173,2,0,P|344:192|320:215,1,69.9999952316285,8|0,0:0|0:0,0:0:0:0:
245,160,41493,5,0,0:0:0:0:
328,116,41652,1,0,0:0:0:0:
281,34,41812,1,0,0:0:0:0:
200,79,41971,1,0,0:0:0:0:
72,228,42290,1,2,0:0:0:0:
148,224,42450,6,0,P|136:266|108:300,2,69.9999952316285,8|0|4,0:0|0:0|0:0,0:0:0:0:
256,108,43088,1,8,0:0:0:0:
256,108,43407,1,4,0:0:0:0:
183,321,43727,1,8,0:0:0:0:
365,192,44046,1,4,0:0:0:0:
146,192,44364,1,8,0:0:0:0:
328,321,44684,1,4,0:0:0:0:
316,72,45003,6,0,B|296:84|296:84|284:96|284:96|256:108,1,69.9999952316285,8|0,0:0|0:0,0:0:0:0:
212,44,45322,1,4,0:0:0:0:
68,104,45641,2,0,B|68:172|116:212|132:222,1,139.999990463257,8|6,0:0|0:0,0:0:0:0:
128,300,46120,1,2,0:0:0:0:
204,316,46280,1,8,0:0:0:0:
204,316,46439,2,0,P|280:340|340:304,1,139.999990463257,6|2,0:0|0:0,0:0:0:0:
268,256,46918,2,0,P|320:228|364:144,1,139.999990463257,8|4,0:0|0:0,0:0:0:0:
208,188,47556,5,0,0:0:0:0:
360,160,47876,2,0,P|304:88|276:104,1,139.999990463257,4|8,0:0|0:0,0:0:0:0:
128,160,48514,2,0,P|184:88|207:100,1,139.999990463257,6|8,0:0|0:0,0:0:0:0:
206,99,48993,1,2,0:0:0:0:
288,316,49471,2,0,P|324:220|308:160,1,139.999990463257,8|6,0:0|0:0,0:0:0:0:
244,44,50110,1,8,0:0:0:0:
96,92,50429,6,0,P|60:136|60:168,2,69.9999952316285,6|8|8,0:0|0:0|0:0,0:0:0:0:
137,158,50907,1,6,0:0:0:0:
245,270,51227,1,6,0:0:0:0:
390,320,51546,2,0,B|414:280|390:232|390:232|402:184,1,139.999990463257,4|2,0:0|0:0,0:0:0:0:
472,211,52024,2,0,P|477:168|464:125,1,69.9999952316285,4|8,0:0|0:0,0:0:0:0:
351,121,52344,2,0,P|332:151|323:185,1,69.9999952316285,8|8,0:0|0:0,0:0:0:0:
300,64,52663,1,8,0:0:0:0:
224,84,52822,1,8,0:0:0:0:
156,44,52982,6,0,L|92:192,1,139.999990463257,4|8,0:0|0:0,0:0:0:0:
156,316,53620,2,0,L|220:168,1,139.999990463257,6|8,0:0|0:0,0:0:0:0:
356,240,54259,2,0,P|368:200|360:160,1,69.9999952316285,6|0,0:0|0:0,0:0:0:0:
320,108,54578,2,0,P|285:109|252:96,1,69.9999952316285,8|2,0:0|0:0,0:0:0:0:
180,120,54897,2,0,L|116:184,1,69.9999952316285,4|2,0:0|0:0,0:0:0:0:
36,256,55216,5,8,0:0:0:0:
88,304,55376,1,0,0:0:0:0:
156,316,55535,2,0,B|196:320|196:320|244:300,1,69.9999952316285,6|0,0:0|0:0,0:0:0:0:
176,240,55854,2,0,B|203:228|203:228|243:232,1,69.9999952316285,8|0,0:0|0:0,0:0:0:0:
152,160,56173,2,0,P|126:148|95:96,2,69.9999952316285,6|2|8,0:0|0:0|0:0,0:0:0:0:
175,86,56652,2,0,P|183:50|219:10,1,69.9999952316285,6|0,0:0|0:0,0:0:0:0:
248,96,56971,2,0,P|288:52|304:152,1,209.999985694886,2|6,0:0|0:0,0:0:0:0:
392,268,57769,5,8,0:0:0:0:
320,148,58087,2,0,P|252:216|248:256,1,139.999990463257,4|8,0:0|0:0,0:0:0:0:
200,316,58567,1,0,0:0:0:0:
124,320,58727,2,0,P|96:316|52:288,1,69.9999952316285,2|2,0:0|0:0,0:0:0:0:
104,164,59205,6,0,B|124:128|124:80|124:80|168:80|200:52,1,139.999990463257,2|2,0:0|0:0,0:0:0:0:
175,68,59684,1,8,0:0:0:0:
284,236,60003,2,0,P|320:144|304:108,1,139.999990463257,4|8,0:0|0:0,0:0:0:0:
480,72,60641,6,0,P|416:44|336:56,1,139.999990463257,6|0,0:0|0:0,0:0:0:0:
276,48,61120,2,0,P|216:48|136:16,2,139.999990463257,4|4|4,0:0|0:0|0:0,0:0:0:0:
107,206,62237,5,8,0:0:0:0:
107,206,62397,2,0,L|153:198,2,34.9999976158143
134,278,62716,2,0,P|174:272|206:241,1,69.9999952316285
288,244,63035,1,0,0:0:0:0:
234,188,63195,2,0,P|221:149|186:122,1,69.9999952316285,4|0,0:0|0:0,0:0:0:0:
109,133,63514,2,0,P|132:69|207:39,1,139.999990463257,4|8,0:0|0:0,0:0:0:0:
368,88,64152,6,0,L|368:188,1,69.9999952316285,0|2,0:0|0:0,0:0:0:0:
368,236,64471,1,8,0:0:0:0:
368,312,64631,1,8,0:0:0:0:
89,112,65145,1,8,0:0:0:0:
66,185,65304,1,8,0:0:0:0:
89,259,65464,1,4,3:0:0:0:
89,259,65748,6,0,P|124:312|192:344,1,140,4|8,0:0|0:0,0:0:0:0:
360,344,66386,2,0,P|384:336|424:296,1,69.9999952316285,6|2,0:0|0:0,0:0:0:0:
348,260,66705,1,8,0:0:0:0:
416,224,66865,2,0,L|428:128,2,69.9999952316285,0|2|0,0:0|0:0|0:0,0:0:0:0:
348,188,67344,2,0,B|324:160|324:160|308:120,1,69.9999952316285,8|2,0:0|0:0,0:0:0:0:
199,85,67663,2,0,B|223:113|223:113|236:144,1,69.9999952316285,4|2,0:0|0:0,0:0:0:0:
236,144,67982,1,8,0:0:0:0:
112,208,68301,5,6,0:0:0:0:
168,260,68460,1,0,0:0:0:0:
140,332,68620,1,8,0:0:0:0:
296,336,68939,2,0,L|368:336,1,69.9999952316285,6|2,0:0|0:0,0:0:0:0:
440,312,69258,1,8,0:0:0:0:
472,240,69418,2,0,P|432:224|408:200,1,69.9999952316285,0|6,0:0|0:0,0:0:0:0:
424,128,69737,2,0,P|481:107|465:147,1,139.999990463257,0|6,0:0|0:0,0:0:0:0:
328,72,70376,2,0,P|296:56|256:48,1,69.9999952316285,2|8,0:0|0:0,0:0:0:0:
176,176,70854,5,4,0:0:0:0:
120,124,71014,1,0,0:0:0:0:
128,48,71173,1,8,0:0:0:0:
261,153,71493,2,0,P|237:112|202:89,2,69.9999952316285,6|2|8,0:0|0:0|0:0,0:0:0:0:
176,176,71971,5,0,0:0:0:0:
144,248,72131,1,2,0:0:0:0:
216,272,72290,2,0,P|224:288|288:316,1,69.9999952316285,0|8,0:0|0:0,0:0:0:0:
288,240,72610,2,0,P|296:200|316:172,2,69.9999952316285,2|4|2,0:0|0:0|0:0,0:0:0:0:
216,272,73088,1,8,0:0:0:0:
396,200,73407,6,0,L|436:128,1,69.9999952316285,8|8,0:0|0:0,0:0:0:0:
356,112,73727,2,0,L|332:40,1,69.9999952316285,0|8,0:0|0:0,0:0:0:0:
180,68,74205,2,0,P|156:44|93:25,1,69.9999952316285,4|0,0:0|0:0,0:0:0:0:
112,104,74524,2,0,P|88:176|112:248,1,139.999990463257,8|2,0:0|0:0,0:0:0:0:
165,285,75003,1,2,0:0:0:0:
165,285,75163,5,4,0:0:0:0:
346,285,75482,1,4,0:0:0:0:
256,128,75801,1,4,0:0:0:0:
256,192,75880,12,0,79471,0:0:0:0:
