osu file format v12

[General]
AudioFilename: Unite.mp3
AudioLeadIn: 2000
PreviewTime: 41493
Countdown: 0
SampleSet: Soft
StackLeniency: 0.7
Mode: 0
LetterboxInBreaks: 0
WidescreenStoryboard: 0

[Editor]
DistanceSpacing: 1
BeatDivisor: 4
GridSize: 4

[Metadata]
Title:Unite (TV Size)
TitleUnicode:ユナイト (TV Size)
Artist:Misawa Sachika
ArtistUnicode:三澤紗千香
Creator:Losertic
Version:Easy
Source:Accel World
Tags:アクセル・ワールド yunaito ending kuroyukihime wakeshima kanon
BeatmapID:253447
BeatmapSetID:94078

[Difficulty]
HPDrainRate:2
CircleSize:3
OverallDifficulty:2
ApproachRate:3
SliderMultiplier:0.79999990463257
SliderTickRate:1

[Events]
//Background and Video events
0,0,"Background-Unite.jpg",0,0
Video,0,"Video-Unite.avi"
//Break Periods
//Storyboard Layer 0 (Background)
//Storyboard Layer 1 (Fail)
//Storyboard Layer 2 (Pass)
//Storyboard Layer 3 (Foreground)
//Storyboard Sound Samples
//Background Colour Transformations
3,100,163,162,255

[TimingPoints]
642,319.148936170213,4,2,1,75,1,0
961,-100,4,2,5,65,0,0
1040,-100,4,2,1,75,0,0
1280,-100,4,2,7,75,0,0
1998,-100,4,2,1,75,0,0
2237,-100,4,2,5,65,0,0
2317,-100,4,2,1,75,0,0
2556,-100,4,2,7,75,0,0
3274,-100,4,2,1,75,0,0
3514,-100,4,2,5,65,0,0
3594,-100,4,2,1,75,0,0
3833,-100,4,2,7,75,0,0
4551,-100,4,2,1,75,0,0
4790,-100,4,2,5,65,0,0
4870,-100,4,2,1,75,0,0
5110,-100,4,2,7,75,0,0
5189,-100,4,2,1,75,0,0
5429,-100,4,2,5,65,0,0
5509,-100,4,2,1,75,0,0
6386,-100,4,2,7,75,0,0
7104,-100,4,2,1,75,0,0
7344,-100,4,2,5,65,0,0
7423,-100,4,2,1,75,0,0
7663,-100,4,2,7,75,0,0
8301,-100,4,2,1,75,0,0
10056,-100,4,2,5,75,0,0
10136,-100,4,2,1,75,0,0
10854,-100,4,2,1,70,0,0
11173,-100,4,2,7,70,0,0
11253,-100,4,2,1,70,0,0
11493,-100,4,2,8,60,0,0
11572,-100,4,2,1,70,0,0
11812,-100,4,2,7,70,0,0
11892,-100,4,2,1,70,0,0
12131,-100,4,2,8,60,0,0
12211,-100,4,2,1,70,0,0
12450,-100,4,2,7,70,0,0
12849,-100,4,2,1,70,0,0
13088,-100,4,2,7,70,0,0
13487,-100,4,2,1,70,0,0
13727,-100,4,2,8,60,0,0
13806,-100,4,2,1,70,0,0
14046,-100,4,2,7,70,0,0
14126,-100,4,2,1,70,0,0
14365,-100,4,2,8,60,0,0
14445,-100,4,2,1,70,0,0
15322,-100,4,2,7,70,0,0
15642,-100,4,1,2,70,0,0
15961,-100,4,2,1,70,0,0
16280,-100,4,2,8,60,0,0
16360,-100,4,2,1,70,0,0
16599,-100,4,2,7,70,0,0
16679,-100,4,2,1,70,0,0
16918,-100,4,2,8,60,0,0
16998,-100,4,2,1,70,0,0
17237,-100,4,2,7,70,0,0
17636,-100,4,2,1,70,0,0
17876,-100,4,2,8,60,0,0
17955,-100,4,2,1,70,0,0
18195,-100,4,2,7,70,0,0
18594,-100,4,2,1,70,0,0
18833,-100,4,2,7,70,0,0
18913,-100,4,2,1,70,0,0
19152,-100,4,2,7,70,0,0
19790,-100,4,1,2,70,0,0
20429,-100,4,1,1,70,0,0
20748,-100,4,2,6,60,0,0
20828,-100,4,2,1,70,0,0
21705,-100,4,2,7,70,0,0
21785,-100,4,2,1,70,0,0
22024,-100,4,1,1,70,0,0
22344,-100,4,2,7,70,0,0
22423,-100,4,2,1,70,0,0
22663,-100,4,1,1,70,0,0
22982,-100,4,2,1,70,0,0
23301,-100,4,2,6,60,0,0
23381,-100,4,2,1,70,0,0
23620,-100,4,2,7,70,0,0
23939,-100,4,1,1,70,0,0
24259,-100,4,2,7,70,0,0
24338,-100,4,2,1,70,0,0
24578,-100,4,1,1,70,0,0
24657,-100,4,2,1,70,0,0
24897,-100,4,2,7,70,0,0
25535,-100,4,2,1,70,0,0
25854,-100,4,1,1,70,0,0
26173,-100,4,2,1,70,0,0
26493,-100,4,2,5,60,0,0
26572,-100,4,2,1,70,0,0
26971,-100,4,2,7,70,0,0
27370,-100,4,2,1,70,0,0
27610,-100,4,2,7,70,0,0
27769,-100,4,1,1,70,0,0
27849,-100,4,2,1,70,0,0
28407,-100,4,1,1,70,0,0
28727,-100,4,2,1,70,0,0
29046,-100,4,2,6,60,0,0
29126,-100,4,2,1,70,0,0
29684,-100,4,1,1,70,0,0
29764,-100,4,2,1,70,0,0
30322,-100,4,2,6,60,0,0
30402,-100,4,2,1,70,0,0
30642,-100,4,1,1,70,0,0
31280,-100,4,2,7,70,0,0
31360,-100,4,2,1,70,0,0
31599,-100,4,2,6,60,0,0
31679,-100,4,2,1,70,0,0
31759,-100,4,2,7,70,0,0
32397,-100,4,2,1,70,0,0
32876,-100,4,1,1,70,0,0
33195,-100,4,2,7,70,0,0
33274,-100,4,2,1,70,0,0
33514,-100,4,2,6,60,0,0
33594,-100,4,2,1,70,0,0
34152,-100,4,2,6,60,0,0
34232,-100,4,2,1,70,0,0
35429,-100,4,1,1,70,0,0
36067,-100,4,2,1,70,0,0
36705,-100,4,2,6,60,0,0
36785,-100,4,2,1,70,0,0
37982,-100,4,1,1,70,0,0
38939,-100,4,2,1,70,0,0
41493,-100,4,2,7,70,0,0
42769,-100,4,1,1,80,0,1
43088,-100,4,2,6,70,0,1
43168,-100,4,1,1,80,0,1
44046,-100,4,2,8,70,0,1
44126,-100,4,1,1,80,0,1
44365,-100,4,2,6,70,0,1
44445,-100,4,1,1,80,0,1
44684,-100,4,2,7,80,0,1
45322,-100,4,1,1,80,0,1
45642,-100,4,2,6,70,0,1
45721,-100,4,1,1,80,0,1
45961,-100,4,2,8,70,0,1
46040,-100,4,1,1,80,0,1
46918,-100,4,2,6,70,0,1
46998,-100,4,1,1,80,0,1
47237,-100,4,2,7,80,0,1
47876,-100,4,1,1,80,0,1
48195,-100,4,2,6,45,0,1
48274,-100,4,1,1,80,0,1
48514,-100,4,2,6,45,0,1
48594,-100,4,1,1,80,0,1
48833,-100,4,2,6,70,0,1
48913,-100,4,1,1,80,0,1
49790,-100,4,2,6,70,0,1
49870,-100,4,1,1,80,0,1
50429,-100,4,2,6,70,0,1
50509,-100,4,1,1,80,0,1
51227,-100,4,2,7,80,0,1
51306,-100,4,1,1,80,0,1
53301,-100,4,2,6,70,0,1
53381,-100,4,1,1,80,0,1
53620,-100,4,2,8,70,0,1
53700,-100,4,1,1,80,0,1
54578,-100,4,2,6,70,0,1
54657,-100,4,1,1,80,0,1
55854,-100,4,2,6,70,0,1
55934,-100,4,1,1,80,0,1
56173,-100,4,2,8,70,0,1
56253,-100,4,1,1,80,0,1
57131,-100,4,2,6,70,0,1
57211,-100,4,1,1,80,0,1
57450,-100,4,2,7,80,0,1
58088,-100,4,1,1,80,0,1
58407,-100,4,2,6,70,0,1
58487,-100,4,1,1,80,0,1
58727,-100,4,2,7,80,0,1
59205,-100,4,1,1,80,0,1
59524,-100,4,2,8,70,0,1
59604,-100,4,1,1,80,0,1
60003,-100,4,2,7,80,0,1
60322,-100,4,1,1,80,0,1
60642,-100,4,2,7,80,0,1
61120,-100,4,1,1,80,0,1
62237,-100,4,1,1,70,0,0
65145,319.148936170213,4,1,2,70,1,0
65748,319.148936170213,4,2,1,75,1,0
66386,-100,4,2,7,75,0,0
66466,-100,4,2,1,75,0,0
66705,-100,4,2,5,65,0,0
66785,-100,4,2,1,75,0,0
67024,-100,4,2,7,75,0,0
67343,-100,4,2,1,75,0,0
67662,-100,4,2,7,75,0,0
67742,-100,4,2,1,75,0,0
67982,-100,4,2,5,65,0,0
68061,-100,4,2,1,75,0,0
68301,-100,4,2,7,75,0,0
69657,-100,4,2,1,75,0,0
69896,-100,4,2,5,65,0,0
69976,-100,4,2,1,75,0,0
70216,-100,4,2,7,75,0,0
70854,-100,4,2,1,75,0,0
71173,-100,4,2,5,65,0,0
71253,-100,4,2,1,75,0,0
71492,-100,4,2,7,75,0,0
72210,-100,4,2,1,75,0,0
72450,-100,4,2,5,65,0,0
72529,-100,4,2,1,75,0,0

[Colours]
Combo1 : 0,0,215
Combo2 : 255,255,255
Combo3 : 33,1,126
Combo4 : 183,0,4

[HitObjects]
152,328,642,2,0,B|112:296|104:248|104:248|120:200|120:164,1,159.999980926514,4|4,0:0|0:0,0:0:0:0:
241,82,1918,2,0,B|281:114|289:162|289:162|273:210|273:246,1,159.999980926514,2|4,0:0|0:0,0:0:0:0:
119,185,3195,6,0,P|83:257|99:333,1,159.999980926514,6|6,0:0|0:0,0:0:0:0:
250,281,4471,2,0,P|318:325|418:337,2,159.999980926514,6|4|4,0:0|0:0|0:0,0:0:0:0:
99,226,6386,5,6,0:0:0:0:
240,152,7024,2,0,B|288:168|336:152|336:152|396:180,1,159.999980926514,6|4,0:0|0:0,0:0:0:0:
292,56,8301,6,0,B|244:40|196:56|196:56|160:40,1,119.999985694885,8|8,0:0|0:0,0:0:0:0:
304,144,9418,2,0,B|336:136|360:112|360:112|400:224|340:284,1,239.999971389771,4|8,0:0|0:0,0:0:0:0:
230,269,10854,1,4,3:0:0:0:
160,228,11173,6,0,L|16:332,2,159.999980926514,2|2|2,0:0|0:0|0:0,0:0:0:0:
100,172,12769,2,0,P|98:135|123:92,1,79.999990463257,2|2,0:0|0:0,0:0:0:0:
180,148,13407,6,0,L|324:44,2,159.999980926514,6|6|8,0:0|0:0|0:0,0:0:0:0:
301,247,15322,5,4,0:0:0:0:
372,284,15642,1,8,0:0:0:0:
369,203,15961,6,0,P|317:167|226:215,2,159.999980926514,4|2|2,3:0|0:0|0:0,0:0:0:0:
301,247,17556,2,0,P|249:283|158:235,1,159.999980926514,2|2,0:0|0:0,0:0:0:0:
125,180,18514,6,0,B|85:176|85:176|29:184,2,79.999990463257,2|2|2,0:0|0:0|0:0,0:0:0:0:
268,104,19790,5,8,0:0:0:0:
428,96,20429,2,0,B|456:156|404:188|448:260,1,159.999980926514,8|4,0:0|1:0,0:0:0:0:
340,132,21705,6,0,P|310:110|260:105,1,79.999990463257,2|8,0:0|0:0,0:0:0:0:
188,104,22344,2,0,P|148:109|116:132,1,79.999990463257,2|8,0:0|0:0,0:0:0:0:
176,184,22982,6,0,P|141:257|196:320,1,159.999980926514,0|6,0:0|0:0,0:0:0:0:
264,292,23939,1,8,0:0:0:0:
344,300,24259,6,0,P|380:320|428:332,2,79.999990463257,2|8|2,0:0|0:0|0:0,0:0:0:0:
428,164,25535,2,0,P|392:144|353:136,1,79.999990463257,0|8,0:0|0:0,0:0:0:0:
316,64,26173,6,0,P|224:116|192:200,1,199.999976158142,4|2,0:0|0:0,0:0:0:0:
172,280,27290,2,0,P|216:288|256:316,1,79.999990463257,2|2,0:0|0:0,0:0:0:0:
285,312,27769,2,0,P|329:304|369:276,1,79.999990463257,8|0,0:0|0:0,0:0:0:0:
414,228,28407,1,8,0:0:0:0:
476,280,28727,6,0,B|526:237|460:168|496:124|496:124|484:44,2,239.999971389771,4|8|8,0:0|0:0|0:0,0:0:0:0:
320,268,31280,6,0,P|264:288|204:280,1,119.999985694885,2|6,0:0|0:0,0:0:0:0:
252,128,32397,2,0,P|308:108|368:116,1,119.999985694885,4|8,0:0|0:0,0:0:0:0:
448,100,33195,6,0,B|476:180|476:180|484:272,2,159.999980926514,2|4|0,0:0|0:0|0:0,0:0:0:0:
332,60,34950,2,0,P|276:60|212:92,1,119.999985694885,4|8,0:0|0:0,0:0:0:0:
308,220,36067,1,8,0:0:0:0:
296,300,36386,6,0,P|204:320|132:284,1,159.999980926514,4|0,0:0|0:0,0:0:0:0:
56,216,37503,2,0,P|116:180|176:180,1,119.999985694885,4|8,0:0|0:0,0:0:0:0:
256,192,38939,12,4,41493,0:0:0:0:
336,301,42769,6,0,B|336:241|388:193|388:193|336:161|336:77,2,239.999971389771,4|8|4,0:0|0:0|0:0,0:0:0:0:
176,300,45322,6,0,B|176:241|124:193|124:193|176:161|175:93,2,239.999971389771,4|8|6,0:0|0:0|0:0,0:0:0:0:
332,332,47876,6,0,P|380:288|376:84,1,279.999966621399,4|4,0:0|0:0,0:0:0:0:
260,72,49471,2,0,B|228:72|228:72|188:16|112:36,2,159.999980926514,8|8|8,0:0|0:0|0:0,0:0:0:0:
152,124,51227,6,0,P|100:128|58:119,1,79.999990463257,2|4,0:0|0:0,0:0:0:0:
32,236,52024,2,0,P|36:288|27:330,2,79.999990463257,4|8|8,0:0|0:0|0:0,0:0:0:0:
112,224,52982,6,0,P|228:204|252:88,2,239.999971389771,4|8|0,0:0|0:0|0:0,0:0:0:0:
244,312,55535,6,0,P|328:240|356:104,2,239.999971389771,4|8|4,0:0|0:0|0:0,0:0:0:0:
212,156,58088,2,0,P|143:117|66:130,1,159.999980926514,4|2,0:0|0:0,0:0:0:0:
122,234,59205,6,0,P|81:285|80:349,1,119.999985694885,4|8,0:0|0:0,0:0:0:0:
152,364,60003,1,4,0:0:0:0:
232,356,60322,2,0,P|268:328|308:312,1,79.999990463257,8|6,0:0|0:0,0:0:0:0:
400,252,61120,6,0,P|420:220|429:172,2,79.999990463257,8|8|4,0:0|0:0|0:0,0:0:0:0:
284,228,62237,6,0,P|250:209|202:203,1,79.999990463257,8|0,0:0|0:0,0:0:0:0:
132,228,62876,1,0,0:0:0:0:
132,308,63195,6,0,P|63:272|60:192,1,159.999980926514,4|8,0:0|0:0,0:0:0:0:
188,104,64471,1,8,0:0:0:0:
440,308,65748,6,0,P|405:327|365:330,1,79.999990463257,4|8,0:0|0:0,0:0:0:0:
310,271,66386,2,0,P|310:191|275:121,1,159.999980926514,4|6,0:0|0:0,0:0:0:0:
209,74,67344,5,8,0:0:0:0:
127,64,67663,2,0,P|127:144|163:215,1,159.999980926514,4|6,0:0|0:0,0:0:0:0:
303,138,68939,5,6,0:0:0:0:
437,125,69578,2,0,P|426:203|370:258,1,159.999980926514,6|4,0:0|0:0,0:0:0:0:
221,202,70854,6,0,B|206:203|158:187|158:187|110:195|78:235,1,159.999980926514,4|4,0:0|0:0,0:0:0:0:
228,292,72131,2,0,B|242:290|290:306|290:306|338:298|370:258,1,159.999980926514,6|0,0:0|0:0,0:0:0:0:
256,192,73407,12,4,75801,0:0:0:0:
