osu file format v12

[General]
AudioFilename: Misawa Sachika - Unite (TV Size).mp3
AudioLeadIn: 3000
PreviewTime: 41905
Countdown: 0
SampleSet: Normal
StackLeniency: 0.4
Mode: 0
LetterboxInBreaks: 0

[Editor]
DistanceSpacing: 1
BeatDivisor: 4
GridSize: 4

[Metadata]
Title:Unite (TV Size)
TitleUnicode:ユナイト (TV Size)
Artist:Misawa Sachika
ArtistUnicode:三澤 紗千香
Creator:Froztic
Version:Level 9
Source:Accel World
Tags:ending takuya chiba naoki
BeatmapID:210212
BeatmapSetID:73897

[Difficulty]
HPDrainRate:7
CircleSize:4
OverallDifficulty:7
ApproachRate:8
SliderMultiplier:1.5
SliderTickRate:2

[Events]
//Background and Video events
Video,0,"Misawa Sachika - Unite (TV Size).avi"
0,0,"bg3.jpg",0,0
//Break Periods
//Storyboard Layer 0 (Background)
//Storyboard Layer 1 (Fail)
//Storyboard Layer 2 (Pass)
//Storyboard Layer 3 (Foreground)
//Storyboard Sound Samples
//Background Colour Transformations
3,100,163,162,255

[TimingPoints]
275,319.148936170213,4,1,1,75,1,0
10487,-125,4,1,1,50,0,0
10647,-125,4,2,2,50,0,0
20700,-125,4,1,1,65,0,0
30913,-100,4,1,1,70,0,0
41604,-200,4,1,1,30,0,0
41923,-100,4,1,1,70,0,0
42402,-80,4,1,1,80,0,1
50461,-80,4,2,2,80,0,1
50620,-80,4,1,1,80,0,1
51099,-80,4,2,2,80,0,1
51259,-80,4,1,1,80,0,1
60514,-80,4,2,2,80,0,1
60833,-80,4,1,1,80,0,1
64264,-200,4,1,1,30,0,1
64583,-100,4,1,1,80,0,1
64623,-80,4,2,2,80,0,1
65381,-100,4,1,1,75,0,0
66179,-100,4,2,2,75,0,0
67136,-100,4,1,1,75,0,0
75594,-100,4,1,1,5,0,0

[Colours]
Combo1 : 111,55,55
Combo2 : 167,167,167
Combo3 : 64,128,128
Combo4 : 115,0,230
Combo5 : 174,174,0
Combo6 : 0,114,168

[HitObjects]
256,192,115,1,0,0:0:0:0:
220,180,195,1,0,0:0:0:0:
200,148,275,1,4,0:0:0:0:
240,84,434,1,0,0:0:0:0:
316,80,594,2,0,P|364:80|412:160,1,150,8|0,0:0|0:0,0:0:0:0:
452,224,1072,1,0,0:0:0:0:
452,224,1232,1,8,0:0:0:0:
433,297,1392,2,0,P|385:345|305:345,1,150
301,344,1870,2,0,P|220:312|124:296,1,150,8|0,0:0|0:0,0:0:0:0:
153,297,2349,1,0,0:0:0:0:
147,296,2509,1,8,0:0:0:0:
83,257,2668,1,0,0:0:0:0:
44,192,2828,6,0,L|12:112,1,75
64,64,3147,2,0,P|144:32|224:32,1,150,8|0,0:0|0:0,0:0:0:0:
240,96,3626,1,0,0:0:0:0:
212,32,3785,1,8,0:0:0:0:
244,100,3945,2,0,P|372:116|420:52,1,150
384,36,4423,1,8,0:0:0:0:
387,110,4583,1,0,0:0:0:0:
500,204,4902,2,0,L|500:124,1,75,0|8,0:0|0:0,0:0:0:0:
448,72,5221,1,0,0:0:0:0:
384,32,5381,5,4,0:0:0:0:
384,39,5540,1,0,0:0:0:0:
316,64,5700,1,8,0:0:0:0:
168,88,6019,2,0,L|72:104,1,75
172,92,6338,1,8,0:0:0:0:
97,105,6498,2,0,P|27:157|59:221,1,150,0|0,0:0|0:0,0:0:0:0:
43,212,6977,1,8,0:0:0:0:
73,279,7136,1,0,0:0:0:0:
189,187,7455,1,0,0:0:0:0:
132,236,7615,1,8,0:0:0:0:
256,152,7934,5,0,0:0:0:0:
320,192,8094,1,0,0:0:0:0:
384,152,8253,1,0,0:0:0:0:
320,112,8413,1,0,0:0:0:0:
388,248,8732,5,0,0:0:0:0:
320,284,8892,1,0,0:0:0:0:
256,244,9051,1,4,0:0:0:0:
256,96,9370,5,0,0:0:0:0:
320,56,9530,1,0,0:0:0:0:
384,96,9689,1,4,0:0:0:0:
260,180,10009,1,4,0:0:0:0:
116,146,10328,1,0,0:0:0:0:
116,140,10407,1,0,0:0:0:0:
116,134,10487,1,8,0:0:0:0:
196,44,10806,5,2,0:0:0:0:
196,44,10966,1,0,0:0:0:0:
232,92,11126,2,0,L|264:32,1,60,2|0,0:0|0:0,0:0:0:0:
304,80,11445,1,2,0:0:0:0:
304,80,11604,1,0,0:0:0:0:
364,88,11764,5,2,0:0:0:0:
364,88,11923,1,0,0:0:0:0:
412,52,12083,2,0,L|476:36,1,60,2|0,0:0|0:0,0:0:0:0:
456,96,12402,1,2,0:0:0:0:
456,96,12562,1,0,0:0:0:0:
420,144,12721,1,2,0:0:0:0:
420,144,12881,1,0,0:0:0:0:
460,188,13040,6,0,L|400:220,1,60,2|0,0:0|0:0,0:0:0:0:
384,272,13360,1,2,0:0:0:0:
384,272,13519,1,0,0:0:0:0:
444,276,13679,1,2,0:0:0:0:
444,276,13838,1,0,0:0:0:0:
432,336,13998,1,2,0:0:0:0:
432,336,14157,1,0,0:0:0:0:
372,332,14317,5,2,0:0:0:0:
372,332,14477,1,0,0:0:0:0:
328,292,14636,2,0,L|264:296,1,60
224,256,14955,1,0,0:0:0:0:
216,316,15115,2,0,L|152:316,1,60
108,280,15434,1,0,0:0:0:0:
72,232,15594,5,0,0:0:0:0:
72,232,15753,1,0,0:0:0:0:
52,176,15913,2,0,L|124:176,1,60,2|0,0:0|0:0,0:0:0:0:
104,116,16232,1,2,0:0:0:0:
104,116,16392,1,0,0:0:0:0:
48,96,16551,2,0,L|32:32,1,60,2|0,0:0|0:0,0:0:0:0:
92,28,16870,5,2,0:0:0:0:
92,28,17030,1,0,0:0:0:0:
148,52,17189,1,2,0:0:0:0:
148,52,17349,1,0,0:0:0:0:
208,52,17509,1,2,0:0:0:0:
208,52,17668,1,0,0:0:0:0:
208,112,17828,1,2,0:0:0:0:
208,112,17987,1,0,0:0:0:0:
148,120,18147,6,0,L|164:184,1,60,2|0,0:0|0:0,0:0:0:0:
224,176,18466,2,0,L|288:176,1,60,2|0,0:0|0:0,0:0:0:0:
280,116,18785,2,0,L|308:48,1,60,2|0,0:0|0:0,0:0:0:0:
352,96,19104,2,0,L|324:164,1,60,2|0,0:0|0:0,0:0:0:0:
388,140,19423,5,2,0:0:0:0:
428,96,19583,1,0,0:0:0:0:
448,152,19743,2,0,L|512:128,1,60,0|2,0:0|0:0,0:0:0:0:
512,192,20062,1,2,0:0:0:0:
504,220,20142,1,0,0:0:0:0:
476,232,20221,2,0,L|412:200,1,60,0|0,0:0|0:0,0:0:0:0:
392,200,20461,1,0,0:0:0:0:
364,212,20540,1,0,0:0:0:0:
376,272,20700,5,4,0:0:0:0:
256,272,21019,1,2,0:0:0:0:
212,232,21179,1,0,0:0:0:0:
192,288,21338,1,2,0:0:0:0:
156,240,21498,2,0,L|104:196,1,60,0|10,0:0|0:0,0:0:0:0:
72,248,21817,1,0,0:0:0:0:
48,192,21977,6,0,P|16:112|32:80,1,120,2|10,0:0|0:0,0:0:0:0:
76,52,22455,1,0,0:0:0:0:
96,108,22615,1,2,0:0:0:0:
132,60,22774,1,0,0:0:0:0:
192,64,22934,1,10,0:0:0:0:
160,116,23094,1,0,0:0:0:0:
220,128,23253,6,0,P|256:92|244:20,1,120,2|10,0:0|0:0,0:0:0:0:
308,20,23732,1,0,0:0:0:0:
328,76,23892,1,2,0:0:0:0:
364,28,24051,1,0,0:0:0:0:
424,32,24211,1,10,0:0:0:0:
392,84,24370,1,0,0:0:0:0:
368,140,24530,2,0,P|424:140|452:80,1,120,2|8,0:0|0:0,0:0:0:0:
456,208,25168,5,2,0:0:0:0:
376,296,25487,1,8,0:0:0:0:
256,288,25806,1,6,0:0:0:0:
144,336,26126,1,8,0:0:0:0:
180,288,26285,1,0,0:0:0:0:
64,260,26604,1,0,0:0:0:0:
28,212,26764,1,8,0:0:0:0:
52,156,26923,1,0,0:0:0:0:
120,56,27243,1,0,0:0:0:0:
60,64,27402,1,10,0:0:0:0:
180,72,27721,1,0,0:0:0:0:
240,64,27881,1,0,0:0:0:0:
292,36,28040,5,10,0:0:0:0:
352,40,28200,1,0,0:0:0:0:
404,72,28360,2,0,P|448:32|508:44,1,120,4|10,0:0|0:0,0:0:0:0:
484,96,28838,1,0,0:0:0:0:
464,216,29157,1,0,0:0:0:0:
420,256,29317,1,8,0:0:0:0:
360,268,29477,1,6,0:0:0:0:
320,156,29796,1,0,0:0:0:0:
340,100,29955,5,8,0:0:0:0:
216,88,30274,1,0,0:0:0:0:
212,92,30354,1,0,0:0:0:0:
208,96,30434,1,0,0:0:0:0:
164,136,30594,1,2,0:0:0:0:
220,156,30753,1,0,0:0:0:0:
172,200,30913,5,6,0:0:0:0:
32,144,31232,1,8,0:0:0:0:
80,84,31392,1,0,0:0:0:0:
184,312,31711,1,2,0:0:0:0:
216,244,31870,1,8,0:0:0:0:
144,224,32030,1,6,0:0:0:0:
396,284,32349,1,0,0:0:0:0:
432,216,32509,1,8,0:0:0:0:
360,196,32668,5,0,0:0:0:0:
324,264,32828,1,0,0:0:0:0:
132,228,33147,1,10,0:0:0:0:
208,48,33466,1,4,0:0:0:0:
360,172,33785,5,8,0:0:0:0:
288,148,33945,1,2,0:0:0:0:
324,36,34264,1,0,0:0:0:0:
356,104,34423,1,8,0:0:0:0:
428,80,34583,1,6,0:0:0:0:
176,52,34902,1,0,0:0:0:0:
220,112,35062,1,8,0:0:0:0:
168,168,35221,5,0,0:0:0:0:
124,108,35381,1,2,0:0:0:0:
324,216,35700,1,8,0:0:0:0:
112,304,36019,1,4,0:0:0:0:
172,348,36179,1,0,0:0:0:0:
236,308,36338,1,8,0:0:0:0:
176,264,36498,5,2,0:0:0:0:
304,336,36817,1,2,0:0:0:0:
368,296,36977,1,8,0:0:0:0:
416,352,37136,1,4,0:0:0:0:
476,304,37296,2,0,L|492:224,1,75
464,160,37615,2,0,L|432:80,1,75,8|0,0:0|0:0,0:0:0:0:
364,68,37934,5,0,0:0:0:0:
288,64,38094,2,0,L|192:64,1,75,0|8,0:0|0:0,0:0:0:0:
140,48,38413,1,0,0:0:0:0:
80,92,38572,1,0,0:0:0:0:
136,144,38732,2,0,L|216:144,1,75,0|8,0:0|0:0,0:0:0:0:
288,144,39051,2,0,P|336:144|384:176,2,75
212,156,39530,2,0,L|136:188,1,75,8|0,0:0|0:0,0:0:0:0:
28,284,40009,5,2,0:0:0:0:
100,300,40168,1,0,0:0:0:0:
156,252,40328,1,0,0:0:0:0:
304,240,40647,1,0,0:0:0:0:
360,192,40806,1,2,0:0:0:0:
304,144,40966,1,0,0:0:0:0:
352,88,41126,5,0,0:0:0:0:
288,48,41285,1,0,0:0:0:0:
216,72,41445,1,0,0:0:0:0:
240,144,41604,2,0,L|240:240,1,75
240,225,42083,1,0,0:0:0:0:
240,231,42243,1,0,0:0:0:0:
164,208,42402,5,4,0:0:0:0:
64,48,42721,1,10,0:0:0:0:
132,112,42881,1,0,0:0:0:0:
64,176,43040,2,0,L|48:288,1,93.75,2|0,0:0|0:0,0:0:0:0:
128,320,43360,1,10,0:0:0:0:
188,248,43519,1,0,0:0:0:0:
184,340,43679,1,0,0:0:0:0:
132,264,43838,1,0,0:0:0:0:
224,296,43998,2,0,L|340:316,1,93.75,8|0,0:0|0:0,0:0:0:0:
410,307,44317,2,0,P|443:258|437:223,1,93.75
436,132,44636,5,10,0:0:0:0:
352,174,44796,1,0,0:0:0:0:
356,84,44955,1,2,0:0:0:0:
268,116,45115,2,0,P|268:64|232:24,1,93.75,0|10,0:0|0:0,0:0:0:0:
150,39,45434,2,0,P|142:76|198:119,1,93.75,0|2,0:0|0:0,0:0:0:0:
242,182,45753,1,0,0:0:0:0:
283,266,45913,5,8,0:0:0:0:
191,284,46072,1,2,0:0:0:0:
165,193,46232,1,0,0:0:0:0:
124,108,46392,2,0,P|77:124|59:165,1,93.75,2|8,0:0|0:0,0:0:0:0:
15,245,46711,1,0,0:0:0:0:
64,324,46870,1,0,0:0:0:0:
152,356,47030,2,0,L|248:356,1,93.75,0|10,0:0|0:0,0:0:0:0:
300,276,47349,1,0,0:0:0:0:
308,248,47429,1,0,0:0:0:0:
316,220,47509,1,6,0:0:0:0:
400,176,47668,6,0,L|400:272,1,93.75,0|10,0:0|0:0,0:0:0:0:
352,348,47987,2,0,L|448:348,1,93.75,0|2,0:0|0:0,0:0:0:0:
400,268,48306,1,0,0:0:0:0:
456,192,48466,1,8,0:0:0:0:
480,100,48626,2,0,B|380:92|432:24|324:8,1,187.5,2|0,0:0|0:0,0:0:0:0:
239,44,49104,2,0,P|199:92|209:122,1,93.75,8|0,0:0|0:0,0:0:0:0:
254,229,49423,2,0,P|217:267|168:253,1,93.75,2|0,0:0|0:0,0:0:0:0:
67,213,49743,2,0,P|63:165|101:131,1,93.75,8|0,0:0|0:0,0:0:0:0:
205,87,50062,6,0,P|249:104|271:146,1,93.75,4|0,0:0|0:0,0:0:0:0:
272,220,50381,1,10,0:0:0:0:
204,155,50540,2,0,P|151:151|108:163,1,93.75,2|0,0:0|0:0,0:0:0:0:
18,146,50860,2,0,P|2:194|18:242,1,93.75,2|8,0:0|0:0,0:0:0:0:
86,300,51179,1,6,0:0:0:0:
93,253,51259,1,0,0:0:0:0:
140,252,51338,1,0,0:0:0:0:
227,285,51498,53,0,0:0:0:0:
227,332,51578,1,0,0:0:0:0:
182,343,51657,1,8,0:0:0:0:
276,343,51817,38,0,L|341:357,1,46.875
365,333,51977,2,0,L|401:279,1,46.875,0|0,0:0|0:0,0:0:0:0:
410,251,52136,2,0,L|390:202,1,46.875
371,164,52296,1,10,0:0:0:0:
448,112,52455,1,0,0:0:0:0:
368,64,52615,5,6,0:0:0:0:
296,124,52774,1,0,0:0:0:0:
273,32,52934,2,0,L|199:88,1,93.75,10|0,0:0|0:0,0:0:0:0:
106,73,53253,2,0,L|199:88,1,93.75,2|0,0:0|0:0,0:0:0:0:
220,179,53572,2,0,L|198:89,1,93.75,10|0,0:0|0:0,0:0:0:0:
198,87,53892,5,0,0:0:0:0:
12,214,54211,1,8,0:0:0:0:
208,324,54530,1,0,0:0:0:0:
116,308,54689,1,0,0:0:0:0:
172,232,54849,1,10,0:0:0:0:
264,252,55009,1,0,0:0:0:0:
357,252,55168,2,0,P|403:218|408:178,1,93.75,2|0,0:0|0:0,0:0:0:0:
391,92,55487,1,10,0:0:0:0:
305,54,55647,1,0,0:0:0:0:
284,145,55806,1,2,0:0:0:0:
192,128,55966,1,0,0:0:0:0:
142,48,56126,6,0,P|95:35|45:53,1,93.75,10|2,0:0|0:0,0:0:0:0:
44,141,56445,2,0,P|88:152|140:141,1,93.75,0|2,0:0|0:0,0:0:0:0:
212,92,56764,1,10,0:0:0:0:
276,160,56923,1,0,0:0:0:0:
364,132,57083,1,0,0:0:0:0:
432,196,57243,1,0,0:0:0:0:
432,288,57402,2,0,P|448:336|384:352,1,93.75,10|0,0:0|0:0,0:0:0:0:
325,356,57721,6,0,L|229:356,1,93.75,6|0,0:0|0:0,0:0:0:0:
136,356,58040,2,0,P|56:340|56:260,1,93.75,10|0,0:0|0:0,0:0:0:0:
64,240,58360,2,0,P|144:256|144:336,1,93.75,2|0,0:0|0:0,0:0:0:0:
240,272,58679,1,8,0:0:0:0:
332,256,58838,2,0,P|371:215|331:168,1,93.75,2|0,0:0|0:0,0:0:0:0:
286,128,59157,1,0,0:0:0:0:
212,188,59317,1,10,0:0:0:0:
124,156,59477,1,0,0:0:0:0:
136,64,59636,1,2,0:0:0:0:
224,40,59796,5,0,0:0:0:0:
320,48,59955,2,0,L|416:48,2,93.75,10|0|6,0:0|0:0|0:0,0:0:0:0:
224,48,60434,2,0,B|144:31|100:71|143:116|232:101,1,187.5,0|2,0:0|0:0,0:0:0:0:
305,124,60913,1,0,0:0:0:0:
378,182,61072,1,2,0:0:0:0:
288,208,61232,1,8,0:0:0:0:
204,164,61392,1,6,0:0:0:0:
141,94,61551,6,0,P|118:97|100:115,1,46.875
82,156,61711,1,0,0:0:0:0:
108,193,61790,1,0,0:0:0:0:
133,232,61870,1,8,0:0:0:0:
111,274,61950,1,0,0:0:0:0:
84,312,62030,2,0,P|100:360|148:360,1,93.75,0|2,0:0|0:0,0:0:0:0:
224,328,62349,1,0,0:0:0:0:
316,352,62509,2,0,L|412:352,1,93.75,10|2,0:0|0:0,0:0:0:0:
476,284,62828,5,4,0:0:0:0:
384,256,62987,2,0,L|288:256,1,93.75,2|10,0:0|0:0,0:0:0:0:
208,208,63306,1,0,0:0:0:0:
256,128,63466,1,0,0:0:0:0:
200,52,63626,1,0,0:0:0:0:
108,48,63785,1,10,0:0:0:0:
56,128,63945,1,0,0:0:0:0:
108,208,64104,1,2,0:0:0:0:
112,304,64264,6,0,L|162:304,1,46.875
224,240,64623,1,8,0:0:0:0:
268,320,64782,1,0,0:0:0:0:
360,316,64942,1,0,0:0:0:0:
316,232,65102,1,0,0:0:0:0:
464,256,65381,5,4,0:0:0:0:
460,108,65700,1,10,0:0:0:0:
384,120,65860,1,0,0:0:0:0:
340,60,66019,1,0,0:0:0:0:
268,40,66179,2,0,P|156:40|92:56,1,150,0|0,0:0|0:0,0:0:0:0:
52,84,66657,1,2,0:0:0:0:
20,152,66817,2,0,P|4:232|52:280,1,150
116,308,67296,1,2,0:0:0:0:
192,316,67455,1,0,0:0:0:0:
264,292,67615,2,0,L|376:292,1,75,8|0,0:0|0:0,0:0:0:0:
400,336,67934,5,0,0:0:0:0:
456,288,68094,1,0,0:0:0:0:
448,212,68253,2,0,P|388:144|332:80,1,150,8|0,0:0|0:0,0:0:0:0:
376,32,68732,1,0,0:0:0:0:
452,28,68892,1,8,0:0:0:0:
452,104,69051,2,0,P|400:144|312:212,1,150,0|0,0:0|0:0,0:0:0:0:
284,136,69530,1,8,0:0:0:0:
232,84,69689,2,0,P|216:164|264:208,1,150
268,280,70168,1,8,0:0:0:0:
208,328,70328,1,0,0:0:0:0:
144,288,70487,5,6,0:0:0:0:
32,192,70806,2,0,L|80:128,1,75,8|0,0:0|0:0,0:0:0:0:
44,64,71126,1,0,0:0:0:0:
120,52,71285,1,0,0:0:0:0:
180,96,71445,1,8,0:0:0:0:
240,52,71604,2,0,P|352:20|400:20,1,150
452,56,72083,1,8,0:0:0:0:
464,128,72243,2,0,P|480:208|432:256,1,150
444,328,72721,1,8,0:0:0:0:
368,320,72881,1,0,0:0:0:0:
292,324,73040,5,8,0:0:0:0:
216,324,73200,1,0,0:0:0:0:
148,292,73360,1,0,0:0:0:0:
96,236,73519,2,0,L|48:172,1,75
24,108,73838,5,0,0:0:0:0:
96,120,73998,1,8,0:0:0:0:
160,80,74157,2,0,L|240:128,1,75,4|0,0:0|0:0,0:0:0:0:
288,160,74477,5,0,0:0:0:0:
352,200,74636,1,0,0:0:0:0:
416,160,74796,1,8,0:0:0:0:
472,208,74955,2,0,L|456:300,1,75,0|8,0:0|0:0,0:0:0:0:
384,288,75274,2,0,L|288:288,1,75,0|4,0:0|0:0,0:0:0:0:
256,192,75594,12,0,79423,0:0:0:0:
