osu file format v12

[General]
AudioFilename: Misawa Sachika - Unite (TV Size).mp3
AudioLeadIn: 3000
PreviewTime: 41905
Countdown: 0
SampleSet: Soft
StackLeniency: 0.7
Mode: 0
LetterboxInBreaks: 0

[Editor]
DistanceSpacing: 0.7
BeatDivisor: 4
GridSize: 4

[Metadata]
Title:Unite (TV Size)
TitleUnicode:ユナイト (TV Size)
Artist:Misawa Sachika
ArtistUnicode:三澤 紗千香
Creator:Froztic
Version:Level 4
Source:Accel World
Tags:ending takuya chiba naoki
BeatmapID:210231
BeatmapSetID:73897

[Difficulty]
HPDrainRate:4
CircleSize:3
OverallDifficulty:5
ApproachRate:5
SliderMultiplier:1.2
SliderTickRate:1

[Events]
//Background and Video events
Video,0,"Misawa Sachika - Unite (TV Size).avi"
0,0,"bg2.jpg",0,0
//Break Periods
//Storyboard Layer 0 (Background)
//Storyboard Layer 1 (Fail)
//Storyboard Layer 2 (Pass)
//Storyboard Layer 3 (Foreground)
//Storyboard Sound Samples
//Background Colour Transformations
3,100,163,162,255

[TimingPoints]
275,319.148936170213,4,2,1,75,1,0
6817,-100,4,1,2,75,0,0
7136,-100,4,2,1,75,0,0
10487,-100,4,2,1,50,0,0
20700,-100,4,2,1,65,0,0
22136,-100,4,1,2,65,0,0
22455,-100,4,2,1,65,0,0
23413,-100,4,1,2,65,0,0
23732,-100,4,2,1,65,0,0
30913,-100,4,2,1,70,0,0
39689,-100,4,2,1,30,0,0
41604,-100,4,2,1,70,0,0
42402,-100,4,2,1,90,0,1
65381,-100,4,2,1,75,0,0
75594,-100,4,2,1,5,0,0

[Colours]
Combo1 : 111,55,55
Combo2 : 167,167,167
Combo3 : 64,128,128
Combo4 : 115,0,230
Combo5 : 174,174,0
Combo6 : 0,114,168

[HitObjects]
256,192,275,1,2,0:0:0:0:
176,168,594,1,8,0:0:0:0:
104,128,913,1,0,0:0:0:0:
160,64,1232,2,0,P|336:32|416:64,1,240,8|8,0:0|0:0,0:0:0:0:
448,112,2189,1,0,0:0:0:0:
424,192,2509,1,8,0:0:0:0:
476,260,2828,6,0,P|420:292|352:284,1,120,2|8,0:0|0:0,0:0:0:0:
284,300,3466,1,0,0:0:0:0:
240,228,3785,1,8,0:0:0:0:
324,212,4104,2,0,P|388:196|393:133,1,120,2|8,0:0|0:0,0:0:0:0:
339,90,4743,2,0,L|225:11,1,120,0|8,0:0|0:0,0:0:0:0:
160,44,5381,5,4,0:0:0:0:
80,68,5700,2,0,P|24:152|84:276,1,240,8|8,0:0|0:0,0:0:0:0:
132,332,6657,2,0,P|224:376|364:308,1,240,2|0,0:0|0:0,0:0:0:0:
428,308,7615,1,8,0:0:0:0:
420,224,7934,6,0,L|452:160,3,60
364,156,8732,2,0,L|392:96,2,60
280,160,9370,2,0,L|248:228,2,60,0|0|2,0:0|0:0|0:0,0:0:0:0:
196,156,10009,1,6,0:0:0:0:
112,60,10487,5,8,0:0:0:0:
196,64,10806,2,0,L|168:-4,2,60
272,100,11445,2,0,P|344:44|488:28,1,240
480,112,12402,1,0,0:0:0:0:
468,196,12721,6,0,B|468:308|388:356|328:372,1,240
256,336,13679,1,0,0:0:0:0:
172,336,13998,2,0,L|44:320,1,120
44,236,14636,2,0,L|44:108,1,120
112,64,15274,1,8,0:0:0:0:
280,44,15913,5,0,0:0:0:0:
348,96,16232,1,0,0:0:0:0:
416,48,16551,2,0,P|496:96|496:144,1,120
496,200,17189,2,0,B|496:328|432:376|336:360|320:360,1,240
276,356,18147,6,0,L|128:304,1,120
176,232,18785,2,0,P|160:168|80:136,1,120
32,136,19423,1,8,0:0:0:0:
172,44,20062,1,8,0:0:0:0:
256,192,20700,5,2,0:0:0:0:
320,140,21019,2,0,L|384:96,2,60,8|0|0,0:0|0:0|0:0,0:0:0:0:
336,224,21657,1,8,0:0:0:0:
404,172,21977,2,0,B|472:136|468:12|344:8|308:60,1,240,2|0,0:0|0:0,0:0:0:0:
244,52,22934,1,8,0:0:0:0:
160,64,23253,6,0,B|64:96|32:160|16:224|32:272,1,240,2|0,0:0|0:0,0:0:0:0:
48,324,24211,1,8,0:0:0:0:
128,352,24530,2,0,L|256:352,1,120,2|8,0:0|0:0,0:0:0:0:
332,348,25168,1,0,0:0:0:0:
408,316,25487,1,8,0:0:0:0:
464,252,25806,5,2,0:0:0:0:
464,168,26126,2,0,L|464:104,1,60,8|6,0:0|0:0,0:0:0:0:
404,48,26604,2,0,L|256:48,1,120,2|2,0:0|0:0,0:0:0:0:
200,56,27243,2,0,L|136:72,1,60,2|0,0:0|0:0,0:0:0:0:
128,240,28040,6,0,L|144:176,2,60,2|0|0,0:0|0:0|0:0,0:0:0:0:
60,188,28679,2,0,L|44:252,1,60,0|2,0:0|0:0,0:0:0:0:
80,324,29157,1,2,0:0:0:0:
164,324,29477,1,2,0:0:0:0:
288,340,29955,2,0,P|432:196|384:68,1,360
260,48,31392,5,2,0:0:0:0:
184,84,31711,1,2,0:0:0:0:
112,40,32030,1,2,0:0:0:0:
48,196,32668,2,0,L|32:260,1,60
80,324,33147,2,0,L|208:352,1,120
280,340,33785,6,0,L|344:340,1,60,2|2,0:0|0:0,0:0:0:0:
420,316,34264,1,2,0:0:0:0:
408,232,34583,1,2,0:0:0:0:
240,224,35221,2,0,L|160:224,1,60
116,168,35700,1,0,0:0:0:0:
192,128,36019,6,0,L|384:128,1,180,2|2,0:0|0:0,0:0:0:0:
444,172,36817,1,2,0:0:0:0:
444,88,37136,1,2,0:0:0:0:
240,44,37934,6,0,L|104:44,1,120
60,104,38572,2,0,B|48:260|220:236,1,240,2|0,0:0|0:0,0:0:0:0:
256,192,39689,12,0,41604,0:0:0:0:
256,192,42083,6,0,L|176:176,2,60,2|0|2,0:0|0:0|0:0,0:0:0:0:
236,112,42721,1,2,0:0:0:0:
320,112,43040,1,2,0:0:0:0:
388,60,43360,1,2,0:0:0:0:
464,96,43679,2,0,B|480:192|432:224|256:224|240:288|256:352,1,360
172,324,44955,5,2,0:0:0:0:
100,280,45274,2,0,P|36:280|20:232,1,120,2|0,0:0|0:0,0:0:0:0:
24,152,45913,2,0,L|8:88,1,60,2|0,0:0|0:0,0:0:0:0:
72,40,46392,2,0,L|136:40,1,60,0|2,0:0|0:0,0:0:0:0:
280,120,47189,5,2,0:0:0:0:
336,56,47509,1,0,0:0:0:0:
412,92,47828,1,2,0:0:0:0:
476,148,48147,2,0,L|492:228,1,60
460,288,48626,2,0,P|400:344|296:348,1,180
224,328,49423,1,0,0:0:0:0:
144,300,49743,1,0,0:0:0:0:
76,252,50062,5,0,0:0:0:0:
104,172,50381,2,0,L|180:212,1,60,0|2,0:0|0:0,0:0:0:0:
220,256,50860,1,2,0:0:0:0:
300,236,51179,1,2,0:0:0:0:
424,264,51657,2,0,L|488:144,1,120
472,76,52296,6,0,L|472:-8,2,60,2|0|2,0:0|0:0|0:0,0:0:0:0:
392,48,52934,2,0,L|264:48,1,120,2|2,0:0|0:0,0:0:0:0:
188,52,53572,2,0,P|52:188|228:344,1,480,2|2,0:0|0:0,0:0:0:0:
308,324,55168,5,0,0:0:0:0:
392,324,55487,2,0,P|472:324|472:292,1,120,2|0,0:0|0:0,0:0:0:0:
464,224,56126,2,0,L|480:160,1,60,2|0,0:0|0:0,0:0:0:0:
500,84,56604,2,0,L|452:36,1,60,0|2,0:0|0:0,0:0:0:0:
288,48,57402,5,0,0:0:0:0:
204,48,57721,2,0,L|76:48,1,120,2|0,0:0|0:0,0:0:0:0:
32,116,58360,2,0,L|96:132,1,60,2|0,0:0|0:0,0:0:0:0:
168,156,58838,2,0,P|268:128|360:148,1,180
416,180,59636,2,0,P|448:232|420:280,1,120
340,300,60275,6,0,P|264:288|208:252,1,120
188,248,60753,1,2,0:0:0:0:
108,220,61072,1,2,0:0:0:0:
40,172,61392,1,2,0:0:0:0:
128,80,61870,6,0,L|256:48,1,120,2|0,0:0|0:0,0:0:0:0:
328,60,62509,2,0,L|392:60,1,60,2|0,0:0|0:0,0:0:0:0:
448,120,62987,2,0,L|480:56,1,60,0|2,0:0|0:0,0:0:0:0:
416,224,63785,2,0,L|448:288,1,60
404,296,64104,2,0,L|300:300,1,60
52,288,65381,5,2,0:0:0:0:
80,208,65700,1,8,0:0:0:0:
140,148,66019,2,0,L|76:132,1,60
56,100,66338,2,0,L|104:52,1,60,8|0,0:0|0:0,0:0:0:0:
180,76,66817,2,0,L|232:108,1,60,0|8,0:0|0:0,0:0:0:0:
276,36,67296,1,2,0:0:0:0:
352,68,67615,1,8,0:0:0:0:
436,52,67934,5,2,0:0:0:0:
440,136,68253,2,0,L|320:188,1,120,8|0,0:0|0:0,0:0:0:0:
252,156,68892,1,8,0:0:0:0:
172,180,69211,2,0,P|128:248|164:284,1,120,0|8,0:0|0:0,0:0:0:0:
224,288,69849,2,0,L|360:256,1,120,0|8,0:0|0:0,0:0:0:0:
424,252,70487,5,2,0:0:0:0:
452,332,70806,2,0,L|308:364,1,120,8|0,0:0|0:0,0:0:0:0:
260,320,71445,1,8,0:0:0:0:
176,312,71764,2,0,P|116:316|72:268,1,120,0|8,0:0|0:0,0:0:0:0:
76,192,72402,1,0,0:0:0:0:
8,140,72721,1,8,0:0:0:0:
32,64,73040,6,0,L|112:64,1,60,10|0,0:0|0:0,0:0:0:0:
92,108,73360,2,0,L|156:108,1,60
236,112,73838,2,0,L|236:48,2,60,0|2|0,0:0|0:0|0:0,0:0:0:0:
320,112,74477,2,0,L|320:192,2,60,0|0|2,0:0|0:0|0:0,0:0:0:0:
400,140,75115,1,2,0:0:0:0:
400,224,75434,1,2,0:0:0:0:
256,192,75594,12,0,79423,0:0:0:0:
