osu file format v12

[General]
AudioFilename: Misawa Sachika - Unite (TV Size).mp3
AudioLeadIn: 3000
PreviewTime: 41905
Countdown: 0
SampleSet: Soft
StackLeniency: 0.7
Mode: 0
LetterboxInBreaks: 0

[Editor]
DistanceSpacing: 1
BeatDivisor: 2
GridSize: 4

[Metadata]
Title:Unite (TV Size)
TitleUnicode:ユナイト (TV Size)
Artist:Misawa Sachika
ArtistUnicode:三澤 紗千香
Creator:Froztic
Version:Level 1
Source:Accel World
Tags:ending takuya chiba naoki
BeatmapID:210301
BeatmapSetID:73897

[Difficulty]
HPDrainRate:1
CircleSize:2
OverallDifficulty:3
ApproachRate:2
SliderMultiplier:0.7
SliderTickRate:1

[Events]
//Background and Video events
Video,0,"Misawa Sachika - Unite (TV Size).avi"
0,0,"bg1.jpg",0,0
//Break Periods
//Storyboard Layer 0 (Background)
//Storyboard Layer 1 (Fail)
//Storyboard Layer 2 (Pass)
//Storyboard Layer 3 (Foreground)
//Storyboard Sound Samples
//Background Colour Transformations
3,100,163,162,255

[TimingPoints]
275,319.148936170213,4,2,1,75,1,0
10487,-100,4,2,1,50,0,0
20700,-100,4,2,1,65,0,0
30913,-100,4,2,1,70,0,0
39689,-100,4,2,1,30,0,0
41604,-100,4,2,1,70,0,0
42402,-100,4,2,1,90,0,1
65381,-100,4,2,1,75,0,0
75594,-100,4,2,1,5,0,0

[Colours]
Combo1 : 111,55,55
Combo2 : 167,167,167
Combo3 : 64,128,128
Combo4 : 115,0,230
Combo5 : 174,174,0
Combo6 : 0,114,168

[HitObjects]
64,80,275,1,2,0:0:0:0:
200,44,913,1,0,0:0:0:0:
340,48,1551,2,0,P|440:96|472:204,1,210,2|0,0:0|0:0,0:0:0:0:
452,252,2828,5,2,0:0:0:0:
348,344,3466,2,0,L|260:348,1,70
208,352,4104,2,0,P|100:320|44:216,1,210
40,172,5381,5,2,0:0:0:0:
172,212,6019,1,0,0:0:0:0:
292,284,6657,2,0,P|396:276|448:184,1,210,2|0,0:0|0:0,0:0:0:0:
420,128,7934,6,0,P|356:104|320:112,1,105,2|0,0:0|0:0,0:0:0:0:
256,136,8732,2,0,L|184:136,1,70,0|4,0:0|0:0,0:0:0:0:
152,196,9370,2,0,L|80:216,2,70
256,192,10487,5,2,0:0:0:0:
320,68,11126,1,0,0:0:0:0:
184,44,11764,2,0,P|72:80|52:116,1,140,2|0,0:0|0:0,0:0:0:0:
56,232,13040,5,2,0:0:0:0:
164,324,13679,2,0,L|316:344,1,140,0|2,0:0|0:0,0:0:0:0:
372,352,14636,2,0,L|432:284,1,70
444,236,15274,1,8,0:0:0:0:
460,168,15594,5,2,0:0:0:0:
368,64,16232,2,0,L|228:64,1,140,0|2,0:0|0:0,0:0:0:0:
100,120,17509,1,0,0:0:0:0:
184,232,18147,6,0,L|260:204,2,70,2|0|0,0:0|0:0|0:0,0:0:0:0:
56,292,19423,1,8,0:0:0:0:
192,324,20062,1,0,0:0:0:0:
256,352,20381,1,0,0:0:0:0:
316,316,20700,5,2,0:0:0:0:
444,256,21338,1,0,0:0:0:0:
308,220,21977,2,0,P|220:208|188:168,1,140,2|0,0:0|0:0,0:0:0:0:
168,32,23253,6,0,L|28:32,2,140,2|0|2,0:0|0:0|0:0,0:0:0:0:
304,64,25168,1,0,0:0:0:0:
444,44,25806,5,2,0:0:0:0:
460,148,26285,2,0,L|400:196,1,70
336,184,26923,2,0,L|228:184,1,105,0|2,0:0|0:0,0:0:0:0:
92,196,28040,1,0,0:0:0:0:
36,240,28360,6,0,P|40:300|92:336,1,105
140,344,29157,1,0,0:0:0:0:
210,341,29477,2,0,L|338:337,1,105
451,307,30594,6,0,L|490:236,1,70
420,164,31392,2,0,L|420:84,1,70
364,52,32030,1,0,0:0:0:0:
256,192,32828,1,0,0:0:0:0:
184,72,33466,5,2,0:0:0:0:
84,108,33945,1,0,0:0:0:0:
55,172,34264,2,0,L|58:250,1,70
196,348,35381,1,0,0:0:0:0:
336,348,36019,5,2,0:0:0:0:
424,288,36498,1,0,0:0:0:0:
420,220,36817,2,0,L|340:184,1,70
180,184,37934,6,0,L|112:228,1,70
76,276,38572,2,0,P|156:308|220:276,1,140
256,192,39689,12,0,41604,0:0:0:0:
184,204,42402,5,4,0:0:0:0:
220,144,42721,2,0,L|309:144,1,70,2|0,0:0|0:0,0:0:0:0:
326,204,43360,1,2,0:0:0:0:
464,204,43998,1,0,0:0:0:0:
476,64,44636,1,2,0:0:0:0:
412,36,44955,5,0,0:0:0:0:
352,72,45274,2,0,L|260:72,1,70,2|0,0:0|0:0,0:0:0:0:
224,112,45913,2,0,L|128:112,2,70,2|0|2,0:0|0:0|0:0,0:0:0:0:
356,160,47189,6,0,L|444:160,1,70,2|0,0:0|0:0,0:0:0:0:
476,208,47828,1,2,0:0:0:0:
456,276,48147,1,0,0:0:0:0:
368,332,48626,2,0,P|316:344|256:320,1,105
204,304,49423,2,0,L|128:256,1,70,2|0,0:0|0:0,0:0:0:0:
80,240,50062,1,0,0:0:0:0:
36,144,50540,5,2,0:0:0:0:
56,76,50860,1,0,0:0:0:0:
116,40,51179,1,2,0:0:0:0:
188,116,51657,2,0,L|268:116,1,70
324,92,52296,1,2,0:0:0:0:
392,72,52615,5,0,0:0:0:0:
460,60,52934,2,0,L|460:148,1,70,2|0,0:0|0:0,0:0:0:0:
400,164,53572,2,0,B|400:300|400:364|328:364|248:364,1,280,2|0,0:0|0:0,0:0:0:0:
208,352,55168,5,2,0:0:0:0:
252,220,55806,1,2,0:0:0:0:
320,204,56126,2,0,B|336:124|320:92|272:52,1,140
156,48,57402,1,2,0:0:0:0:
92,76,57721,6,0,L|48:140,1,70,0|2,0:0|0:0,0:0:0:0:
48,204,58360,1,0,0:0:0:0:
96,296,58838,2,0,P|168:340|216:340,1,105
256,332,59636,1,0,0:0:0:0:
324,312,59955,2,0,L|412:280,1,70
452,204,60753,5,2,0:0:0:0:
468,136,61072,1,2,0:0:0:0:
432,76,61392,1,2,0:0:0:0:
336,120,61870,2,0,L|264:120,1,70,2|0,0:0|0:0,0:0:0:0:
228,180,62509,2,0,L|156:180,1,70,2|0,0:0|0:0,0:0:0:0:
104,224,63147,5,2,0:0:0:0:
232,276,63785,2,0,L|280:260,3,35,2|0|0|2,0:0|0:0|0:0|0:0,0:0:0:0:
436,88,65381,5,2,0:0:0:0:
484,140,65700,2,0,L|484:228,1,70
388,308,66657,2,0,L|160:308,1,210,2|0,0:0|0:0,0:0:0:0:
156,240,67934,6,0,L|156:156,1,70,2|0,0:0|0:0,0:0:0:0:
224,172,68572,2,0,L|224:244,1,70
296,240,69211,1,2,0:0:0:0:
404,152,69849,1,0,0:0:0:0:
312,48,70487,5,2,0:0:0:0:
244,48,70806,2,0,L|156:48,1,70
56,124,71764,2,0,P|24:208|68:320,1,210,2|0,0:0|0:0,0:0:0:0:
132,336,73040,6,0,P|188:348|240:332,1,105,2|0,0:0|0:0,0:0:0:0:
372,320,74157,2,0,P|408:260|388:172,1,140
348,144,75115,2,0,L|276:144,1,70,2|0,0:0|0:0,0:0:0:0:
256,192,75753,12,0,79423,0:0:0:0:
