osu file format v12

[General]
AudioFilename: .mp3
AudioLeadIn: 0
PreviewTime: 52511
Countdown: 0
SampleSet: Soft
StackLeniency: 0.7
Mode: 0
LetterboxInBreaks: 1
WidescreenStoryboard: 1

[Editor]
Bookmarks: 21209,52830,74692,86341,116660,138521,152404,160064,162777,165170,175064,185596,208575,218628,226447
DistanceSpacing: 1.5
BeatDivisor: 4
GridSize: 4
TimelineZoom: 1

[Metadata]
Title:Unite (Full ver)
TitleUnicode:ユナイト (Full ver)
Artist:Misawa Sachika
ArtistUnicode:三澤紗千香
Creator:-Yuzuriha-inori-
Version:Hard
Source:Accel World
Tags:アクセル・ワールド yunaito ending
BeatmapID:384971
BeatmapSetID:157191

[Difficulty]
HPDrainRate:6
CircleSize:4
OverallDifficulty:6
ApproachRate:8
SliderMultiplier:1.4
SliderTickRate:2

[Events]
//Background and Video events
0,0,"BG.jpg",0,0
//Break Periods
2,74891,85591
2,165370,174633
//Storyboard Layer 0 (Background)
//Storyboard Layer 1 (Fail)
//Storyboard Layer 2 (Pass)
//Storyboard Layer 3 (Foreground)
//Storyboard Sound Samples
//Background Colour Transformations
3,100,163,162,255

[TimingPoints]
490,319.148936170213,4,2,0,60,1,0
21234,-100,4,2,0,60,0,0
36234,-100,4,2,0,60,0,0
38787,-100,4,2,0,60,0,0
50117,-100,4,2,0,60,0,0
52830,-100,4,1,0,75,0,1
74692,-100,4,2,0,60,0,0
86341,-100,4,2,0,60,0,0
95596,-200,4,2,0,60,0,0
96234,-100,4,2,0,60,0,0
108681,-100,4,2,0,60,0,0
114107,-100,4,2,0,60,0,0
116660,-100,4,1,0,75,0,1
138521,-100,4,2,0,60,0,0
142192,-100,4,2,0,60,0,0
175064,-100,4,2,0,60,0,0
185596,-100,4,1,0,75,0,1
208096,-100,4,2,0,65,0,1
208575,-100,4,2,0,60,0,0

[HitObjects]
328,80,21234,5,2,0:0:0:0:
416,136,21394,1,0,0:0:0:0:
416,240,21553,2,0,P|368:264|280:224,1,140,0|2,0:0|0:0,0:0:0:0:
232,152,22032,1,0,0:0:0:0:
290,237,22192,2,0,P|290:285|266:309,1,70
172,294,22511,2,0,P|123:292|101:307,1,70,2|0,0:0|0:0,0:0:0:0:
136,193,22830,2,0,P|95:170|76:73,1,140,0|2,0:0|0:0,0:0:0:0:
165,36,23309,1,0,0:0:0:0:
213,128,23468,6,0,P|254:119|280:26,1,140,0|2,0:0|0:0,0:0:0:0:
383,67,23947,1,0,0:0:0:0:
438,156,24107,2,0,L|364:281,1,140,0|2,0:0|0:0,0:0:0:0:
269,313,24585,1,0,0:0:0:0:
204,229,24745,1,0,0:0:0:0:
204,229,25064,5,2,0:0:0:0:
141,144,25224,2,0,P|102:182|107:275,1,140
174,337,25702,1,2,0:0:0:0:
269,313,25862,1,0,0:0:0:0:
348,244,26021,2,0,P|349:197|418:125,2,140,0|2|0,0:0|0:0|0:0,0:0:0:0:
419,321,26819,5,0,0:0:0:0:
465,226,26979,2,0,L|536:260,1,70,2|0,0:0|0:0,0:0:0:0:
407,129,27298,2,0,L|254:104,1,140,0|2,0:0|0:0,0:0:0:0:
197,184,27777,1,0,0:0:0:0:
119,114,27936,2,0,L|51:153,1,70
54,254,28255,2,0,L|122:215,1,70,2|0,0:0|0:0,0:0:0:0:
197,184,28575,2,0,P|213:244|171:321,1,140,0|2,0:0|0:0,0:0:0:0:
281,342,29053,5,0,0:0:0:0:
381,309,29213,2,0,P|377:259|392:231,1,70
467,177,29532,2,0,P|471:227|456:255,1,70,2|0,0:0|0:0,0:0:0:0:
381,309,29851,1,8,0:0:0:0:
468,177,30011,1,8,0:0:0:0:
345,47,30330,5,10,0:0:0:0:
254,100,30490,2,0,L|265:133,2,35,10|0|0,0:0|0:0|0:0,0:0:0:0:
148,96,30809,2,0,L|90:94,3,35,10|0|2|0,0:0|0:0|0:0|0:0,0:0:0:0:
148,96,31128,2,0,P|141:162|78:209,1,140,2|2,0:0|0:0,0:0:0:0:
24,291,31607,1,0,0:0:0:0:
126,313,31766,6,0,L|212:298,1,70,2|0,0:0|0:0,0:0:0:0:
253,213,32085,1,2,0:0:0:0:
331,283,32245,1,0,0:0:0:0:
421,335,32404,2,0,P|446:295|444:199,1,140,0|2,0:0|0:0,0:0:0:0:
354,152,32883,1,0,0:0:0:0:
440,92,33043,2,0,L|309:29,1,140,0|2,0:0|0:0,0:0:0:0:
211,52,33521,1,0,0:0:0:0:
123,109,33681,6,0,P|100:165|128:253,1,140,0|2,0:0|0:0,0:0:0:0:
203,300,34160,1,0,0:0:0:0:
307,293,34319,2,0,P|306:244|281:217,1,70
219,154,34638,2,0,L|284:120,1,70,2|0,0:0|0:0,0:0:0:0:
348,40,34958,2,0,L|179:31,1,140,0|2,0:0|0:0,0:0:0:0:
118,46,35436,1,0,0:0:0:0:
138,134,35596,2,0,L|231:155,1,70
48,172,35915,5,2,0:0:0:0:
126,242,36075,1,0,0:0:0:0:
37,298,36234,2,0,P|79:329|191:328,1,140,0|2,0:0|0:0,0:0:0:0:
267,315,36713,2,0,L|224:178,1,140,0|2,0:0|0:0,0:0:0:0:
225,181,37351,6,0,P|281:161|372:191,1,140,2|0,0:0|0:0,0:0:0:0:
456,244,37830,2,0,P|390:264|323:245,2,140,2|0|2,0:0|0:0|0:0,0:0:0:0:
463,139,38628,1,0,0:0:0:0:
405,51,38787,2,0,L|309:51,1,70
246,109,39107,1,2,0:0:0:0:
340,153,39266,1,2,0:0:0:0:
64,176,39585,1,2,0:0:0:0:
203,332,39904,6,0,P|212:279|180:188,1,140,2|0,0:0|0:0,0:0:0:0:
246,109,40383,1,2,0:0:0:0:
141,97,40543,1,0,0:0:0:0:
64,176,40702,2,0,P|62:232|51:259,2,70,0|0|2,0:0|0:0|0:0,0:0:0:0:
36,74,41181,1,0,0:0:0:0:
141,97,41341,2,0,P|183:47|267:38,1,140,0|2,0:0|0:0,0:0:0:0:
253,34,41819,1,0,0:0:0:0:
437,165,42138,1,2,0:0:0:0:
309,332,42458,6,0,P|323:278|311:193,1,140,2|0,0:0|0:0,0:0:0:0:
227,134,42936,1,2,0:0:0:0:
210,237,43096,1,0,0:0:0:0:
126,299,43255,2,0,L|81:214,1,70
40,144,43575,2,0,L|88:80,1,70
168,152,43894,2,0,P|216:168|312:132,1,140
299,143,44372,1,0,0:0:0:0:
299,143,44692,1,0,0:0:0:0:
430,303,45011,6,0,P|392:318|281:291,1,140,2|0,0:0|0:0,0:0:0:0:
204,251,45490,1,2,0:0:0:0:
107,291,45649,1,0,0:0:0:0:
88,187,45809,2,0,P|80:138|91:106,1,70
176,66,46128,2,0,P|241:107|321:110,1,140,2|0,0:0|0:0,0:0:0:0:
394,164,46607,1,0,0:0:0:0:
425,263,46766,6,0,L|344:312,1,70,2|0,0:0|0:0,0:0:0:0:
260,290,47085,1,0,0:0:0:0:
266,184,47245,1,2,0:0:0:0:
266,184,47564,6,0,L|110:215,1,140,2|0,0:0|0:0,0:0:0:0:
43,149,48043,1,2,0:0:0:0:
116,74,48202,1,0,0:0:0:0:
220,60,48362,2,0,L|296:92,1,70
368,143,48681,2,0,P|388:201|361:285,1,140,2|0,0:0|0:0,0:0:0:0:
264,258,49160,1,0,0:0:0:0:
173,309,49319,2,0,P|141:268|166:176,1,140,2|0,0:0|0:0,0:0:0:0:
255,151,49798,1,0,0:0:0:0:
193,65,49958,1,2,0:0:0:0:
295,43,50117,1,0,0:0:0:0:
256,192,50277,12,4,52511,0:0:0:0:
397,187,52830,6,0,P|353:175|243:199,2,140,4|8|0,0:0|0:0|0:0,0:0:0:0:
435,285,53628,1,0,0:0:0:0:
330,280,53787,2,0,L|315:134,1,140,8|0,0:0|0:0,0:0:0:0:
231,77,54266,1,0,0:0:0:0:
126,65,54426,2,0,P|79:72|53:91,1,70,8|0,0:0|0:0,0:0:0:0:
15,178,54745,1,0,0:0:0:0:
172,233,54904,1,0,0:0:0:0:
93,303,55064,2,0,P|79:260|93:217,1,70,8|0,0:0|0:0,0:0:0:0:
140,148,55383,6,0,L|284:185,1,140,0|8,0:0|0:0,0:0:0:0:
380,169,55862,1,0,0:0:0:0:
306,94,56021,2,0,L|376:29,2,70,0|0|8,0:0|0:0|0:0,0:0:0:0:
380,169,56500,6,0,P|384:229|355:315,1,140
258,280,56979,2,0,B|214:272|203:309|113:281,1,140,8|0,0:0|0:0,0:0:0:0:
145,181,57458,1,0,0:0:0:0:
81,47,57617,1,8,0:0:0:0:
22,134,57777,1,0,0:0:0:0:
160,96,57936,6,0,P|226:104|301:51,1,140,0|8,0:0|0:0,0:0:0:0:
378,122,58415,1,0,0:0:0:0:
449,199,58575,2,0,L|414:273,1,70
298,342,58894,1,8,0:0:0:0:
310,238,59053,2,0,P|256:225|190:284,1,140
112,341,59532,1,8,0:0:0:0:
193,273,59692,1,0,0:0:0:0:
94,238,59851,2,0,P|69:192|88:122,1,105
109,101,60170,2,0,L|194:143,1,70,8|0,0:0|0:0,0:0:0:0:
246,59,60490,6,0,P|300:77|393:66,1,140,0|8,0:0|0:0,0:0:0:0:
427,163,60968,2,0,P|417:201|449:308,1,140,0|8,0:0|0:0,0:0:0:0:
441,297,61607,6,0,L|290:286,1,140,8|0,0:0|0:0,0:0:0:0:
231,208,62085,1,8,0:0:0:0:
139,260,62245,1,0,0:0:0:0:
93,165,62404,2,0,P|63:126|64:97,1,70
146,43,62724,1,8,0:0:0:0:
146,43,62883,1,0,0:0:0:0:
146,43,63043,6,0,L|287:63,2,140,0|8|0,0:0|0:0|0:0,0:0:0:0:
179,142,63841,1,0,0:0:0:0:
215,240,64000,2,0,P|268:238|301:156,1,140,8|0,0:0|0:0,0:0:0:0:
397,118,64479,1,0,0:0:0:0:
397,118,64638,2,0,P|438:178|431:253,1,140,8|0,0:0|0:0,0:0:0:0:
349,304,65117,1,0,0:0:0:0:
245,321,65277,2,0,P|200:325|166:319,1,70,8|0,0:0|0:0,0:0:0:0:
80,276,65596,6,0,P|66:230|94:139,1,140,0|8,0:0|0:0,0:0:0:0:
171,76,66075,1,0,0:0:0:0:
225,165,66234,2,0,P|255:195|292:207,2,70,0|0|8,0:0|0:0|0:0,0:0:0:0:
295,83,66713,2,0,P|344:101|377:187,1,140
363,299,67192,2,0,P|314:281|281:195,1,140,8|0,0:0|0:0,0:0:0:0:
295,83,67670,1,0,0:0:0:0:
194,52,67830,2,0,L|91:106,1,105,8|0,0:0|0:0,0:0:0:0:
59,132,68149,6,0,P|48:183|72:269,1,140,0|8,0:0|0:0,0:0:0:0:
172,236,68628,1,0,0:0:0:0:
236,318,68787,1,0,0:0:0:0:
396,313,68947,1,8,0:0:0:0:
396,313,69266,6,0,L|327:191,1,140,8|0,0:0|0:0,0:0:0:0:
400,115,69745,1,8,0:0:0:0:
327,191,69904,1,0,0:0:0:0:
230,149,70064,2,0,P|244:90|321:53,1,140,0|8,0:0|0:0,0:0:0:0:
230,149,70702,6,0,P|161:163|92:142,1,140,0|8,0:0|0:0,0:0:0:0:
165,78,71181,2,0,L|154:244,1,140,8|8,0:0|0:0,0:0:0:0:
80,313,71819,2,0,P|126:331|216:316,1,140,8|0,0:0|0:0,0:0:0:0:
310,275,72298,1,8,0:0:0:0:
410,305,72458,1,0,0:0:0:0:
469,218,72617,1,0,0:0:0:0:
424,122,72777,1,0,0:0:0:0:
320,109,72936,1,8,0:0:0:0:
253,190,73096,2,0,P|208:195|111:179,1,140
49,98,73575,2,0,P|94:93|191:109,2,140,8|0|8,0:0|0:0|0:0,0:0:0:0:
2,191,74372,1,0,0:0:0:0:
37,290,74532,2,0,L|122:291,1,70,8|0,0:0|0:0,0:0:0:0:
352,88,86341,5,2,0:0:0:0:
280,168,86500,1,0,0:0:0:0:
384,200,86660,2,0,P|360:248|264:272,1,140,0|2,0:0|0:0,0:0:0:0:
192,224,87138,1,0,0:0:0:0:
172,120,87298,2,0,P|120:132|96:168,1,70
64,240,87617,2,0,P|28:232|8:200,1,70,2|0,0:0|0:0,0:0:0:0:
12,100,87936,6,0,L|136:36,1,140,0|2,0:0|0:0,0:0:0:0:
240,48,88415,1,0,0:0:0:0:
240,48,88575,2,0,L|308:96,1,70
352,176,88894,2,0,P|400:172|432:148,1,70,2|0,0:0|0:0,0:0:0:0:
476,248,89213,2,0,P|472:292|448:320,1,70
352,332,89532,2,0,P|356:280|388:252,1,70,2|0,0:0|0:0,0:0:0:0:
352,176,89851,6,0,L|224:256,1,140,0|2,0:0|0:0,0:0:0:0:
156,324,90330,2,0,P|136:276|168:188,1,140
152,92,90809,2,0,P|208:72|236:88,1,70,2|0,0:0|0:0,0:0:0:0:
320,56,91128,2,0,B|384:44|416:104|416:104|456:96,2,140,0|2|0,0:0|0:0|0:0,0:0:0:0:
332,160,91926,5,0,0:0:0:0:
340,312,92085,2,0,L|404:240,1,70,2|0,0:0|0:0,0:0:0:0:
284,236,92404,2,0,P|224:256|140:224,1,140,0|2,0:0|0:0,0:0:0:0:
180,132,92883,1,0,0:0:0:0:
152,234,93043,2,0,P|148:278|116:302,1,70
48,228,93362,2,0,P|32:176|52:148,1,70,2|0,0:0|0:0,0:0:0:0:
84,72,93681,6,0,P|136:48|236:48,1,140,0|2,0:0|0:0,0:0:0:0:
316,80,94160,1,0,0:0:0:0:
320,248,94319,2,0,L|368:184,1,70
260,168,94638,1,2,0:0:0:0:
192,248,94798,1,0,0:0:0:0:
112,316,94958,2,0,P|68:260|120:192,1,140,0|2,0:0|0:0,0:0:0:0:
168,132,95436,1,0,0:0:0:0:
168,132,95596,6,0,L|168:48,1,70,0|2,0:0|0:0,0:0:0:0:
316,108,96234,6,0,P|380:112|428:168,1,140,0|2,0:0|0:0,0:0:0:0:
420,272,96713,1,0,0:0:0:0:
316,260,96872,2,0,P|308:216|280:200,1,70
204,264,97192,2,0,P|156:304|136:308,1,70,2|0,0:0|0:0,0:0:0:0:
80,228,97511,2,0,P|60:180|104:96,1,140,0|2,0:0|0:0,0:0:0:0:
192,68,97990,1,0,0:0:0:0:
236,164,98149,6,0,L|304:116,1,70
372,52,98468,1,2,0:0:0:0:
432,140,98628,1,0,0:0:0:0:
444,244,98787,2,0,P|408:280|296:304,1,140,0|2,0:0|0:0,0:0:0:0:
224,284,99266,1,0,0:0:0:0:
120,292,99426,6,0,L|80:220,1,70
36,136,99745,1,2,0:0:0:0:
112,64,99904,1,0,0:0:0:0:
164,156,100064,2,0,L|300:116,2,140,0|2|0,0:0|0:0|0:0,0:0:0:0:
328,224,101021,5,2,0:0:0:0:
404,64,101341,2,0,P|444:96|460:192,1,140,0|2,0:0|0:0,0:0:0:0:
404,312,101819,2,0,P|408:248|432:224,2,70
192,308,102458,2,0,P|116:312|80:248,1,140,2|0,0:0|0:0,0:0:0:0:
140,176,102936,2,0,L|-8:196,2,140,2|0|2,0:0|0:0|0:0,0:0:0:0:
144,72,103734,1,0,0:0:0:0:
248,64,103894,5,0,0:0:0:0:
248,64,104053,1,0,0:0:0:0:
328,136,104213,2,0,L|404:108,1,70,2|0,0:0|0:0,0:0:0:0:
408,320,104692,1,2,0:0:0:0:
400,212,105011,2,0,P|336:224|292:288,1,140,2|0,0:0|0:0,0:0:0:0:
196,316,105490,2,0,L|152:248,1,70,2|0,0:0|0:0,0:0:0:0:
60,224,105809,1,0,0:0:0:0:
108,132,105968,1,0,0:0:0:0:
284,176,106128,1,2,0:0:0:0:
212,100,106287,1,0,0:0:0:0:
312,68,106447,6,0,L|448:136,1,140,0|2,0:0|0:0,0:0:0:0:
437,130,106926,1,2,0:0:0:0:
192,244,107245,1,2,0:0:0:0:
444,264,107564,2,0,P|396:292|300:284,1,140,2|0,0:0|0:0,0:0:0:0:
312,184,108043,2,0,P|252:148|164:168,1,140,2|0,0:0|0:0,0:0:0:0:
96,212,108521,1,0,0:0:0:0:
36,124,108681,6,0,L|8:192,1,70
120,68,109000,2,0,L|264:52,1,140,2|0,0:0|0:0,0:0:0:0:
352,100,109479,1,2,0:0:0:0:
352,100,109798,1,2,0:0:0:0:
368,280,110117,6,0,P|320:296|224:280,1,140,2|0,0:0|0:0,0:0:0:0:
184,192,110596,1,2,0:0:0:0:
92,240,110755,1,0,0:0:0:0:
72,136,110915,2,0,L|136:80,1,70
224,60,111234,2,0,P|300:72|336:48,1,105,2|0,0:0|0:0,0:0:0:0:
368,88,111553,6,0,L|416:160,1,70
404,252,111872,1,2,0:0:0:0:
332,328,112032,1,0,0:0:0:0:
220,152,112351,1,2,0:0:0:0:
188,316,112670,2,0,P|136:304|96:216,1,140,2|0,0:0|0:0,0:0:0:0:
60,136,113149,1,2,0:0:0:0:
132,60,113309,1,0,0:0:0:0:
236,40,113468,2,0,L|344:68,1,105
384,88,113787,6,0,P|392:136|376:164,1,70,2|0,0:0|0:0,0:0:0:0:
304,344,114107,2,0,P|288:296|336:220,1,140,0|2,0:0|0:0,0:0:0:0:
396,304,114585,1,0,0:0:0:0:
331,223,114745,2,0,L|183:247,1,140,0|2,0:0|0:0,0:0:0:0:
118,320,115224,6,0,P|95:276|126:178,1,140
180,110,115702,1,2,0:0:0:0:
273,60,115862,1,0,0:0:0:0:
362,113,116021,2,0,P|408:111|440:98,2,70,0|0|2,0:0|0:0|0:0,0:0:0:0:
180,110,116500,5,0,0:0:0:0:
180,110,116660,2,0,P|205:173|296:212,1,140,4|8,0:0|0:0,0:0:0:0:
365,236,117138,1,0,0:0:0:0:
287,306,117298,2,0,L|141:321,1,140,0|8,0:0|0:0,0:0:0:0:
74,244,117777,1,0,0:0:0:0:
89,140,117936,6,0,P|96:88|126:65,1,70
210,88,118255,1,8,0:0:0:0:
296,226,118415,1,0,0:0:0:0:
200,182,118575,2,0,P|184:236|224:296,1,105
240,315,118894,6,0,L|337:316,1,70,8|0,0:0|0:0,0:0:0:0:
413,296,119213,2,0,B|441:246|381:208|381:207|401:154,1,140,0|8,0:0|0:0,0:0:0:0:
327,85,119692,1,0,0:0:0:0:
224,62,119851,2,0,L|148:103,2,70,0|0|8,0:0|0:0|0:0,0:0:0:0:
261,160,120330,2,0,P|231:198|131:201,1,140
39,196,120809,2,0,P|56:255|15:333,2,140,8|0|8,0:0|0:0|0:0,0:0:0:0:
91,104,121607,1,0,0:0:0:0:
164,177,121766,6,0,L|229:270,1,105
270,287,122085,1,8,0:0:0:0:
336,205,122245,1,0,0:0:0:0:
257,136,122404,2,0,L|317:75,1,70
306,86,122883,6,0,L|154:64,1,140,8|0,0:0|0:0,0:0:0:0:
66,93,123362,1,8,0:0:0:0:
63,253,123521,1,0,0:0:0:0:
141,182,123681,2,0,P|187:225|184:307,1,140,0|8,0:0|0:0,0:0:0:0:
188,298,124160,1,0,0:0:0:0:
289,324,124319,6,0,L|422:265,1,140,0|8,0:0|0:0,0:0:0:0:
339,195,124798,2,0,P|340:148|404:82,1,140
400,83,125436,6,0,L|248:70,1,140,8|0,0:0|0:0,0:0:0:0:
156,76,125915,1,8,0:0:0:0:
195,239,126075,1,0,0:0:0:0:
122,163,126234,2,0,L|41:193,2,70,0|0|8,0:0|0:0|0:0,0:0:0:0:
226,153,126713,1,0,0:0:0:0:
319,200,126872,6,0,B|350:227|341:301|340:301|414:295,1,140,0|8,0:0|0:0,0:0:0:0:
470,223,127351,1,0,0:0:0:0:
438,122,127511,2,0,P|379:92|314:93,1,105
288,88,127830,2,0,L|226:47,1,70,8|0,0:0|0:0,0:0:0:0:
131,86,128149,6,0,P|94:135|129:221,1,140,0|8,0:0|0:0,0:0:0:0:
213,233,128628,1,0,0:0:0:0:
158,322,128787,1,0,0:0:0:0:
158,322,128947,1,0,0:0:0:0:
261,339,129107,1,8,0:0:0:0:
261,339,129266,1,0,0:0:0:0:
364,318,129426,6,0,P|336:265|376:187,1,140,0|8,0:0|0:0,0:0:0:0:
443,263,129904,1,0,0:0:0:0:
443,263,130064,2,0,L|295:218,1,140,0|8,0:0|0:0,0:0:0:0:
206,199,130543,2,0,P|237:150|327:134,1,140
291,27,131021,1,8,0:0:0:0:
187,46,131181,1,0,0:0:0:0:
85,75,131341,2,0,L|15:163,1,105
20,209,131660,6,0,P|59:227|100:213,1,70,8|0,0:0|0:0,0:0:0:0:
188,240,131979,2,0,P|237:252|276:334,1,140,0|8,0:0|0:0,0:0:0:0:
171,331,132458,1,0,0:0:0:0:
188,240,132617,2,0,L|207:157,1,70
203,171,133096,6,0,P|284:163|343:191,1,140,8|0,0:0|0:0,0:0:0:0:
345,290,133575,1,8,0:0:0:0:
436,239,133734,1,0,0:0:0:0:
462,137,133894,2,0,P|448:78|354:41,1,140,0|8,0:0|0:0,0:0:0:0:
175,66,134532,6,0,P|129:71|79:154,1,140,0|8,0:0|0:0,0:0:0:0:
81,248,135011,2,0,B|168:243|168:243|230:280,1,140
308,315,135490,1,8,0:0:0:0:
323,211,135649,2,0,P|320:155|365:99,1,105
394,129,135968,2,0,L|448:182,1,70,0|8,0:0|0:0,0:0:0:0:
420,280,136287,1,0,0:0:0:0:
323,212,136447,6,0,L|230:200,1,70
203,110,136766,1,8,0:0:0:0:
117,171,136926,2,0,P|83:219|135:303,1,140
172,354,137404,2,0,P|206:306|154:222,2,140,8|0|8,0:0|0:0|0:0,0:0:0:0:
109,290,138202,1,0,0:0:0:0:
41,209,138362,2,0,P|38:153|52:132,1,70,0|8,0:0|0:0,0:0:0:0:
327,100,139638,6,0,P|263:84|185:114,1,140
117,178,140117,2,0,P|166:193|264:159,1,140
344,216,140596,1,0,0:0:0:0:
296,309,140755,2,0,L|140:308,2,140
401,302,141553,5,2,0:0:0:0:
452,210,141713,1,2,0:0:0:0:
416,111,141872,1,2,0:0:0:0:
323,61,142032,1,2,0:0:0:0:
217,62,142192,2,0,L|87:148,1,140,2|2,0:0|0:0,0:0:0:0:
121,348,142830,5,0,0:0:0:0:
260,190,143149,1,0,0:0:0:0:
364,372,143468,1,0,0:0:0:0:
423,170,143787,1,0,0:0:0:0:
250,48,144107,1,0,0:0:0:0:
72,159,144426,5,0,0:0:0:0:
72,159,144585,1,0,0:0:0:0:
72,159,144745,1,2,0:0:0:0:
280,186,145064,1,0,0:0:0:0:
91,277,145383,1,0,0:0:0:0:
178,86,145702,1,0,0:0:0:0:
224,290,146021,1,0,0:0:0:0:
430,247,146341,1,0,0:0:0:0:
360,80,146660,2,0,P|332:120|216:144,1,140
86,138,147138,5,0,0:0:0:0:
86,138,147298,2,0,P|78:220|103:289,1,140,2|2,0:0|0:0,0:0:0:0:
193,310,147777,1,0,0:0:0:0:
189,205,147936,2,0,P|250:222|288:311,1,140,0|2,0:0|0:0,0:0:0:0:
389,313,148415,1,0,0:0:0:0:
465,241,148575,2,0,L|399:111,1,140,0|2,0:0|0:0,0:0:0:0:
306,73,149053,1,0,0:0:0:0:
203,98,149213,6,0,P|176:66|146:56,1,70
85,139,149532,2,0,P|69:189|90:225,1,70,2|0,0:0|0:0,0:0:0:0:
158,265,149851,1,0,0:0:0:0:
367,269,150170,1,2,0:0:0:0:
367,269,150330,1,0,0:0:0:0:
306,73,150649,1,2,0:0:0:0:
428,128,150968,6,0,L|306:178,1,105,2|0,0:0|0:0,0:0:0:0:
279,177,151287,1,0,0:0:0:0:
187,124,151447,1,2,0:0:0:0:
174,228,151607,2,0,L|122:287,2,70
77,187,152085,2,0,L|61:91,1,70,2|0,0:0|0:0,0:0:0:0:
138,42,152404,6,0,L|294:49,1,140,0|2,0:0|0:0,0:0:0:0:
367,104,152883,1,0,0:0:0:0:
367,104,153043,2,0,P|385:159|366:222,1,105
336,238,153362,6,0,P|328:286|342:310,1,70,2|0,0:0|0:0,0:0:0:0:
231,312,153681,2,0,L|161:264,1,70
182,167,154000,1,2,0:0:0:0:
87,120,154160,1,0,0:0:0:0:
165,51,154319,2,0,P|229:55|268:137,1,140,0|2,0:0|0:0,0:0:0:0:
261,218,154798,1,0,0:0:0:0:
182,167,154958,6,0,P|161:227|65:241,1,140,0|2,0:0|0:0,0:0:0:0:
8,188,155436,1,0,0:0:0:0:
87,120,155596,2,0,L|163:58,1,70
245,63,155915,2,0,P|292:85|332:82,1,70,2|0,0:0|0:0,0:0:0:0:
406,125,156234,2,0,P|430:176|387:260,1,140,0|2,0:0|0:0,0:0:0:0:
303,211,156713,1,0,0:0:0:0:
301,315,156872,2,0,L|176:319,1,105
146,298,157192,6,0,P|139:241|206:191,1,140,2|0,0:0|0:0,0:0:0:0:
370,73,157830,1,2,0:0:0:0:
161,52,158149,1,0,0:0:0:0:
374,230,158468,1,2,0:0:0:0:
374,230,158628,2,0,P|318:262|222:231,1,140
141,243,159107,5,2,0:0:0:0:
83,155,159266,1,0,0:0:0:0:
168,96,159426,2,0,P|200:132|224:136,1,70,2|0,0:0|0:0,0:0:0:0:
296,208,159745,2,0,P|320:168|352:152,1,70,2|0,0:0|0:0,0:0:0:0:
429,258,160064,6,0,P|385:301|289:304,1,140,0|2,0:0|0:0,0:0:0:0:
205,328,160543,2,0,L|63:319,1,140
65,319,161021,1,2,0:0:0:0:
65,319,161341,6,0,P|52:258|92:185,1,140,0|2,0:0|0:0,0:0:0:0:
120,92,161819,1,0,0:0:0:0:
212,141,161979,2,0,L|237:65,2,70,0|0|2,0:0|0:0|0:0,0:0:0:0:
202,245,162458,1,0,0:0:0:0:
290,301,162617,1,0,0:0:0:0:
256,192,162777,12,4,165170,0:0:0:0:
404,129,175383,6,0,P|345:123|250:147,1,140,2|0,0:0|0:0,0:0:0:0:
128,297,176021,2,0,P|108:233|141:153,1,140
297,37,176660,1,0,0:0:0:0:
422,204,176979,1,0,0:0:0:0:
255,331,177298,1,0,0:0:0:0:
229,122,177617,5,0,0:0:0:0:
229,122,177777,1,0,0:0:0:0:
229,122,177936,2,0,P|158:118|84:148,1,140,2|0,0:0|0:0,0:0:0:0:
21,217,178415,1,0,0:0:0:0:
64,312,178575,2,0,L|139:338,2,70
131,238,179053,6,0,L|279:238,1,140
268,56,179692,1,0,0:0:0:0:
88,72,180011,2,0,L|12:120,1,70
23,194,180330,1,0,0:0:0:0:
23,194,180490,6,0,L|157:292,1,140,2|0,0:0|0:0,0:0:0:0:
185,184,180968,1,0,0:0:0:0:
254,262,181128,2,0,L|338:238,1,70,2|0,0:0|0:0,0:0:0:0:
420,194,181447,1,0,0:0:0:0:
418,80,181607,6,0,P|337:80|320:135,1,140
209,49,182085,1,0,0:0:0:0:
105,67,182245,1,0,0:0:0:0:
36,146,182404,2,0,P|82:194|149:159,1,140,2|2,0:0|0:0,0:0:0:0:
143,169,183043,6,0,L|141:250,1,70,2|0,0:0|0:0,0:0:0:0:
141,238,183362,1,2,0:0:0:0:
232,314,183521,2,0,L|388:299,1,140
371,300,184000,1,2,0:0:0:0:
409,202,184160,2,0,L|303:66,1,140,2|0,0:0|0:0,0:0:0:0:
223,59,184638,5,0,0:0:0:0:
239,163,184798,1,0,0:0:0:0:
141,238,184958,2,0,P|98:192|114:110,1,140,2|2,0:0|0:0,0:0:0:0:
141,238,185436,1,2,0:0:0:0:
141,238,185516,1,2,0:0:0:0:
141,238,185596,6,0,P|196:270|295:263,1,140,4|8,0:0|0:0,0:0:0:0:
366,225,186075,1,0,0:0:0:0:
351,72,186234,2,0,L|283:150,1,70
211,75,186553,6,0,P|130:72|87:111,1,140,8|0,0:0|0:0,0:0:0:0:
39,201,187032,1,0,0:0:0:0:
142,220,187192,1,8,0:0:0:0:
142,220,187351,1,0,0:0:0:0:
72,289,187511,2,0,L|234:330,1,140,0|8,0:0|0:0,0:0:0:0:
305,316,187990,1,0,0:0:0:0:
368,241,188149,6,0,P|355:193|406:119,1,140,0|8,0:0|0:0,0:0:0:0:
466,194,188628,1,0,0:0:0:0:
462,291,188787,2,0,P|437:327|394:345,1,70
368,241,189107,1,8,0:0:0:0:
368,241,189266,2,0,L|219:256,1,140
148,324,189745,2,0,P|120:268|160:196,1,140
284,40,190383,6,0,L|372:72,1,70,8|0,0:0|0:0,0:0:0:0:
324,152,190702,2,0,L|211:256,1,140,0|8,0:0|0:0,0:0:0:0:
216,344,191181,1,0,0:0:0:0:
221,246,191341,2,0,P|169:249|130:231,1,70
41,63,191819,6,0,P|97:100|98:185,1,140,8|0,0:0|0:0,0:0:0:0:
122,264,192298,1,8,0:0:0:0:
217,103,192458,1,0,0:0:0:0:
198,198,192617,2,0,L|331:232,1,105
348,224,192936,2,0,P|378:171|372:148,1,70,8|0,0:0|0:0,0:0:0:0:
346,71,193255,6,0,L|263:23,2,70,0|0|8,0:0|0:0|0:0,0:0:0:0:
349,224,193734,2,0,P|301:283|225:301,1,140,0|8,0:0|0:0,0:0:0:0:
50,258,194372,2,0,P|40:195|91:125,1,140,8|0,0:0|0:0,0:0:0:0:
159,76,194851,1,8,0:0:0:0:
174,173,195011,1,0,0:0:0:0:
262,132,195170,2,0,L|303:66,2,70,0|0|8,0:0|0:0|0:0,0:0:0:0:
313,215,195649,5,0,0:0:0:0:
313,215,195809,2,0,L|256:278,1,70
178,293,196128,2,0,P|120:308|70:283,1,105,8|0,0:0|0:0,0:0:0:0:
56,252,196447,2,0,L|64:162,1,70
67,91,196766,2,0,P|115:70|206:106,1,140,8|0,0:0|0:0,0:0:0:0:
168,181,197245,1,0,0:0:0:0:
266,145,197404,6,0,L|414:119,1,140,8|0,0:0|0:0,0:0:0:0:
375,207,197883,1,0,0:0:0:0:
460,236,198043,2,0,P|464:280|444:308,1,70,8|0,0:0|0:0,0:0:0:0:
367,317,198362,2,0,P|317:325|222:309,1,140,0|8,0:0|0:0,0:0:0:0:
207,223,198841,1,0,0:0:0:0:
117,238,199000,2,0,L|47:168,1,70
115,44,199319,1,8,0:0:0:0:
158,127,199479,6,0,L|313:109,1,140
359,44,199958,2,0,P|387:93|346:181,2,140,8|0|8,0:0|0:0|0:0,0:0:0:0:
268,44,200755,1,0,0:0:0:0:
188,88,200915,2,0,P|168:151|203:225,1,140,0|8,0:0|0:0,0:0:0:0:
276,256,201394,1,0,0:0:0:0:
358,217,201553,2,0,L|312:148,1,70
276,256,202032,6,0,P|217:310|146:306,1,140,8|0,0:0|0:0,0:0:0:0:
78,270,202511,1,8,0:0:0:0:
42,186,202670,1,8,0:0:0:0:
104,119,202830,2,0,L|42:55,2,70,0|0|8,0:0|0:0|0:0,0:0:0:0:
155,194,203309,1,0,0:0:0:0:
208,121,203468,2,0,L|346:148,1,140,8|0,0:0|0:0,0:0:0:0:
378,232,203947,2,8,L|251:296,1,140
71,279,204585,6,0,P|44:229|67:162,1,105,8|0,0:0|0:0,0:0:0:0:
80,148,204904,2,0,L|155:179,1,70,0|8,0:0|0:0,0:0:0:0:
219,121,205224,1,0,0:0:0:0:
252,205,205383,2,0,P|313:188|319:104,1,140,0|8,0:0|0:0,0:0:0:0:
413,149,205862,6,0,L|461:265,1,105
428,284,206181,1,0,0:0:0:0:
343,318,206341,2,0,P|280:337|194:300,1,140,8|0,0:0|0:0,0:0:0:0:
135,266,206819,1,0,0:0:0:0:
118,176,206979,2,0,L|176:96,1,70,8|0,0:0|0:0,0:0:0:0:
231,63,207298,1,0,0:0:0:0:
286,135,207458,1,12,0:0:0:0:
383,234,208096,5,0,0:0:0:0:
383,234,208176,1,0,0:0:0:0:
383,234,208255,1,0,0:0:0:0:
383,234,208575,5,0,0:0:0:0:
301,273,208734,1,0,0:0:0:0:
209,268,208894,2,0,P|146:258|122:239,1,70
141,83,209213,1,0,0:0:0:0:
196,154,209372,1,0,0:0:0:0:
105,160,209532,2,0,P|41:172|29:193,1,70
208,269,209851,5,0,0:0:0:0:
265,197,210011,1,0,0:0:0:0:
298,112,210170,2,0,P|358:121|384:137,1,70
381,215,210490,2,0,P|425:216|456:201,2,70
329,289,210968,1,0,0:0:0:0:
249,334,211128,6,0,P|196:346|104:319,1,140
70,245,211607,1,0,0:0:0:0:
111,164,211766,2,0,P|130:134|173:124,1,70
270,121,212085,2,0,P|257:153|233:178,1,70
337,59,212404,1,0,0:0:0:0:
337,59,212564,1,0,0:0:0:0:
395,128,212724,2,0,L|412:207,1,70
372,279,213043,6,0,P|428:290|456:279,2,70
281,281,213521,1,0,0:0:0:0:
281,281,213681,2,0,P|228:299|129:278,1,140
82,221,214160,1,0,0:0:0:0:
75,130,214319,2,0,P|93:93|133:79,1,70
173,152,214638,2,0,L|249:187,1,70
273,97,214958,5,0,0:0:0:0:
273,97,215117,1,0,0:0:0:0:
360,69,215277,1,0,0:0:0:0:
360,69,215436,1,0,0:0:0:0:
404,148,215596,2,0,L|372:231,1,70
412,298,215915,2,0,P|370:303|332:288,1,70
257,265,216234,6,0,L|222:231,2,35
79,308,216713,2,0,P|56:256|91:173,1,140
82,180,217192,1,2,0:0:0:0:
69,91,217351,2,0,L|216:108,1,140
208,107,217830,1,2,0:0:0:0:
263,179,217990,5,4,0:0:0:0:
280,360,218309,1,4,0:0:0:0:
256,192,218628,12,2,221341,0:0:0:0:
