osu file format v12

[General]
AudioFilename: daisukiii.mp3
AudioLeadIn: 0
PreviewTime: 55264
Countdown: 0
SampleSet: Soft
StackLeniency: 0.7
Mode: 3
LetterboxInBreaks: 0
SpecialStyle: 0
WidescreenStoryboard: 1

[Editor]
Bookmarks: 49727,87882
DistanceSpacing: 1
BeatDivisor: 4
GridSize: 4

[Metadata]
Title:Links (TV Size)
TitleUnicode:リンクス (TV Size)
Artist:Misawa Sachika
ArtistUnicode:三澤紗千香
Creator:17VA
Version:MX
Source:Toaru Kagaku no Railgun S
Tags:simple_star Hanyuu season 2 ending misaka mikoto shirai kuroko uiharu kazari saten ruiko とある科学の超電磁砲s
BeatmapID:320510
BeatmapSetID:120737

[Difficulty]
HPDrainRate:8
CircleSize:7
OverallDifficulty:8
ApproachRate:5
SliderMultiplier:1.4
SliderTickRate:1

[Events]
//Background and Video events
Video,0,"misaka.flv"
0,0,"bg.jpg",0,0
//Break Periods
//Storyboard Layer 0 (Background)
//Storyboard Layer 1 (Fail)
//Storyboard Layer 2 (Pass)
//Storyboard Layer 3 (Foreground)
//Storyboard Sound Samples
//Background Colour Transformations
3,100,163,162,255

[TimingPoints]
-1111,402.684563758389,4,2,1,70,1,0
23754,-100,4,2,1,45,0,0
24358,-100,4,2,1,70,0,0
52144,-100,4,2,1,45,0,0
55264,-100,4,2,1,70,0,1
66540,-100,4,2,1,45,0,1
67043,-100,4,2,1,70,0,1
67647,-100,4,2,1,45,0,1
68150,-100,4,2,1,70,0,1
79425,-100,4,2,1,45,0,1
79929,-100,4,2,1,70,0,1
80029,-100,4,2,1,70,0,1
80533,-100,4,2,1,45,0,1
81036,-125,4,2,1,60,0,0
84157,-125,4,2,1,70,0,0
84660,-111.111111111111,4,2,1,70,0,0
84862,-100,4,2,1,70,0,0
85063,-90.9090909090909,4,2,1,70,0,0
85264,-83.3333333333333,4,2,1,70,0,0
85466,-74.0740740740741,4,2,1,70,0,0
85667,-66.6666666666667,4,2,1,70,0,0
85868,-158.730158730159,4,2,1,70,0,0
86271,-142.857142857143,4,2,1,70,0,0
86372,-128.205128205128,4,2,1,70,0,0
86472,-114.942528735632,4,2,1,70,0,0
86573,-102.040816326531,4,2,1,70,0,0
86674,-100,4,2,1,70,0,0
92311,-100,4,2,1,45,0,0
93922,-100,4,2,1,70,0,0

[HitObjects]
329,192,6540,1,8,0:0:0:0:
182,192,6640,1,2,0:0:0:0:
329,192,6741,1,8,0:0:0:0:
182,192,6842,1,2,0:0:0:0:
109,192,6942,128,0,7345:0:0:0:0:
402,192,6942,128,0,7748:0:0:0:0:
36,192,6942,1,4,0:0:0:0:
256,192,6942,1,0,0:0:0:0:
329,192,7144,1,0,0:0:0:0:
182,192,7345,128,0,7546:0:0:0:0:
475,192,7345,1,0,0:0:0:0:
256,192,7345,1,8,0:0:0:0:
329,192,7546,1,0,0:0:0:0:
36,192,7546,128,0,8553:0:0:0:0:
109,192,7748,1,0,0:0:0:0:
475,192,7748,1,2,0:0:0:0:
329,192,7949,1,2,0:0:0:0:
182,192,8150,1,8,0:0:0:0:
109,192,8150,1,0,0:0:0:0:
256,192,8150,128,0,8553:0:0:0:0:
329,192,8251,128,0,8553:0:0:0:0:
402,192,8352,128,0,8553:0:0:0:0:
475,192,8452,128,0,8553:0:0:0:0:
109,192,8553,128,0,9358:0:0:0:0:
182,192,8553,128,2,8654:0:0:0:0:
329,192,8754,128,0,8855:0:0:0:0:
475,192,8956,128,0,9761:0:0:0:0:
36,192,8956,1,8,0:0:0:0:
256,192,8956,128,0,9056:0:0:0:0:
402,192,9157,128,0,9258:0:0:0:0:
256,192,9358,1,2,0:0:0:0:
182,192,9358,128,0,9459:0:0:0:0:
36,192,9358,128,0,10164:0:0:0:0:
329,192,9560,128,2,9660:0:0:0:0:
182,192,9761,1,8,0:0:0:0:
402,192,9761,128,0,10164:0:0:0:0:
109,192,9761,128,0,9862:0:0:0:0:
256,192,9962,128,0,10063:0:0:0:0:
475,192,10164,1,0,0:0:0:0:
182,192,10164,1,2,0:0:0:0:
109,192,10164,128,0,10566:0:0:0:0:
329,192,10365,1,2,0:0:0:0:
402,192,10566,128,0,10969:0:0:0:0:
182,192,10566,128,0,10768:0:0:0:0:
36,192,10566,1,8,0:0:0:0:
36,192,10768,128,0,11774:0:0:0:0:
329,192,10768,1,0,0:0:0:0:
475,192,10969,1,0,0:0:0:0:
182,192,10969,1,2,0:0:0:0:
329,192,11170,1,2,0:0:0:0:
182,192,11372,1,8,0:0:0:0:
109,192,11372,1,4,0:0:0:0:
256,192,11372,128,0,11774:0:0:0:0:
329,192,11472,128,0,11774:0:0:0:0:
402,192,11573,128,0,11774:0:0:0:0:
475,192,11674,128,0,11774:0:0:0:0:
182,192,11774,128,0,11976:0:0:0:0:
109,192,11774,1,2,0:0:0:0:
36,192,11976,128,0,12177:0:0:0:0:
402,192,11976,1,0,0:0:0:0:
475,192,12177,1,8,0:0:0:0:
329,192,12177,128,0,12378:0:0:0:0:
182,192,12177,1,0,0:0:0:0:
256,192,12378,128,0,13385:0:0:0:0:
109,192,12378,1,0,0:0:0:0:
36,192,12580,5,8,0:0:0:0:
475,192,12580,128,0,12982:0:0:0:0:
182,192,12580,1,0,0:0:0:0:
402,192,12781,1,8,0:0:0:0:
36,192,12982,1,8,0:0:0:0:
329,192,12982,1,0,0:0:0:0:
109,192,13083,1,8,0:0:0:0:
475,192,13184,1,2,0:0:0:0:
402,192,13184,1,0,0:0:0:0:
182,192,13184,1,8,0:0:0:0:
109,192,13284,1,8,0:0:0:0:
329,192,13385,1,2,0:0:0:0:
36,192,13385,1,8,0:0:0:0:
475,192,13385,1,4,0:0:0:0:
182,192,13586,5,0,0:0:0:0:
329,192,13788,1,2,0:0:0:0:
475,192,13788,1,0,0:0:0:0:
182,192,13989,1,0,0:0:0:0:
329,192,14191,1,2,0:0:0:0:
475,192,14191,1,0,0:0:0:0:
182,192,14392,1,0,0:0:0:0:
329,192,14593,1,2,0:0:0:0:
475,192,14593,1,0,0:0:0:0:
182,192,14795,1,0,0:0:0:0:
36,192,14996,1,0,0:0:0:0:
256,192,14996,1,2,0:0:0:0:
475,192,15197,1,0,0:0:0:0:
36,192,15399,1,0,0:0:0:0:
256,192,15399,1,2,0:0:0:0:
475,192,15600,1,0,0:0:0:0:
36,192,15801,1,0,0:0:0:0:
256,192,15801,1,2,0:0:0:0:
475,192,16003,1,0,0:0:0:0:
36,192,16204,1,0,0:0:0:0:
256,192,16204,1,2,0:0:0:0:
182,192,16405,1,0,0:0:0:0:
329,192,16506,1,0,0:0:0:0:
109,192,16607,1,2,0:0:0:0:
402,192,16607,1,0,0:0:0:0:
182,192,16808,1,0,0:0:0:0:
402,192,17009,1,0,0:0:0:0:
109,192,17009,1,2,0:0:0:0:
182,192,17211,1,0,0:0:0:0:
109,192,17412,1,2,0:0:0:0:
402,192,17412,1,0,0:0:0:0:
182,192,17613,1,0,0:0:0:0:
109,192,17815,1,2,0:0:0:0:
402,192,17815,1,0,0:0:0:0:
182,192,18016,1,0,0:0:0:0:
402,192,18217,1,2,0:0:0:0:
36,192,18217,1,0,0:0:0:0:
329,192,18419,1,0,0:0:0:0:
402,192,18620,1,2,0:0:0:0:
109,192,18620,1,0,0:0:0:0:
256,192,18821,1,0,0:0:0:0:
402,192,19023,1,2,0:0:0:0:
36,192,19023,1,0,0:0:0:0:
182,192,19224,1,0,0:0:0:0:
402,192,19425,1,8,0:0:0:0:
109,192,19425,1,2,0:0:0:0:
256,192,19425,1,0,0:0:0:0:
329,192,19627,1,0,0:0:0:0:
36,192,19828,1,0,0:0:0:0:
402,192,19828,1,2,0:0:0:0:
109,192,20029,1,0,0:0:0:0:
182,192,20231,1,0,0:0:0:0:
402,192,20231,1,2,0:0:0:0:
256,192,20432,1,0,0:0:0:0:
475,192,20633,1,2,0:0:0:0:
109,192,20633,1,2,0:0:0:0:
402,192,20835,1,0,0:0:0:0:
329,192,21036,1,8,0:0:0:0:
36,192,21036,1,2,0:0:0:0:
182,192,21036,1,0,0:0:0:0:
256,192,21237,1,0,0:0:0:0:
109,192,21439,1,2,0:0:0:0:
475,192,21439,1,0,0:0:0:0:
256,192,21640,1,0,0:0:0:0:
182,192,21842,1,2,0:0:0:0:
36,192,21842,1,0,0:0:0:0:
402,192,22043,1,0,0:0:0:0:
182,192,22244,1,2,0:0:0:0:
475,192,22244,1,0,0:0:0:0:
329,192,22446,1,0,0:0:0:0:
109,192,22647,1,0,0:0:0:0:
256,192,22647,1,2,0:0:0:0:
475,192,22647,1,8,0:0:0:0:
329,192,22848,1,0,0:0:0:0:
256,192,23050,1,0,0:0:0:0:
402,192,23050,1,0,0:0:0:0:
36,192,23050,1,2,0:0:0:0:
109,192,23251,1,0,0:0:0:0:
182,192,23452,1,2,0:0:0:0:
329,192,23452,1,0,0:0:0:0:
256,192,23654,1,0,0:0:0:0:
36,192,23855,1,8,0:0:0:0:
475,192,23855,1,0,0:0:0:0:
182,192,23956,1,8,0:0:0:0:
36,192,24056,1,8,0:0:0:0:
329,192,24056,1,0,0:0:0:0:
182,192,24157,1,8,0:0:0:0:
36,192,24258,1,8,0:0:0:0:
475,192,24258,1,0,0:0:0:0:
109,192,24459,1,2,0:0:0:0:
402,192,24459,1,0,0:0:0:0:
36,192,24660,1,4,0:0:0:0:
182,192,24660,1,8,0:0:0:0:
329,192,24660,1,8,0:0:0:0:
475,192,24660,1,2,0:0:0:0:
402,192,24862,1,2,0:0:0:0:
109,192,24862,1,2,0:0:0:0:
182,192,25063,1,2,0:0:0:0:
329,192,25063,1,2,0:0:0:0:
256,192,25264,1,8,0:0:0:0:
36,192,25264,1,2,0:0:0:0:
475,192,25264,1,4,0:0:0:0:
256,192,25667,1,2,0:0:0:0:
475,192,25667,1,0,0:0:0:0:
329,192,25868,1,8,0:0:0:0:
109,192,25868,128,0,26271:0:0:0:0:
402,192,26070,1,0,0:0:0:0:
475,192,26271,1,2,0:0:0:0:
329,192,26271,128,0,27882:0:0:0:0:
36,192,26271,1,0,0:0:0:0:
256,192,26271,1,4,0:0:0:0:
182,192,26472,1,0,0:0:0:0:
36,192,26674,1,0,0:0:0:0:
402,192,26674,1,2,0:0:0:0:
182,192,26875,1,0,0:0:0:0:
36,192,27076,1,0,0:0:0:0:
402,192,27076,1,2,0:0:0:0:
182,192,27278,1,0,0:0:0:0:
36,192,27479,1,0,0:0:0:0:
402,192,27479,1,2,0:0:0:0:
182,192,27680,1,0,0:0:0:0:
475,192,27882,1,2,0:0:0:0:
109,192,27882,128,0,29493:0:0:0:0:
256,192,27882,1,0,0:0:0:0:
36,192,27882,1,0,0:0:0:0:
402,192,28083,1,0,0:0:0:0:
36,192,28284,1,0,0:0:0:0:
182,192,28284,1,2,0:0:0:0:
402,192,28486,128,0,29493:0:0:0:0:
256,192,28486,1,0,0:0:0:0:
329,192,28687,1,2,0:0:0:0:
475,192,28687,1,0,0:0:0:0:
256,192,28888,1,0,0:0:0:0:
182,192,29090,1,2,0:0:0:0:
36,192,29090,1,0,0:0:0:0:
256,192,29291,1,0,0:0:0:0:
475,192,29493,1,0,0:0:0:0:
182,192,29493,1,2,0:0:0:0:
36,192,29493,1,0,0:0:0:0:
329,192,29493,128,0,30298:0:0:0:0:
475,192,29895,1,0,0:0:0:0:
109,192,29895,1,0,0:0:0:0:
256,192,29895,1,2,0:0:0:0:
36,192,30298,1,0,0:0:0:0:
402,192,30298,128,0,31103:0:0:0:0:
182,192,30298,1,2,0:0:0:0:
475,192,30298,1,0,0:0:0:0:
256,192,30701,1,2,0:0:0:0:
109,192,30701,1,0,0:0:0:0:
475,192,30701,1,0,0:0:0:0:
36,192,31103,128,0,32714:0:0:0:0:
475,192,31103,1,0,0:0:0:0:
329,192,31103,1,2,0:0:0:0:
182,192,31103,1,0,0:0:0:0:
109,192,31305,1,0,0:0:0:0:
475,192,31506,1,0,0:0:0:0:
256,192,31506,1,2,0:0:0:0:
182,192,31707,1,0,0:0:0:0:
329,192,31707,128,0,32714:0:0:0:0:
402,192,31909,1,2,0:0:0:0:
109,192,31909,1,0,0:0:0:0:
182,192,32110,1,0,0:0:0:0:
475,192,32311,1,10,0:0:0:0:
256,192,32311,1,0,0:0:0:0:
109,192,32311,1,0,0:0:0:0:
182,192,32513,1,0,0:0:0:0:
402,192,32714,1,2,0:0:0:0:
109,192,32714,1,4,0:0:0:0:
475,192,32714,128,0,34325:0:0:0:0:
256,192,32915,1,0,0:0:0:0:
402,192,33117,1,2,0:0:0:0:
109,192,33117,1,0,0:0:0:0:
256,192,33318,1,0,0:0:0:0:
36,192,33318,128,0,34325:0:0:0:0:
109,192,33519,1,2,0:0:0:0:
402,192,33519,1,0,0:0:0:0:
182,192,33721,1,0,0:0:0:0:
256,192,33922,1,2,0:0:0:0:
402,192,33922,1,8,0:0:0:0:
109,192,33922,1,0,0:0:0:0:
329,192,34123,1,0,0:0:0:0:
182,192,34325,1,2,0:0:0:0:
402,192,34325,1,0,0:0:0:0:
109,192,34325,128,0,34929:0:0:0:0:
329,192,34526,1,0,0:0:0:0:
182,192,34727,1,2,0:0:0:0:
475,192,34727,1,0,0:0:0:0:
329,192,34929,1,0,0:0:0:0:
402,192,34929,128,0,35533:0:0:0:0:
182,192,35130,1,2,0:0:0:0:
36,192,35130,1,0,0:0:0:0:
329,192,35331,1,0,0:0:0:0:
475,192,35533,1,2,0:0:0:0:
256,192,35533,1,8,0:0:0:0:
109,192,35533,1,0,0:0:0:0:
182,192,35734,1,0,0:0:0:0:
36,192,35935,1,0,0:0:0:0:
402,192,35935,1,2,0:0:0:0:
475,192,35935,128,0,36741:0:0:0:0:
256,192,35935,1,0,0:0:0:0:
182,192,36137,1,0,0:0:0:0:
182,192,36338,128,0,36741:0:0:0:0:
109,192,36338,1,0,0:0:0:0:
402,192,36338,1,2,0:0:0:0:
329,192,36540,1,0,0:0:0:0:
256,192,36741,1,0,0:0:0:0:
109,192,36741,1,2,0:0:0:0:
402,192,36741,1,0,0:0:0:0:
36,192,36741,128,0,37546:0:0:0:0:
329,192,36942,1,0,0:0:0:0:
329,192,37144,128,0,37546:0:0:0:0:
109,192,37144,1,2,0:0:0:0:
256,192,37144,1,4,0:0:0:0:
475,192,37144,1,8,0:0:0:0:
182,192,37345,1,0,0:0:0:0:
256,192,37546,128,0,39157:0:0:0:0:
109,192,37546,1,2,0:0:0:0:
402,192,37546,1,0,0:0:0:0:
109,192,37748,1,0,0:0:0:0:
402,192,37748,1,0,0:0:0:0:
36,192,37949,1,0,0:0:0:0:
475,192,37949,1,0,0:0:0:0:
182,192,38150,1,0,0:0:0:0:
329,192,38150,1,8,0:0:0:0:
109,192,38251,1,0,0:0:0:0:
402,192,38251,1,8,0:0:0:0:
36,192,38352,1,0,0:0:0:0:
475,192,38352,1,8,0:0:0:0:
109,192,38553,1,0,0:0:0:0:
402,192,38553,1,8,0:0:0:0:
36,192,38754,1,0,0:0:0:0:
475,192,38754,1,8,0:0:0:0:
329,192,38956,1,2,0:0:0:0:
182,192,38956,1,0,0:0:0:0:
36,192,39157,128,0,40768:0:0:0:0:
475,192,39157,1,6,0:0:0:0:
402,192,39560,1,0,0:0:0:0:
182,192,39761,1,0,0:0:0:0:
329,192,39962,128,0,40768:0:0:0:0:
182,192,40365,1,8,0:0:0:0:
256,192,40365,1,0,0:0:0:0:
402,192,40768,128,0,42378:0:0:0:0:
475,192,40768,1,2,0:0:0:0:
256,192,41170,1,0,0:0:0:0:
36,192,41372,1,0,0:0:0:0:
109,192,41573,128,0,42378:0:0:0:0:
256,192,41976,1,8,0:0:0:0:
329,192,41976,1,0,0:0:0:0:
182,192,42378,128,0,43989:0:0:0:0:
36,192,42378,1,2,0:0:0:0:
329,192,42781,1,0,0:0:0:0:
109,192,42982,1,0,0:0:0:0:
475,192,43184,128,0,43989:0:0:0:0:
329,192,43586,1,0,0:0:0:0:
256,192,43586,1,8,0:0:0:0:
36,192,43989,128,0,45600:0:0:0:0:
402,192,43989,1,2,0:0:0:0:
109,192,43989,1,0,0:0:0:0:
329,192,44191,1,0,0:0:0:0:
256,192,44392,128,0,44795:0:0:0:0:
475,192,44392,1,0,0:0:0:0:
402,192,44593,1,0,0:0:0:0:
329,192,44795,128,0,45197:0:0:0:0:
109,192,44795,1,0,0:0:0:0:
182,192,44996,1,0,0:0:0:0:
402,192,45197,128,0,45600:0:0:0:0:
109,192,45197,1,0,0:0:0:0:
256,192,45197,1,8,0:0:0:0:
256,192,45399,1,0,0:0:0:0:
475,192,45600,128,0,47211:0:0:0:0:
182,192,45600,1,2,0:0:0:0:
329,192,45600,1,4,0:0:0:0:
109,192,46003,1,0,0:0:0:0:
256,192,46204,1,0,0:0:0:0:
109,192,46405,128,0,47211:0:0:0:0:
256,192,46808,1,0,0:0:0:0:
182,192,46808,1,8,0:0:0:0:
256,192,47211,1,2,0:0:0:0:
402,192,47211,128,0,47412:0:0:0:0:
36,192,47211,128,0,48821:0:0:0:0:
182,192,47412,128,0,47613:0:0:0:0:
329,192,47412,1,0,0:0:0:0:
256,192,47613,128,0,47815:0:0:0:0:
109,192,47613,1,0,0:0:0:0:
182,192,47815,1,0,0:0:0:0:
402,192,47815,1,0,0:0:0:0:
475,192,47815,128,0,48821:0:0:0:0:
256,192,48016,1,0,0:0:0:0:
109,192,48217,128,0,48821:0:0:0:0:
182,192,48217,1,0,0:0:0:0:
402,192,48419,128,0,48821:0:0:0:0:
329,192,48419,1,8,0:0:0:0:
256,192,48821,1,0,0:0:0:0:
182,192,48821,1,0,0:0:0:0:
329,192,48821,1,0,0:0:0:0:
402,192,49023,1,0,0:0:0:0:
475,192,49224,1,0,0:0:0:0:
256,192,49224,1,0,0:0:0:0:
329,192,49425,1,0,0:0:0:0:
36,192,49425,128,0,49627:0:0:0:0:
182,192,49627,1,2,0:0:0:0:
402,192,49627,1,0,0:0:0:0:
256,192,49828,1,0,0:0:0:0:
402,192,50029,1,0,0:0:0:0:
109,192,50029,1,2,0:0:0:0:
475,192,50029,128,0,50432:0:0:0:0:
182,192,50230,1,0,0:0:0:0:
329,192,50432,1,0,0:0:0:0:
36,192,50432,128,0,50835:0:0:0:0:
109,192,50432,1,2,0:0:0:0:
475,192,50633,1,0,0:0:0:0:
256,192,50633,128,0,51036:0:0:0:0:
182,192,50835,128,0,51237:0:0:0:0:
109,192,50835,1,2,0:0:0:0:
329,192,50835,1,0,0:0:0:0:
475,192,51036,5,0,0:0:0:0:
402,192,51036,128,0,51439:0:0:0:0:
109,192,51237,1,2,0:0:0:0:
329,192,51237,1,0,0:0:0:0:
256,192,51439,1,0,0:0:0:0:
36,192,51439,128,0,51842:0:0:0:0:
109,192,51640,1,0,0:0:0:0:
402,192,51640,1,2,0:0:0:0:
256,192,51842,1,0,0:0:0:0:
36,192,52043,5,4,0:0:0:0:
182,192,52043,1,0,0:0:0:0:
329,192,52043,1,8,0:0:0:0:
475,192,52043,1,2,0:0:0:0:
256,192,52244,1,8,0:0:0:0:
402,192,52244,1,0,0:0:0:0:
109,192,52345,1,8,0:0:0:0:
329,192,52446,1,8,0:0:0:0:
475,192,52446,1,0,0:0:0:0:
182,192,52546,1,8,0:0:0:0:
329,192,52647,1,8,0:0:0:0:
36,192,52647,1,0,0:0:0:0:
182,192,52748,1,8,0:0:0:0:
475,192,52848,1,0,0:0:0:0:
329,192,52848,1,8,0:0:0:0:
182,192,52949,1,8,0:0:0:0:
36,192,52949,1,0,0:0:0:0:
475,192,53050,1,0,0:0:0:0:
329,192,53050,1,8,0:0:0:0:
182,192,53150,1,8,0:0:0:0:
36,192,53150,1,0,0:0:0:0:
329,192,53251,1,8,0:0:0:0:
475,192,53251,1,0,0:0:0:0:
36,192,53352,1,0,0:0:0:0:
182,192,53352,1,8,0:0:0:0:
475,192,53452,1,0,0:0:0:0:
329,192,53452,1,8,0:0:0:0:
36,192,53553,1,0,0:0:0:0:
182,192,53553,1,8,0:0:0:0:
402,192,53654,1,0,0:0:0:0:
109,192,53654,1,0,0:0:0:0:
256,192,53654,1,2,0:0:0:0:
109,192,54660,1,0,0:0:0:0:
402,192,54660,1,0,0:0:0:0:
256,192,54660,1,2,0:0:0:0:
36,192,54862,1,2,0:0:0:0:
182,192,54862,1,0,0:0:0:0:
475,192,54862,1,2,0:0:0:0:
109,192,54862,128,0,55264:0:0:0:0:
402,192,54862,128,0,55264:0:0:0:0:
329,192,54862,1,0,0:0:0:0:
36,192,55264,128,0,55667:0:0:0:0:
256,192,55264,1,2,0:0:0:0:
475,192,55264,1,4,0:0:0:0:
329,192,55466,1,0,0:0:0:0:
256,192,55667,128,0,56070:0:0:0:0:
109,192,55667,1,0,0:0:0:0:
402,192,55667,1,8,0:0:0:0:
182,192,55868,1,0,0:0:0:0:
329,192,56070,128,0,56472:0:0:0:0:
36,192,56070,1,2,0:0:0:0:
475,192,56070,1,0,0:0:0:0:
109,192,56271,1,0,0:0:0:0:
475,192,56472,128,0,56875:0:0:0:0:
182,192,56472,1,8,0:0:0:0:
402,192,56472,1,0,0:0:0:0:
109,192,56674,1,0,0:0:0:0:
182,192,56875,128,0,57278:0:0:0:0:
36,192,56875,1,0,0:0:0:0:
256,192,56875,1,0,0:0:0:0:
402,192,56875,1,2,0:0:0:0:
329,192,57076,1,2,0:0:0:0:
402,192,57278,1,8,0:0:0:0:
36,192,57278,1,0,0:0:0:0:
256,192,57278,1,0,0:0:0:0:
475,192,57278,1,0,0:0:0:0:
475,192,57580,1,0,0:0:0:0:
36,192,57680,1,0,0:0:0:0:
329,192,57680,1,2,0:0:0:0:
182,192,57882,1,0,0:0:0:0:
402,192,57882,1,2,0:0:0:0:
256,192,58083,1,0,0:0:0:0:
475,192,58083,1,8,0:0:0:0:
182,192,58284,1,0,0:0:0:0:
402,192,58284,1,0,0:0:0:0:
329,192,58486,128,0,58888:0:0:0:0:
36,192,58486,1,2,0:0:0:0:
256,192,58486,1,0,0:0:0:0:
109,192,58687,1,2,0:0:0:0:
256,192,58888,128,0,59291:0:0:0:0:
36,192,58888,1,0,0:0:0:0:
475,192,58888,1,8,0:0:0:0:
402,192,59090,1,0,0:0:0:0:
182,192,59291,128,0,59694:0:0:0:0:
109,192,59291,1,0,0:0:0:0:
329,192,59291,1,2,0:0:0:0:
402,192,59493,1,2,0:0:0:0:
36,192,59694,128,0,60097:0:0:0:0:
256,192,59694,1,0,0:0:0:0:
475,192,59694,1,8,0:0:0:0:
329,192,59895,1,0,0:0:0:0:
256,192,60097,128,0,60499:0:0:0:0:
109,192,60097,1,0,0:0:0:0:
402,192,60097,1,2,0:0:0:0:
475,192,60097,1,0,0:0:0:0:
329,192,60298,1,2,0:0:0:0:
36,192,60499,1,0,0:0:0:0:
182,192,60499,1,0,0:0:0:0:
475,192,60499,1,0,0:0:0:0:
402,192,60499,1,8,0:0:0:0:
36,192,60801,1,0,0:0:0:0:
182,192,60902,1,0,0:0:0:0:
475,192,60902,1,2,0:0:0:0:
109,192,61103,1,0,0:0:0:0:
329,192,61103,1,2,0:0:0:0:
36,192,61305,1,0,0:0:0:0:
256,192,61305,1,8,0:0:0:0:
109,192,61506,1,0,0:0:0:0:
329,192,61506,1,0,0:0:0:0:
36,192,61707,128,0,63318:0:0:0:0:
182,192,61707,1,4,0:0:0:0:
402,192,61707,1,2,0:0:0:0:
475,192,61707,1,0,0:0:0:0:
256,192,61909,1,0,0:0:0:0:
182,192,62110,1,0,0:0:0:0:
402,192,62110,1,8,0:0:0:0:
256,192,62311,1,0,0:0:0:0:
475,192,62513,1,0,0:0:0:0:
329,192,62513,1,0,0:0:0:0:
109,192,62513,1,0,0:0:0:0:
402,192,62714,1,2,0:0:0:0:
329,192,62915,1,8,0:0:0:0:
182,192,62915,1,0,0:0:0:0:
402,192,63117,1,0,0:0:0:0:
109,192,63318,1,0,0:0:0:0:
329,192,63318,1,0,0:0:0:0:
475,192,63318,128,0,64929:0:0:0:0:
256,192,63318,1,2,0:0:0:0:
182,192,63519,1,2,0:0:0:0:
256,192,63721,1,8,0:0:0:0:
402,192,63721,1,0,0:0:0:0:
109,192,63922,1,0,0:0:0:0:
36,192,64023,1,0,0:0:0:0:
329,192,64123,1,0,0:0:0:0:
182,192,64123,1,2,0:0:0:0:
36,192,64325,1,2,0:0:0:0:
402,192,64526,1,0,0:0:0:0:
256,192,64526,1,8,0:0:0:0:
109,192,64727,1,0,0:0:0:0:
182,192,64828,1,0,0:0:0:0:
36,192,64929,1,0,0:0:0:0:
256,192,64929,1,0,0:0:0:0:
329,192,64929,1,0,0:0:0:0:
402,192,65130,1,2,0:0:0:0:
182,192,65331,1,0,0:0:0:0:
256,192,65331,1,0,0:0:0:0:
36,192,65331,1,0,0:0:0:0:
329,192,65533,1,0,0:0:0:0:
182,192,65633,1,8,0:0:0:0:
475,192,65734,1,0,0:0:0:0:
36,192,65734,1,2,0:0:0:0:
109,192,65835,1,0,0:0:0:0:
182,192,65935,1,2,0:0:0:0:
402,192,65935,1,0,0:0:0:0:
109,192,66036,1,0,0:0:0:0:
475,192,66137,1,0,0:0:0:0:
329,192,66137,1,0,0:0:0:0:
36,192,66137,1,8,0:0:0:0:
182,192,66338,1,2,0:0:0:0:
256,192,66439,1,0,0:0:0:0:
475,192,66540,1,8,0:0:0:0:
36,192,66540,1,0,0:0:0:0:
329,192,66540,1,0,0:0:0:0:
402,192,66640,1,8,0:0:0:0:
329,192,66741,1,8,0:0:0:0:
256,192,66842,1,8,0:0:0:0:
402,192,66942,1,2,0:0:0:0:
182,192,66942,1,8,0:0:0:0:
109,192,67144,1,2,0:0:0:0:
475,192,67144,1,0,0:0:0:0:
256,192,67144,1,0,0:0:0:0:
36,192,67546,1,0,0:0:0:0:
182,192,67546,1,0,0:0:0:0:
402,192,67546,1,0,0:0:0:0:
329,192,67748,1,0,0:0:0:0:
475,192,67748,1,0,0:0:0:0:
36,192,67748,1,8,0:0:0:0:
109,192,67848,1,8,0:0:0:0:
182,192,67949,1,8,0:0:0:0:
256,192,68050,1,8,0:0:0:0:
329,192,68150,1,2,0:0:0:0:
475,192,68150,1,0,0:0:0:0:
109,192,68150,128,0,69358:0:0:0:0:
36,192,68150,1,4,0:0:0:0:
402,192,68352,1,0,0:0:0:0:
182,192,68553,1,0,0:0:0:0:
36,192,68553,1,8,0:0:0:0:
256,192,68553,128,0,68956:0:0:0:0:
402,192,68754,1,0,0:0:0:0:
36,192,68956,1,0,0:0:0:0:
475,192,68956,128,0,69157:0:0:0:0:
329,192,68956,1,2,0:0:0:0:
402,192,69157,128,0,69358:0:0:0:0:
256,192,69157,1,2,0:0:0:0:
329,192,69358,128,0,69560:0:0:0:0:
182,192,69358,1,0,0:0:0:0:
36,192,69358,1,8,0:0:0:0:
256,192,69560,128,0,69761:0:0:0:0:
109,192,69560,1,0,0:0:0:0:
402,192,69761,128,0,70969:0:0:0:0:
475,192,69761,1,0,0:0:0:0:
182,192,69761,1,0,0:0:0:0:
36,192,69761,1,2,0:0:0:0:
109,192,69962,1,2,0:0:0:0:
475,192,70164,1,8,0:0:0:0:
329,192,70164,1,0,0:0:0:0:
256,192,70164,128,0,70566:0:0:0:0:
109,192,70365,1,0,0:0:0:0:
475,192,70566,1,0,0:0:0:0:
182,192,70566,1,2,0:0:0:0:
36,192,70566,128,0,70768:0:0:0:0:
109,192,70768,128,0,70969:0:0:0:0:
256,192,70768,1,2,0:0:0:0:
182,192,70969,128,0,71170:0:0:0:0:
475,192,70969,1,8,0:0:0:0:
329,192,70969,1,0,0:0:0:0:
256,192,71170,128,0,71372:0:0:0:0:
402,192,71170,1,0,0:0:0:0:
475,192,71372,128,0,72580:0:0:0:0:
36,192,71372,1,0,0:0:0:0:
109,192,71372,1,2,0:0:0:0:
329,192,71372,1,0,0:0:0:0:
182,192,71573,1,2,0:0:0:0:
36,192,71774,1,8,0:0:0:0:
329,192,71774,1,0,0:0:0:0:
256,192,71774,128,0,72177:0:0:0:0:
182,192,71976,1,0,0:0:0:0:
36,192,72177,1,2,0:0:0:0:
402,192,72177,128,0,72378:0:0:0:0:
329,192,72177,1,0,0:0:0:0:
182,192,72378,128,0,72580:0:0:0:0:
109,192,72378,1,2,0:0:0:0:
256,192,72580,128,0,72781:0:0:0:0:
36,192,72580,1,8,0:0:0:0:
329,192,72580,1,0,0:0:0:0:
402,192,72781,128,0,72982:0:0:0:0:
109,192,72781,1,0,0:0:0:0:
36,192,72982,1,2,0:0:0:0:
475,192,72982,1,0,0:0:0:0:
109,192,73184,1,2,0:0:0:0:
402,192,73184,1,0,0:0:0:0:
182,192,73385,1,8,0:0:0:0:
329,192,73385,1,0,0:0:0:0:
256,192,73586,128,0,73888:0:0:0:0:
36,192,73586,128,0,73888:0:0:0:0:
475,192,73586,128,0,73888:0:0:0:0:
109,192,73989,1,2,0:0:0:0:
402,192,73989,1,0,0:0:0:0:
329,192,74191,1,0,0:0:0:0:
182,192,74191,1,8,0:0:0:0:
256,192,74392,1,0,0:0:0:0:
109,192,74593,128,0,75399:0:0:0:0:
36,192,74593,1,2,0:0:0:0:
475,192,74593,1,4,0:0:0:0:
329,192,74593,1,0,0:0:0:0:
182,192,74795,1,0,0:0:0:0:
475,192,74996,1,0,0:0:0:0:
36,192,74996,1,8,0:0:0:0:
256,192,75197,128,0,75399:0:0:0:0:
182,192,75197,1,0,0:0:0:0:
475,192,75399,128,0,76204:0:0:0:0:
36,192,75399,1,0,0:0:0:0:
402,192,75399,1,2,0:0:0:0:
182,192,75600,1,2,0:0:0:0:
36,192,75801,1,8,0:0:0:0:
402,192,75801,1,0,0:0:0:0:
329,192,76003,128,0,76204:0:0:0:0:
182,192,76003,1,0,0:0:0:0:
36,192,76204,128,0,77009:0:0:0:0:
402,192,76204,1,0,0:0:0:0:
109,192,76204,1,2,0:0:0:0:
329,192,76405,1,2,0:0:0:0:
402,192,76607,1,0,0:0:0:0:
109,192,76607,1,8,0:0:0:0:
182,192,76808,128,0,77009:0:0:0:0:
329,192,76808,1,0,0:0:0:0:
402,192,77009,128,0,77815:0:0:0:0:
109,192,77009,1,0,0:0:0:0:
475,192,77009,1,2,0:0:0:0:
329,192,77211,1,2,0:0:0:0:
475,192,77412,1,0,0:0:0:0:
109,192,77412,1,8,0:0:0:0:
256,192,77613,128,0,77815:0:0:0:0:
329,192,77613,1,0,0:0:0:0:
475,192,77815,1,0,0:0:0:0:
36,192,77815,1,2,0:0:0:0:
182,192,77815,1,0,0:0:0:0:
329,192,78016,1,2,0:0:0:0:
256,192,78217,1,8,0:0:0:0:
36,192,78217,1,0,0:0:0:0:
475,192,78217,1,0,0:0:0:0:
182,192,78419,1,0,0:0:0:0:
329,192,78519,1,8,0:0:0:0:
475,192,78620,1,2,0:0:0:0:
36,192,78620,1,0,0:0:0:0:
402,192,78721,1,0,0:0:0:0:
109,192,78821,1,0,0:0:0:0:
329,192,78821,1,2,0:0:0:0:
402,192,78922,1,0,0:0:0:0:
36,192,79023,1,0,0:0:0:0:
182,192,79023,1,8,0:0:0:0:
475,192,79023,1,4,0:0:0:0:
329,192,79224,1,2,0:0:0:0:
256,192,79325,1,0,0:0:0:0:
36,192,79425,1,8,0:0:0:0:
475,192,79425,1,0,0:0:0:0:
182,192,79425,1,0,0:0:0:0:
109,192,79526,1,8,0:0:0:0:
182,192,79627,1,8,0:0:0:0:
256,192,79727,1,8,0:0:0:0:
329,192,79828,1,8,0:0:0:0:
109,192,79828,1,2,0:0:0:0:
256,192,80029,1,0,0:0:0:0:
402,192,80029,1,2,0:0:0:0:
475,192,80029,1,0,0:0:0:0:
36,192,80029,1,0,0:0:0:0:
182,192,80029,1,0,0:0:0:0:
109,192,80432,1,0,0:0:0:0:
182,192,80432,1,0,0:0:0:0:
329,192,80432,1,0,0:0:0:0:
402,192,80432,1,0,0:0:0:0:
475,192,80432,1,0,0:0:0:0:
36,192,80633,1,8,0:0:0:0:
475,192,80633,1,0,0:0:0:0:
329,192,80633,1,0,0:0:0:0:
182,192,80734,1,8,0:0:0:0:
36,192,80835,1,8,0:0:0:0:
329,192,80835,1,0,0:0:0:0:
475,192,80835,1,0,0:0:0:0:
182,192,80935,1,8,0:0:0:0:
475,192,81036,128,0,82647:0:0:0:0:
329,192,81036,128,0,81842:0:0:0:0:
36,192,81036,1,6,0:0:0:0:
256,192,81036,1,4,0:0:0:0:
109,192,81036,1,0,0:0:0:0:
36,192,81439,1,0,0:0:0:0:
109,192,81439,1,2,0:0:0:0:
182,192,81842,128,0,82647:0:0:0:0:
36,192,81842,1,2,0:0:0:0:
109,192,81842,1,0,0:0:0:0:
256,192,81842,1,8,0:0:0:0:
402,192,82244,128,0,82647:0:0:0:0:
36,192,82446,1,0,0:0:0:0:
109,192,82546,1,0,0:0:0:0:
256,192,82647,1,0,0:0:0:0:
329,192,82647,1,0,0:0:0:0:
36,192,82647,128,0,84258:0:0:0:0:
402,192,82848,1,0,0:0:0:0:
475,192,82848,1,0,0:0:0:0:
256,192,83050,1,0,0:0:0:0:
329,192,83050,1,2,0:0:0:0:
402,192,83251,1,0,0:0:0:0:
475,192,83251,1,0,0:0:0:0:
475,192,83452,128,0,84258:0:0:0:0:
109,192,83452,1,0,0:0:0:0:
182,192,83452,1,8,0:0:0:0:
329,192,83654,1,0,0:0:0:0:
402,192,83654,1,0,0:0:0:0:
109,192,83855,1,0,0:0:0:0:
182,192,83855,1,0,0:0:0:0:
329,192,84056,1,0,0:0:0:0:
402,192,84056,1,0,0:0:0:0:
109,192,84258,1,8,0:0:0:0:
256,192,84258,1,0,0:0:0:0:
402,192,84258,1,4,0:0:0:0:
109,192,84660,128,0,84811:0:0:0:0:
402,192,84660,128,0,84811:0:0:0:0:
402,192,84862,128,0,85013:0:0:0:0:
109,192,84862,128,0,85013:0:0:0:0:
109,192,85063,128,0,85214:0:0:0:0:
402,192,85063,128,0,85214:0:0:0:0:
402,192,85264,128,0,85415:0:0:0:0:
109,192,85264,128,0,85415:0:0:0:0:
109,192,85466,128,0,85617:0:0:0:0:
402,192,85466,128,0,85617:0:0:0:0:
402,192,85667,128,0,85818:0:0:0:0:
109,192,85667,128,0,85818:0:0:0:0:
36,192,85868,1,0,0:0:0:0:
182,192,85868,1,4,0:0:0:0:
329,192,85868,1,4,0:0:0:0:
475,192,85868,1,0,0:0:0:0:
109,192,85868,128,0,86674:0:0:0:0:
402,192,85868,128,0,86674:0:0:0:0:
256,192,86271,128,0,86674:0:0:0:0:
36,192,86674,1,0,0:0:0:0:
475,192,86674,1,8,0:0:0:0:
182,192,86774,1,0,0:0:0:0:
329,192,86774,1,0,0:0:0:0:
475,192,86875,1,0,0:0:0:0:
36,192,86875,1,0,0:0:0:0:
182,192,86976,1,0,0:0:0:0:
329,192,86976,1,0,0:0:0:0:
109,192,87076,1,0,0:0:0:0:
402,192,87076,1,0,0:0:0:0:
36,192,87177,1,0,0:0:0:0:
475,192,87177,1,0,0:0:0:0:
182,192,87278,1,0,0:0:0:0:
329,192,87278,1,0,0:0:0:0:
402,192,87378,1,0,0:0:0:0:
109,192,87378,1,0,0:0:0:0:
475,192,87479,1,2,0:0:0:0:
36,192,87479,128,0,89090:0:0:0:0:
329,192,87479,128,4,87882:0:0:0:0:
256,192,87680,1,2,0:0:0:0:
182,192,87882,128,0,88083:0:0:0:0:
109,192,87882,1,0,0:0:0:0:
475,192,87882,1,8,0:0:0:0:
402,192,88083,128,0,88687:0:0:0:0:
329,192,88083,1,0,0:0:0:0:
475,192,88284,1,0,0:0:0:0:
182,192,88284,1,2,0:0:0:0:
329,192,88486,1,2,0:0:0:0:
256,192,88687,128,0,89090:0:0:0:0:
109,192,88687,1,8,0:0:0:0:
182,192,88687,1,0,0:0:0:0:
329,192,88788,128,0,89090:0:0:0:0:
402,192,88888,128,0,89090:0:0:0:0:
475,192,88989,128,0,89090:0:0:0:0:
109,192,89090,128,0,89895:0:0:0:0:
182,192,89090,128,2,89191:0:0:0:0:
329,192,89291,128,2,89392:0:0:0:0:
475,192,89493,128,0,90298:0:0:0:0:
256,192,89493,128,0,89593:0:0:0:0:
36,192,89493,1,8,0:0:0:0:
402,192,89694,128,0,89795:0:0:0:0:
36,192,89895,128,0,90701:0:0:0:0:
182,192,89895,128,2,89996:0:0:0:0:
256,192,89895,1,0,0:0:0:0:
329,192,90097,128,2,90197:0:0:0:0:
402,192,90298,128,0,90701:0:0:0:0:
109,192,90298,128,0,90399:0:0:0:0:
182,192,90298,1,8,0:0:0:0:
256,192,90499,128,0,90600:0:0:0:0:
475,192,90701,128,0,92312:0:0:0:0:
329,192,90701,1,2,0:0:0:0:
182,192,90701,128,0,91103:0:0:0:0:
109,192,90902,1,2,0:0:0:0:
329,192,91103,128,0,91305:0:0:0:0:
36,192,91103,1,0,0:0:0:0:
402,192,91104,1,8,0:0:0:0:
109,192,91305,128,0,91909:0:0:0:0:
182,192,91305,1,0,0:0:0:0:
36,192,91506,1,0,0:0:0:0:
329,192,91506,1,2,0:0:0:0:
182,192,91707,1,2,0:0:0:0:
329,192,91909,1,0,0:0:0:0:
256,192,91909,128,0,92311:0:0:0:0:
402,192,91909,1,8,0:0:0:0:
182,192,92009,128,0,92311:0:0:0:0:
109,192,92110,128,0,92312:0:0:0:0:
36,192,92211,128,0,92311:0:0:0:0:
402,192,92311,1,8,0:0:0:0:
109,192,92412,1,8,0:0:0:0:
329,192,92513,1,8,0:0:0:0:
182,192,92613,1,8,0:0:0:0:
475,192,92714,1,8,0:0:0:0:
36,192,92815,1,8,0:0:0:0:
402,192,92915,1,8,0:0:0:0:
109,192,93016,1,8,0:0:0:0:
329,192,93117,1,8,0:0:0:0:
475,192,93117,1,0,0:0:0:0:
182,192,93217,1,8,0:0:0:0:
36,192,93217,1,0,0:0:0:0:
329,192,93318,1,8,0:0:0:0:
475,192,93318,1,0,0:0:0:0:
36,192,93419,1,0,0:0:0:0:
182,192,93419,1,8,0:0:0:0:
329,192,93519,1,8,0:0:0:0:
475,192,93519,1,2,0:0:0:0:
256,192,93620,1,8,0:0:0:0:
402,192,93620,1,2,0:0:0:0:
182,192,93721,1,8,0:0:0:0:
329,192,93721,1,2,0:0:0:0:
109,192,93821,1,8,0:0:0:0:
256,192,93821,1,2,0:0:0:0:
36,192,93922,128,0,95533:0:0:0:0:
182,192,93922,128,0,95130:0:0:0:0:
475,192,93922,128,0,95331:0:0:0:0:
329,192,93922,128,0,94727:0:0:0:0:
