osu file format v9

[General]
AudioFilename: samsara.mp3
AudioLeadIn: 3000
PreviewTime: 65621
Countdown: 0
SampleSet: Soft
StackLeniency: 0.4
Mode: 0
LetterboxInBreaks: 0
StoryFireInFront: 0

[Editor]
DistanceSpacing: 0
BeatDivisor: 4
GridSize: 8

[Metadata]
Title:samsara
Artist:Misawa Aki
Creator:qinche
Version:Shirasawa
Source:Touhou
Tags:Plain Asia nekono ALiCE'S EMOTiON RED Keine Kamishirasawa ZUN Aki no Sora imperishable night C78 TW-KUMA01

[Difficulty]
HPDrainRate:5
CircleSize:4
OverallDifficulty:5
ApproachRate:7
SliderMultiplier:1.8
SliderTickRate:1

[Events]
//Background and Video events
0,0,"bg.jpg" _F,0,-3000,45168,1 _F,0,45168,66985,0 _F,0,66985,93746,1 _F,0,93746,111985,0 _F,0,111985,,1
//Break Periods
2,28999,33354
//Storyboard Layer 0 (Background)
//Storyboard Layer 1 (Fail)
//Storyboard Layer 2 (Pass)
//Storyboard Layer 3 (Foreground)
//Storyboard Sound Samples
//Background Colour Transformations
3,100,60,83,117

[TimingPoints]
-1200,681.818181818182,4,2,0,20,1,0
1521,-100,4,2,0,25,0,0
26065,-100,4,2,0,20,0,0
26747,-100,4,2,0,15,0,0
27429,-100,4,2,0,10,0,0
28111,-100,4,2,0,5,0,0
34248,-100,4,2,0,20,0,0
45157,-133.333333333333,4,2,0,16,0,0
66975,-100,4,2,0,25,0,0
109247,-133.333333333333,4,2,0,20,0,0

[Colours]
Combo1 : 207,217,254
Combo2 : 49,87,176
Combo3 : 50,65,103

[HitObjects]
72,104,163,1,0
128,32,504,1,0
208,64,845,1,0
200,152,1186,1,0
120,176,1527,2,0,B|144:224|120:264,1,90,2|0
136,288,2038,1,0
136,288,2209,2,0,B|227:288,1,90,0|0
312,336,2890,2,0,B|344:248|312:160,1,180,2|0
311,157,3913,1,0
297,161,4084,1,0
281,161,4254,6,0,B|200:208,1,90,2|0
104,160,4936,2,0,B|184:112,1,90
288,280,5618,2,0,B|232:200,1,90,2|0
256,88,6300,2,0,B|312:160,1,90,2|0
376,232,6981,2,0,B|408:200|400:144,1,90,2|0
496,144,7663,2,0,B|456:56|356:32,1,180,0|2
264,48,8686,1,0
192,112,9027,1,0
168,200,9368,1,0
152,72,9709,5,2
248,112,10050,1,0
312,192,10390,1,0
344,280,10731,1,0
400,144,11072,5,2
312,192,11413,1,0
216,200,11754,2,0,B|112:200,1,90,0|0
112,224,12265,1,0
112,224,12436,6,0,B|90:264|50:288,1,90,2|0
144,320,13118,2,0,B|191:301|241:311,1,90
328,344,13800,2,0,B|344:248|264:184,1,180,2|0
264,183,14822,1,0
280,186,14993,1,0
296,186,15163,6,0,B|384:186,1,90,2|0
152,272,15845,2,0,B|248:272,1,90
296,186,16527,2,0,B|394:186,1,90,2|0
402,174,17038,1,0
416,160,17209,1,0
472,88,17550,1,0
376,72,17890,2,0,B|288:48|288:48,1,90,2|0
200,80,18572,2,0,B|88:80|64:176,1,180,0|2
144,216,19595,1,0
112,304,19936,6,0,B|160:336|200:304,1,90
296,288,20618,2,0,B|288:240|240:224,1,90,2|0
144,216,21300,2,0,B|128:168|168:136,1,90
208,56,21981,2,0,B|272:88|288:160,1,135,2|0
288,160,22663,1,2
288,160,23004,1,2
288,160,23345,1,2
256,192,23515,12,0,28799
304,192,34254,6,0,B|256:200|220:167,1,90,2|0
200,88,34936,2,0,B|232:176|200:264,1,180,0|0
200,88,36299,5,0
200,88,36981,2,0,B|232:120|288:120,1,90,2|0
296,208,37663,2,0,B|320:160|368:152,1,90
456,144,38345,5,0
396,72,38686,1,0
304,80,39027,1,0
208,80,39368,1,0
120,80,39709,1,2
120,264,40390,1,0
304,264,41072,1,0
376,312,41413,1,0
304,264,41754,5,0
256,192,42095,1,0
232,112,42436,5,2
256,192,43799,5,2
80,192,45163,5,2
80,192,45504,2,0,B|160:192,1,67.4999979883433
344,304,46527,2,0,B|256:304,1,67.4999979883433
200,328,47209,2,0,B|248:280|232:192,1,134.999995976687
168,160,48231,1,0
168,80,48572,2,0,B|248:80,1,67.4999979883433
235,80,49254,1,0
328,200,49936,1,0
328,280,50277,1,0
328,280,50618,6,0,B|408:280,1,67.4999979883433,2|0
432,208,51299,1,0
235,96,51981,1,0
192,168,52322,1,0
120,216,52663,2,0,B|40:216,1,67.4999979883433
96,288,53345,2,0,B|160:328|224:288,1,134.999995976687
300,256,54368,1,0
352,192,54709,2,0,B|352:112,1,67.4999979883433
432,192,55390,2,0,B|432:272,1,67.4999979883433
432,259,56072,1,2
80,136,56754,5,0
80,216,57095,1,0
136,272,57436,2,0,B|200:248|272:272,1,134.999995976687
344,232,58459,1,0
336,312,58799,2,0,B|336:240|384:184,1,134.999995976687
440,128,59822,1,0
360,104,60163,2,0,B|280:104,1,67.4999979883433
208,104,60845,1,0
120,104,61186,1,0
120,104,61356,1,0
120,104,61527,5,2
120,192,61868,1,0
200,320,62549,1,0
200,232,62890,1,0
200,144,63231,1,0
280,104,63572,1,0
280,192,63913,1,0
280,104,64254,2,0,B|368:96|368:192,1,134.999995976687
280,192,65277,1,0
147,232,65618,5,0
224,280,65959,1,0
299,232,66299,1,0
376,280,66640,1,0
299,232,66981,2,0,B|416:232|440:144,2,180,2|0|2
224,176,68686,1,2
224,176,69027,2,0,B|232:128|160:104|128:144,1,135
112,176,69709,6,0,B|66:256,1,90,2|0
184,256,70390,2,0,B|232:168,1,90
288,256,71072,1,2
344,176,71413,1,0
288,96,71754,1,0
344,176,72095,1,0
376,176,72265,1,0
408,176,72436,2,0,B|432:112|472:112,1,90,2|0
344,176,73118,6,0,B|320:240|280:240,1,90
248,152,73799,1,2
160,136,74140,1,2
88,192,74481,1,0
80,280,74822,1,0
248,152,75163,5,2
144,80,75504,1,2
40,160,75845,1,0
80,280,76186,1,0
216,280,76527,2,0,B|312:280,1,90,2|0
348,192,77209,2,0,B|260:160|164:192,1,180,0|2
171,34,78572,2,0,B|260:64|348:32,1,180,0|2
352,120,79595,1,2
272,152,79936,2,0,B|192:152|184:240,1,135
160,232,80618,6,0,B|86:180,1,90,2|0
224,176,81299,2,0,B|295:231,1,90
352,88,81981,2,0,B|296:159,1,90,2|0
136,232,82663,2,0,B|191:160,1,90
248,80,83345,2,0,B|320:80|376:128,1,135,2|0
392,152,84027,2,0,B|347:235,1,90
304,312,84709,2,0,B|216:312,1,90,2|2
112,264,85390,1,0
200,208,85731,1,0
200,208,86072,5,2
112,160,86413,1,2
112,160,86754,5,0
200,104,87095,1,0
288,160,87436,2,0,B|280:200|352:248|384:224,1,135,2|0
384,224,88118,1,2
448,152,88459,1,2
384,72,88799,6,0,B|280:80|248:176,2,180,6|0|2
360,176,90504,1,0
392,272,90845,2,0,B|296:256,1,90
272,256,91356,1,0
248,264,91527,1,2
144,288,91868,1,0
40,264,92209,1,0
64,96,92549,5,0
160,128,92890,1,2
264,112,93231,1,0
368,88,93572,1,0
464,128,93913,1,0
496,224,94254,2,0,B|472:264|424:272,1,90,2|0
312,272,94936,2,0,B|280:248|232:232,1,90
128,200,95618,5,2
88,104,95959,1,0
40,200,96299,2,0,B|128:200,1,90
240,200,96981,1,2
280,296,97322,1,0
328,200,97663,2,0,B|238:200,1,90
280,296,98345,1,2
376,296,98686,1,0
328,200,99027,2,0,B|418:200,1,90
456,104,99709,6,0,B|373:81|277:105,1,180,2|0
280,296,101072,2,0,B|374:319|457:296,1,180,2|0
328,200,102095,5,0
304,184,102265,1,0
280,168,102436,2,0,B|192:168,1,90,2|0
192,272,103118,2,0,B|288:272,1,90
376,272,103799,1,2
424,192,104140,1,0
376,112,104481,1,0
280,112,104822,1,0
232,192,105163,6,0,B|184:184|160:144,1,90,2|0
200,56,105845,2,0,B|384:56,1,180,0|2
432,136,106868,1,0
384,216,107209,1,0
288,216,107549,1,0
288,216,107890,5,2
336,136,108231,1,0
384,56,108572,1,0
288,56,108913,1,0
240,136,109254,2,0,B|208:128|168:136,1,67.4999979883433,2|0
272,248,109936,2,0,B|307:256|339:248,1,67.4999979883433
256,192,110618,5,4
