osu file format v9

[General]
AudioFilename: samsara.mp3
AudioLeadIn: 3000
PreviewTime: 65621
Countdown: 0
SampleSet: Soft
StackLeniency: 0.5
Mode: 0
LetterboxInBreaks: 0
StoryFireInFront: 0

[Editor]
DistanceSpacing: 1.7
BeatDivisor: 4
GridSize: 8

[Metadata]
Title:samsara
Artist:Misawa Aki
Creator:qinche
Version:Keine
Source:Touhou
Tags:Plain Asia nekono ALiCE'S EMOTiON RED Keine Kamishirasawa ZUN Aki no Sora imperishable night C78 TW-KUMA01

[Difficulty]
HPDrainRate:4
CircleSize:4
OverallDifficulty:3
ApproachRate:5
SliderMultiplier:0.9
SliderTickRate:1

[Events]
//Background and Video events
0,0,"bg.jpg" _F,0,-3000,45168,1 _F,0,45168,66985,0 _F,0,66985,93746,1 _F,0,93746,111985,0 _F,0,111985,,1
//Break Periods
2,29000,33205
2,94454,98659
//Storyboard Layer 0 (Background)
//Storyboard Layer 1 (Fail)
//Storyboard Layer 2 (Pass)
//Storyboard Layer 3 (Foreground)
//Storyboard Sound Samples
//Background Colour Transformations
3,100,60,83,117

[TimingPoints]
-1200,681.818181818182,4,2,0,25,1,0
1528,-100,4,2,0,25,0,0
26072,-100,4,2,0,20,0,0
26754,-100,4,2,0,15,0,0
27436,-100,4,2,0,9,0,0
28118,-100,4,2,0,5,0,0
34255,-100,4,2,0,20,0,0
45164,-133.333333333333,4,2,0,20,0,0
66982,-100,4,2,0,20,0,0
109936,-100,4,2,0,5,0,0
110618,-100,4,2,0,30,0,0

[Colours]
Combo1 : 207,217,254
Combo2 : 49,87,176
Combo3 : 50,65,103

[HitObjects]
88,136,163,1,0
88,216,505,1,0
152,176,846,1,0
152,256,1187,1,0
216,296,1528,2,0,B|312:296,1,90,2|0
392,168,2891,2,0,B|304:168,1,90,2|0
160,112,4255,5,2
80,112,4596,1,0
48,184,4937,1,0
80,256,5278,1,0
160,256,5618,2,0,B|208:256,3,45,2|0|0|0
280,256,6982,6,0,B|312:160|280:80,1,180,2|0
280,80,9028,1,0
280,79,9709,2,0,B|248:160|280:256,1,180,2|0
432,256,11755,1,0
432,256,12437,6,0,B|344:256,1,90,2|0
208,328,13800,2,0,B|298:328,1,90
152,272,15164,1,2
96,216,15505,1,0
152,160,15846,1,0
208,216,16187,1,0
152,272,16528,6,0,B|208:272,3,45,2|0|0|0
272,272,17891,2,0,B|368:296|456:272,1,180,2|2
360,152,19937,1,0
450,30,20618,2,0,B|368:8|272:32,1,180,2|2
360,152,22664,1,0
256,272,23345,1,2
256,192,23515,12,0,28800
256,80,34255,6,0,B|368:80|368:200,1,180,2|0
256,296,36300,1,0
144,192,36982,1,2
184,128,37323,1,0
256,96,37664,2,0,B|256:160,2,45
328,128,38687,1,0
368,192,39028,1,0
256,304,39709,6,0,B|256:208,1,90,2|0
104,192,41073,2,0,B|168:192,1,45
200,136,41755,2,0,B|200:72,1,45
280,88,42437,2,0,B|320:120|368:104,1,90
440,240,43800,2,0,B|392:240|368:288,1,90
256,192,45163,1,0
118,83,46527,6,0,B|175:47,1,67.4999979883433
120,160,47890,2,0,B|192:160,1,67.4999979883433
118,236,49254,2,0,B|175:271,1,67.4999979883433
256,192,50618,1,2
394,83,51981,6,0,B|336:47,1,67.4999979883433
392,160,53344,2,0,B|320:160,1,67.4999979883433
394,236,54708,2,0,B|336:271,1,67.4999979883433
256,192,56072,1,2
256,264,57436,6,0,B|256:184,1,67.4999979883433
256,112,58800,1,2
256,112,59140,1,0
256,112,59481,2,0,B|256:40,2,67.4999979883433,0|2|0
256,44,61527,1,2
256,44,62890,6,0,B|256:116,1,67.4999979883433,2|0
256,192,64254,1,2
256,192,64595,1,0
256,192,64936,1,0
200,296,65618,5,2
224,344,65959,1,0
288,344,66300,1,2
312,296,66640,1,0
256,272,66981,6,0,B|256:200,1,67.4999979883433,2|0
168,80,68345,2,0,B|256:40|344:80,1,180,2|2
344,152,70050,2,0,B|344:200,2,45
264,152,71072,1,2
184,152,71413,1,0
104,152,71754,1,0
184,152,72095,5,0
264,152,72436,2,0,B|264:248,1,90,2|0
328,104,73800,2,0,B|328:48,3,45,2|0|0|0
408,56,75163,2,0,B|408:120,3,45,2|0|0|0
328,104,76527,2,0,B|224:104,1,90,2|0
88,104,77890,6,0,B|48:192|88:280,1,180,2|2
216,192,79936,1,0
336,104,80618,2,0,B|376:192|336:280,1,180,2|2
184,280,82663,1,0
184,128,83345,2,0,B|280:128,1,90,2|0
336,272,84709,1,2
256,272,85050,1,0
176,272,85390,1,0
176,120,86072,5,2
256,120,86413,1,0
336,120,86754,1,0
256,256,87436,2,0,B|256:160,2,90,2|0|6
256,192,88970,12,0,94254
176,152,99709,6,0,B|176:64,1,90,2|2
328,64,101072,2,0,B|328:152,1,90,2|0
384,296,102436,2,0,B|256:328|112:296,1,270,2|0
176,152,105163,6,0,B|176:64,1,90,2|2
328,64,106526,2,0,B|328:152,1,90,2|0
256,192,107890,12,0,109936
256,192,110618,5,4
