osu file format v9

[General]
AudioFilename: Misawa Aki - White Refrain.mp3
AudioLeadIn: 2000
PreviewTime: 64345
Countdown: 0
SampleSet: Soft
StackLeniency: 0.7
Mode: 0
LetterboxInBreaks: 1

[Editor]
Bookmarks: 1064,17470,32939,47939,64345,79345,94814,111220,126689,143564,158095,173564
DistanceSpacing: 1.2
BeatDivisor: 4
GridSize: 8

[Metadata]
Title:White Refrain
Artist:Misawa Aki
Creator:_LRJ_
Version:Normal
Source:Touhou
Tags:Fight69 flandre scarlet U.N. Owen Was Her Silver Forest

[Difficulty]
HPDrainRate:3
CircleSize:3
OverallDifficulty:4
ApproachRate:5
SliderMultiplier:1.1
SliderTickRate:1

[Events]
//Background and Video events
0,0,"BG.jpg"
//Break Periods
//Storyboard Layer 0 (Background)
//Storyboard Layer 1 (Fail)
//Storyboard Layer 2 (Pass)
//Storyboard Layer 3 (Foreground)
Sprite,Foreground,Centre,"_LRJ_.png",320,240
Sprite,Foreground,Centre,"Fight69.png",320,240
Sprite,Foreground,Centre,"_LRJ_.png",320,240
Sprite,Foreground,Centre,"Fight69.png",320,240
Sprite,Foreground,Centre,"_LRJ_.png",320,240
Sprite,Foreground,Centre,"Fight69.png",320,240
Sprite,Foreground,Centre,"_LRJ_.png",320,240
Sprite,Foreground,Centre,"Fight69.png",320,240
Sprite,Foreground,Centre,"_LRJ_.png",320,240
Sprite,Foreground,Centre,"Fight69.png",320,240
Sprite,Foreground,Centre,"_LRJ_.png",320,240
Sprite,Foreground,Centre,"Fight69.png",320,240
Sprite,Foreground,Centre,"_LRJ_.png",320,240
Sprite,Foreground,Centre,"_LRJ_.png",320,240
//Storyboard Sound Samples
//Background Colour Transformations
3,100,163,162,255

[TimingPoints]
1064,468.75,4,2,0,50,1,0
8564,-100,4,2,0,70,0,0
9032,-100,4,1,0,70,0,0
9091,-100,4,2,0,70,0,0
9970,-100,4,1,0,70,0,0
10028,-100,4,2,0,70,0,0
10907,-100,4,1,0,70,0,0
10966,-100,4,2,0,70,0,0
11845,-100,4,1,0,70,0,0
11903,-100,4,2,0,70,0,0
12782,-100,4,1,0,70,0,0
12841,-100,4,2,0,70,0,0
13720,-100,4,1,0,70,0,0
13778,-100,4,2,0,70,0,0
14657,-100,4,1,0,70,0,0
14716,-100,4,2,0,70,0,0
15595,-100,4,1,0,70,0,0
15653,-100,4,2,0,70,0,0
17939,-100,4,2,1,70,0,0
64814,-100,4,2,1,70,0,1
78876,-100,4,2,0,70,0,1
79345,-100,4,2,0,70,0,0
79814,-100,4,2,1,70,0,1
93876,-100,4,2,0,70,0,1
94814,-100,4,2,0,70,0,0
96220,-100,4,2,1,70,0,0
143564,-100,4,2,1,70,0,1
157626,-100,4,2,0,70,0,1
158095,-100,4,2,0,70,0,0
158564,-100,4,2,1,70,0,1
172626,-100,4,2,0,70,0,1
173564,-200,4,2,1,70,0,0
174735,-100,4,2,1,70,0,0

[Colours]
Combo1 : 255,230,140
Combo2 : 214,48,48
Combo3 : 255,157,206

[HitObjects]
320,80,1064,1,4
192,80,1532,2,0,B|80:80,2,110,2|0|2
256,192,2939,1,0
384,192,3407,2,0,B|440:192,2,55,2|0|0
320,304,4345,1,2
184,304,4814,6,0,B|120:304|80:256,1,110,0|2
88,128,5751,2,0,B|120:80|184:80,1,110,0|2
312,80,6689,6,0,B|432:80,2,110,2|2|2
312,216,8095,1,0
432,280,8564,5,4
308,328,9032,2,0,B|256:356|204:328,1,110,0|2
80,280,9970,1,0
200,216,10439,5,2
256,96,10907,2,0,B|280:40|344:32,2,110,0|2|0
376,144,12314,6,0,B|440:192|440:288|376:336,1,220,2|2
256,280,13720,1,0
133,334,14189,2,0,B|72:288|72:192|136:144,1,220,2|2
256,88,15595,1,0
256,88,15829,1,0
256,88,16064,1,4
256,288,17470,5,0
256,288,17939,2,0,B|88:288,2,165,4|2|0
320,288,19579,2,0,B|392:288|392:208|464:208,1,165,0|2
456,80,20751,2,0,B|456:24,2,55,0|0|2
320,80,21689,6,0,B|304:24|208:24|192:80,2,165,0|2|0
344,144,23329,2,0,B|336:208|296:256|216:256|176:208|168:144,1,275,2|0
48,96,24970,1,2
48,232,25439,6,0,B|88:312|168:352,1,165,4|2
296,344,26610,1,0
296,344,26845,1,0
296,344,27079,2,0,B|464:344,1,165,0|2
464,272,28017,6,0,B|464:216,1,55
464,88,28720,1,2
328,88,29189,6,0,B|256:32|168:56,1,165,0|2
144,192,30360,1,0
144,192,30595,1,0
144,192,30829,2,0,B|216:248|304:224,1,165,0|2
416,160,32001,2,0,B|456:120,2,55,0|0|2
416,296,32939,6,0,B|352:352|256:352,1,165,4|2
136,352,34110,1,0
136,352,34345,1,0
136,352,34579,2,0,B|80:288|80:192,1,165,0|2
80,72,35751,2,0,B|40:32,2,55,0|0|2
192,136,36689,6,0,B|232:88|296:88|336:136,1,165,0|2
336,264,37860,1,0
336,264,38095,1,0
336,264,38329,2,0,B|296:312|232:312|192:264,1,165,0|2
80,200,39501,2,0,B|24:200,2,55,0|0|2
144,88,40439,6,0,B|136:32|64:0|8:40,2,165,4|2|0
208,88,42079,2,0,B|376:88,1,165,0|2
456,192,43251,2,0,B|480:216|480:248,2,55,0|0|2
320,192,44189,6,0,B|304:136|208:136|192:192,1,165,0|2
128,80,45360,1,0
128,80,45595,1,2
128,80,45829,2,0,B|256:8|392:80,1,275,4|2
456,192,47470,1,0
392,312,47939,6,0,B|312:272|320:168,2,165,4|2|0
264,336,49814,2,0,B|96:336,2,165,0|2|0
200,216,51689,6,0,B|136:272|40:248,2,165,4|2|0
200,80,53564,2,0,B|136:24|40:48,2,165,0|2|0
312,152,55439,6,0,B|480:152,2,165,4|2|0
320,284,57314,2,0,B|424:252|464:348,2,165,0|2|0
192,284,59189,6,0,B|88:252|48:348,2,165,4|4|0
256,264,60829,2,0,B|216:216|256:168|256:168|296:112|256:64,1,220,4|4
255,63,62939,6,0,B|168:64,3,82.5,2|2|2|2
72,64,64345,2,0,B|32:104,1,55,2|0
32,168,64814,6,0,B|32:280,2,110,4|2|0
168,168,66220,1,2
168,168,66454,2,0,B|208:208|208:272,2,110
188,104,67626,1,0
320,104,68095,1,2
320,104,68329,1,0
344,168,68564,6,0,B|304:208|304:272,2,110,4|2|0
480,168,69970,1,2
416,280,70439,5,2
416,280,70673,1,0
416,280,70907,2,0,B|456:320,2,55,2|0|2
256,160,72079,5,0
256,160,72314,1,4
128,160,72782,2,0,B|128:104|176:64,2,110,2|0|2
128,224,73954,1,0
256,264,74423,1,0
256,264,74657,1,2
384,224,75126,1,0
320,112,75595,5,2
256,88,75829,1,0
192,112,76064,1,4
256,224,76532,2,0,B|256:336,2,110,2|0|2
344,128,77939,2,0,B|320:72|256:56|192:72|168:128,1,220,2|2
144,224,79228,2,0,B|96:208|80:168,1,82.5,2|2
80,104,79814,6,0,B|104:40|168:8,2,110,4|2|0
8,216,81220,1,2
8,216,81454,2,0,B|40:272|96:304,1,110
208,328,82392,1,0
208,328,82626,1,0
336,296,83095,1,2
336,296,83329,1,0
336,296,83564,6,0,B|384:272|416:216,1,110,4|2
384,96,84501,1,0
256,56,84970,1,2
128,96,85439,5,2
128,96,85673,1,0
64,120,85907,1,2
64,120,86142,1,0
64,184,86376,2,0,B|64:288|160:336,1,165,2|0
200,320,87314,6,0,B|320:320,2,110,4|2|0
200,184,88720,1,2
200,184,88954,1,0
256,64,89423,1,0
256,64,89657,1,2
312,184,90126,1,0
368,64,90595,1,2
368,64,90829,1,0
368,64,91064,6,0,B|432:56|480:96,1,110,0|2
472,224,92001,2,0,B|472:288|432:328,1,110,0|2
304,328,92939,2,0,B|80:328,1,220,0|2
32,240,94228,2,0,B|32:192|72:160,1,82.5,2|2
256,192,94814,12,0,96220
256,288,96689,6,0,B|424:288,2,165,4|2|0
192,288,98329,2,0,B|120:288|120:208|48:208,1,165,0|2
56,80,99501,2,0,B|56:24,2,55,0|0|2
192,80,100439,6,0,B|208:24|304:24|320:80,2,165,0|2|0
168,144,102079,2,0,B|176:208|216:256|296:256|336:208|344:144,1,275,2|0
464,96,103720,1,2
464,232,104189,6,0,B|424:312|344:352,1,165,4|2
216,344,105360,1,0
216,344,105595,1,0
216,344,105829,2,0,B|48:344,1,165,0|2
48,272,106767,6,0,B|48:216,1,55
48,88,107470,1,2
184,88,107939,6,0,B|256:32|344:56,1,165,0|2
368,192,109110,1,0
368,192,109345,1,0
368,192,109579,2,0,B|296:248|208:224,1,165,0|2
96,160,110751,2,0,B|56:120,2,55,0|0|2
96,296,111689,6,0,B|160:352|256:352,1,165,4|2
376,352,112860,1,0
376,352,113095,1,0
376,352,113329,2,0,B|432:288|432:192,1,165,0|2
432,72,114501,2,0,B|472:32,2,55,0|0|2
320,136,115439,6,0,B|280:88|216:88|176:136,1,165,0|2
176,264,116610,1,0
176,264,116845,1,0
176,264,117079,2,0,B|216:312|280:312|320:264,1,165,0|2
432,200,118251,2,0,B|488:200,2,55,0|0|2
368,88,119189,6,0,B|376:32|448:0|504:40,2,165,4|2|0
304,88,120829,2,0,B|136:88,1,165,0|2
56,192,122001,2,0,B|32:216|32:248,2,55,0|0|2
192,192,122939,6,0,B|208:136|304:136|320:192,1,165,0|2
384,80,124110,1,0
384,80,124345,1,2
384,80,124579,2,0,B|256:8|120:80,1,275,4|2
56,192,126220,1,0
120,312,126689,6,0,B|200:272|192:168,2,165,4|2|0
248,336,128564,2,0,B|416:336,2,165,0|2|0
312,216,130439,6,0,B|376:272|472:248,2,165,4|2|0
312,80,132314,2,0,B|376:24|472:48,2,165,0|2|0
200,152,134189,6,0,B|32:152,2,165,4|2|0
192,284,136064,2,0,B|88:252|48:348,2,165,0|2|0
320,284,137939,6,0,B|424:252|464:348,2,165,4|4|0
256,264,139579,2,0,B|296:216|256:168|256:168|216:112|256:64,1,220,4|4
257,63,141689,6,0,B|344:64,3,82.5,2|2|2|2
440,64,143095,2,0,B|480:104,1,55,2|0
480,168,143564,6,0,B|480:280,2,110,4|2|0
344,168,144970,1,2
344,168,145204,2,0,B|304:208|304:272,2,110
324,104,146376,1,0
192,104,146845,1,2
192,104,147079,1,0
168,168,147314,6,0,B|208:208|208:272,2,110,4|2|0
32,168,148720,1,2
96,280,149189,5,2
96,280,149423,1,0
96,280,149657,2,0,B|56:320,2,55,2|0|2
256,160,150829,5,0
256,160,151064,1,4
384,160,151532,2,0,B|384:104|336:64,2,110,2|0|2
384,224,152704,1,0
256,264,153173,1,0
256,264,153407,1,2
128,224,153876,1,0
192,112,154345,5,2
256,88,154579,1,0
320,112,154814,1,4
256,224,155282,2,0,B|256:336,2,110,2|0|2
168,128,156689,2,0,B|192:72|256:56|320:72|344:128,1,220,2|2
368,224,157978,2,0,B|416:208|432:168,1,82.5,2|2
432,104,158564,6,0,B|408:40|344:8,2,110,4|2|0
504,216,159970,1,2
504,216,160204,2,0,B|472:272|416:304,1,110
304,328,161142,1,0
304,328,161376,1,0
176,296,161845,1,2
176,296,162079,1,0
176,296,162314,6,0,B|128:272|96:216,1,110,4|2
128,96,163251,1,0
256,56,163720,1,2
384,96,164189,5,2
384,96,164423,1,0
448,120,164657,1,2
448,120,164892,1,0
448,184,165126,2,0,B|448:288|352:336,1,165,2|0
312,320,166064,6,0,B|192:320,2,110,4|2|0
312,184,167470,1,2
312,184,167704,1,0
256,64,168173,1,0
256,64,168407,1,2
200,184,168876,1,0
144,64,169345,1,2
144,64,169579,1,0
144,64,169814,6,0,B|80:56|32:96,1,110,0|2
40,224,170751,2,0,B|40:288|80:328,1,110,0|2
208,328,171689,2,0,B|432:328,1,220,0|2
480,240,172978,2,0,B|480:192|440:160,1,82.5,2|2
392,160,173564,2,0,B|312:152|280:224,1,137.5,4|0
216,240,174970,1,0
152,224,175204,1,0
120,168,175439,1,4
