osu file format v13

[General]
AudioFilename: Nostalgia1.mp3
AudioLeadIn: 0
PreviewTime: 59268
Countdown: 0
SampleSet: Soft
StackLeniency: 0.7
Mode: 0
LetterboxInBreaks: 0
WidescreenStoryboard: 0

[Editor]
Bookmarks: 59268,106676,130380
DistanceSpacing: 0.5
BeatDivisor: 4
GridSize: 4
TimelineZoom: 1.9

[Metadata]
Title:Nostalgia
TitleUnicode:Nostalgia
Artist:Misawa Aki
ArtistUnicode:三澤秋
Creator:Lach
Version:Insane
Source:東方Project
Tags:c76 ZUN 太田順也 上海アリス幻樂団 古明地 こいし ラストリモート 東方地霊殿 矢鴇つかさ 東風谷 早苗 touhou Last Remote Komeiji Koishi Kochiya Sanae Tsukasa Yatoki Subterranean Animism Chireiden Extra Stage Team Shanghai Alice soundonline sound online ryosios tats a2c
BeatmapID:438239
BeatmapSetID:182845

[Difficulty]
HPDrainRate:6.9
CircleSize:4
OverallDifficulty:7
ApproachRate:8
SliderMultiplier:1.4
SliderTickRate:1

[Events]
//Background and Video events
0,0,"bg.jpg",0,0
//Break Periods
2,47695,57856
//Storyboard Layer 0 (Background)
//Storyboard Layer 1 (Fail)
//Storyboard Layer 2 (Pass)
//Storyboard Layer 3 (Foreground)
//Storyboard Sound Samples
//Background Colour Transformations
3,100,163,162,255

[TimingPoints]
87.6302242490731,370.37037037037,4,2,2,60,1,0
11939,-100,4,2,2,60,0,0
23791,-133.333333333333,4,2,1,60,0,0
58420,-100,4,2,1,60,0,0
59346,-100,4,2,1,60,0,0
83050,-100,4,2,2,60,0,0
85272,-100,4,2,1,60,0,0
85365,-100,4,2,2,60,0,0
88235,-100,4,2,1,60,0,0
88328,-100,4,2,2,60,0,0
91198,-100,4,2,1,60,0,0
91291,-100,4,2,2,60,0,0
94161,-100,4,2,1,60,0,0
94254,-100,4,2,2,60,0,0
94902,-100,4,2,1,60,0,0
106754,-86.9565217391304,4,2,1,60,0,1
130458,-100,4,2,1,60,0,0
130550,-100,4,2,1,5,0,0

[Colours]
Combo1 : 108,255,126
Combo2 : 255,157,255
Combo3 : 108,182,255

[HitObjects]
69,122,10828,5,2,0:0:0:0:
69,122,11013,2,2,P|117:131|190:216,1,140,0|10,0:0|0:0,0:0:0:0:
181,191,11569,1,8,0:0:0:0:
138,279,11754,1,2,0:0:0:0:
302,275,11939,6,0,L|207:264,1,70,0|0,1:0|0:0,0:0:0:0:
336,161,12309,2,2,L|412:150,1,70,0|0,0:0|1:0,0:0:0:0:
405,150,13050,5,0,0:0:0:0:
381,55,13235,1,0,0:0:0:0:
483,23,13420,2,0,L|471:103,1,70,0|0,1:0|0:0,0:0:0:0:
311,126,13791,2,2,P|274:133|225:134,1,70,0|0,0:0|1:0,0:0:0:0:
241,134,14902,5,0,1:0:0:0:
157,84,15087,1,0,0:0:0:0:
157,84,15180,1,0,0:0:0:0:
157,84,15272,1,0,0:0:0:0:
101,165,15458,2,0,P|112:206|196:259,1,140,0|0,1:0|0:0,0:0:0:0:
280,230,16013,2,0,P|280:195|294:151,1,70
508,216,16383,6,2,P|464:207|351:224,1,140,0|2,1:0|0:0,0:0:0:0:
370,216,16939,1,2,1:2:0:0:
370,216,17309,1,10,0:0:0:0:
341,311,17495,1,8,0:0:0:0:
245,176,17680,1,2,0:0:0:0:
207,338,17865,6,0,L|129:328,1,70,0|0,1:0|0:0,0:0:0:0:
9,216,18235,2,2,L|87:206,1,70,0|0,0:0|1:0,0:0:0:0:
78,207,18791,1,0,0:0:0:0:
166,165,18976,1,0,0:0:0:0:
248,217,19161,1,0,0:0:0:0:
338,180,19346,6,0,P|329:136|352:28,1,140,0|0,1:0|0:0,0:0:0:0:
436,77,19902,1,0,1:0:0:0:
436,77,20458,6,0,L|491:66,3,46.6666666666667,0|0|0|0,0:0|0:0|0:0|1:0,0:0:0:0:
461,163,21013,1,0,0:0:0:0:
461,163,21106,1,0,0:0:0:0:
461,163,21198,1,0,0:0:0:0:
364,144,21383,2,0,P|326:139|222:200,1,140,0|0,1:0|0:0,0:0:0:0:
171,312,21939,2,0,P|207:300|243:266,1,70
326,246,22309,6,0,L|403:258,1,70,0|0,1:0|0:0,0:0:0:0:
151,227,22680,2,2,L|74:239,1,70,0|0,0:0|1:0,0:0:0:0:
81,237,23235,1,8,0:0:0:0:
208,155,23420,2,0,L|190:74,1,70,0|8,0:0|0:0,0:0:0:0:
353,53,23791,5,4,1:2:0:0:
353,53,24161,1,0,0:0:0:0:
367,141,24346,1,0,0:0:0:0:
487,271,24532,2,0,P|488:223|452:164,1,105.000004005432
462,173,25087,1,0,0:0:0:0:
392,252,25272,6,0,P|365:262|342:266,1,52.5000020027161
268,202,25643,2,0,P|295:192|318:188,1,52.5000020027161
215,359,26013,2,0,L|196:252,1,105.000004005432,8|0,0:3|0:0,0:0:0:0:
205,166,26569,1,0,0:0:0:0:
117,149,26754,5,0,0:0:0:0:
98,236,26939,2,0,L|81:263,2,26.2500010013581,2|0|0,0:2|0:2|0:0,0:0:0:0:
29,149,27309,1,0,0:0:0:0:
105,68,27495,2,0,P|141:55|195:58,2,78.7500030040742
29,149,28235,6,0,L|82:174,1,52.5000020027161
261,123,28606,2,0,L|197:140,1,52.5000020027161
171,351,28976,2,0,P|184:313|176:235,1,105.000004005432,8|0,0:3|0:0,0:0:0:0:
180,248,29532,1,0,1:0:0:0:
0,297,29717,6,0,P|30:283|70:283,1,52.5000020027161,0|2,1:0|0:0,0:0:0:0:
61,283,29995,1,0,0:0:0:0:
73,287,30087,1,0,0:0:0:0:
55,197,30272,2,0,P|42:145|61:84,1,105.000004005432
141,178,30828,2,0,L|210:187,1,52.5000020027161
416,95,31198,6,0,P|384:88|310:105,1,105.000004005432
314,102,31754,1,0,0:0:0:0:
233,193,31939,2,0,P|265:200|339:183,1,105.000004005432,8|0,0:3|0:0,0:0:0:0:
334,185,32495,1,0,0:0:0:0:
408,233,32680,5,0,0:0:0:0:
372,314,32865,1,2,0:0:0:0:
372,314,32958,1,0,0:0:0:0:
372,314,33050,1,0,0:0:0:0:
282,311,33235,1,0,0:0:0:0:
209,259,33420,2,0,P|175:261|138:280,2,52.5000020027161
273,197,33976,1,0,0:0:0:0:
199,146,34161,5,0,0:0:0:0:
199,146,34532,2,0,L|135:157,1,52.5000020027161
52,172,34902,1,8,1:3:0:0:
192,268,35087,2,0,P|221:270|285:321,1,105.000004005432,0|0,1:0|1:0,0:0:0:0:
368,329,35643,5,4,1:1:0:0:
343,243,35828,1,2,0:0:0:0:
401,175,36013,1,0,0:2:0:0:
375,89,36198,1,2,0:2:0:0:
401,175,36383,2,0,L|420:230,1,52.5000020027161,2|0,0:0|0:2,0:0:0:0:
295,153,36754,2,0,L|283:218,1,52.5000020027161,0|0,0:2|0:2,0:2:0:0:
163,186,37124,6,0,L|96:195,1,52.5000020027161,0|2,0:0|0:0,0:0:0:0:
9,105,37495,2,0,L|76:114,1,52.5000020027161,0|2,0:0|0:0,0:0:0:0:
60,359,37865,2,0,P|43:331|38:252,1,105.000004005432,8|0,0:3|0:0,0:0:0:0:
35,260,38420,1,0,0:0:0:0:
123,279,38606,5,0,0:0:0:0:
205,245,38791,1,2,0:2:0:0:
288,277,38976,1,0,0:0:0:0:
375,257,39161,1,2,0:2:0:0:
288,277,39346,2,0,L|266:326,1,52.5000020027161,2|0,0:0|0:0,0:0:0:0:
210,192,39717,2,0,L|205:245,1,52.5000020027161
106,132,40087,6,0,L|121:189,1,52.5000020027161,0|2,0:0|0:0,0:0:0:0:
283,138,40458,2,0,L|345:128,1,52.5000020027161,0|2,0:0|0:0,0:0:0:0:
502,58,40828,2,0,P|463:38|386:37,1,105.000004005432,8|0,0:3|0:0,0:0:0:0:
402,33,41383,1,0,1:0:0:0:
432,117,41569,5,0,1:0:0:0:
411,203,41754,1,2,0:0:0:0:
324,224,41939,1,0,0:0:0:0:
242,186,42124,1,2,0:0:0:0:
168,236,42309,2,0,L|93:232,1,52.5000020027161,2|0,0:0|0:0,0:0:0:0:
247,303,42680,2,0,L|193:344,1,52.5000020027161
364,306,43050,6,0,L|342:370,1,52.5000020027161,0|2,0:0|0:0,0:0:0:0:
242,186,43420,2,0,L|229:126,1,52.5000020027161,0|2,0:0|0:0,0:0:0:0:
502,192,43791,2,0,P|464:205|388:205,1,105.000004005432,8|0,0:3|0:0,0:0:0:0:
399,207,44346,1,0,0:0:0:0:
322,253,44532,5,0,0:0:0:0:
325,163,44717,1,2,0:0:0:0:
241,194,44902,5,0,0:0:0:0:
238,283,45087,1,2,0:0:0:0:
322,253,45272,6,0,L|332:197,1,52.5000020027161,2|0,0:0|0:0,0:0:0:0:
233,142,45643,2,0,L|241:194,1,52.5000020027161
132,160,46013,6,0,P|94:164|16:133,1,105.000004005432,0|2,0:0|0:0,0:0:0:0:
31,144,46569,1,0,0:0:0:0:
126,263,46754,1,8,1:3:0:0:
126,263,46939,2,0,P|164:259|242:290,1,105.000004005432,0|0,1:0|1:0,0:0:0:0:
226,278,47495,5,4,1:0:0:0:
143,149,58606,6,0,L|152:231,1,70,8|0,1:3|1:0,0:0:0:0:
229,126,58976,1,8,0:0:0:0:
165,52,59161,1,8,0:0:0:0:
76,92,59346,5,4,1:0:0:0:
76,92,59717,1,2,0:0:0:0:
60,188,59902,2,0,P|57:228|75:287,1,70,0|0,1:0|0:0,0:0:0:0:
144,147,60272,1,0,0:0:0:0:
240,150,60458,2,0,P|265:178|281:222,1,70,8|0,1:2|0:0,0:0:0:0:
144,147,60828,6,2,P|146:96|193:10,1,140,0|2,1:0|0:0,0:0:0:0:
330,162,61383,2,0,P|369:179|407:180,1,70,0|0,1:0|0:0,0:0:0:0:
500,125,61754,1,2,0:0:0:0:
424,31,61939,2,2,P|386:33|349:43,1,70,8|2,1:2|0:0,0:0:0:0:
231,120,62309,5,0,1:0:0:0:
194,211,62495,1,0,0:0:0:0:
194,211,62587,1,0,0:0:0:0:
194,211,62680,1,2,0:0:0:0:
106,166,62865,2,2,P|61:171|-3:256,1,140,0|0,1:0|0:0,0:0:0:0:
216,364,63420,2,0,P|226:336|221:297,1,70,8|0,1:2|0:0,0:0:0:0:
66,336,63791,6,0,L|144:322,1,70,2|0,1:2|0:0,0:0:0:0:
388,296,64161,2,0,L|304:280,1,70,10|0,0:0|1:0,0:0:0:0:
173,174,64532,2,2,L|186:250,1,70,2|0,0:0|1:2,0:0:0:0:
270,167,64902,2,0,L|283:85,1,70,10|8,0:0|1:2,0:0:0:0:
460,141,65272,5,4,1:0:0:0:
460,141,65643,1,2,0:0:0:0:
399,243,65828,2,0,P|359:256|324:255,1,70,0|0,1:0|0:0,0:0:0:0:
229,194,66198,1,0,0:0:0:0:
286,89,66383,2,0,P|326:76|361:77,1,70,8|0,1:2|0:0,0:0:0:0:
229,194,66754,6,2,P|186:201|105:152,1,140,0|2,1:0|0:0,0:0:0:0:
229,51,67309,2,0,P|215:90|191:110,1,70,0|0,1:0|0:0,0:0:0:0:
93,263,67680,1,2,0:0:0:0:
20,137,67865,2,2,P|34:98|58:78,1,70,8|2,1:2|0:0,0:0:0:0:
236,194,68235,6,0,L|242:274,1,70,0|0,1:0|0:0,0:0:0:0:
146,236,68605,1,2,0:0:0:0:
331,232,68790,2,2,P|323:293|320:373,1,140,0|0,1:0|0:0,0:0:0:0:
219,328,69346,2,0,L|131:347,1,70,0|0,1:0|0:0,0:0:0:0:
0,161,69717,6,0,L|79:170,1,70,0|2,1:0|0:0,0:0:0:0:
69,168,69995,1,2,0:0:0:0:
69,168,70087,1,8,1:2:0:0:
161,99,70272,1,0,1:0:0:0:
177,93,70365,1,0,1:0:0:0:
194,92,70458,1,0,1:0:0:0:
210,86,70550,1,0,1:0:0:0:
227,85,70643,1,0,1:0:0:0:
296,154,70828,1,8,1:2:0:0:
397,37,71013,1,8,1:2:0:0:
316,69,71198,5,4,1:0:0:0:
316,69,71569,1,2,0:0:0:0:
400,131,71754,2,0,L|388:206,1,70,0|0,1:0|0:0,0:0:0:0:
438,299,72124,1,0,0:0:0:0:
335,356,72309,2,0,L|322:273,1,70,8|0,1:2|0:0,0:0:0:0:
99,326,72680,6,2,P|138:351|240:326,1,140,0|2,1:0|0:0,0:0:0:0:
172,161,73235,2,0,P|158:199|162:236,1,70,0|0,1:0|0:0,0:0:0:0:
226,337,73606,1,2,0:0:0:0:
306,228,73791,2,2,L|291:155,1,70,8|2,1:2|0:0,0:0:0:0:
243,62,74161,5,0,1:0:0:0:
339,76,74346,1,0,0:0:0:0:
339,76,74439,1,0,0:0:0:0:
339,76,74532,1,2,0:0:0:0:
187,143,74717,2,2,P|132:147|46:98,1,140,0|0,1:0|0:0,0:0:0:0:
68,242,75272,2,0,L|83:329,1,70,8|0,1:2|0:0,0:0:0:0:
201,235,75643,6,0,P|240:225|282:225,1,70,2|0,1:2|0:0,0:0:0:0:
349,148,76013,2,0,P|340:109|323:71,1,70,10|0,1:2|1:0,0:0:0:0:
491,44,76383,2,0,P|460:90|449:118,1,70,2|0,0:0|1:0,0:0:0:0:
411,336,76754,2,0,P|420:288|418:250,1,70,10|8,0:0|1:2,0:0:0:0:
250,350,77124,5,4,1:0:0:0:
250,350,77495,1,2,0:0:0:0:
152,343,77680,2,2,P|159:297|143:191,1,140,0|0,1:0|0:0,0:0:0:0:
0,247,78235,2,0,P|33:259|70:260,1,70,8|0,1:2|0:0,0:0:0:0:
253,206,78606,6,2,P|306:199|385:254,1,140,0|2,1:0|0:0,0:0:0:0:
299,359,79161,2,0,P|292:317|300:287,1,70,0|0,1:0|0:0,0:0:0:0:
348,123,79532,1,2,0:0:0:0:
461,208,79717,2,2,P|468:250|460:280,1,70,8|2,1:2|0:0,0:0:0:0:
186,261,80087,6,0,L|103:270,1,70,0|0,1:0|0:0,0:0:0:0:
180,351,80458,1,2,0:0:0:0:
145,177,80643,2,2,P|89:179|-13:159,1,140,0|0,1:0|0:0,0:0:0:0:
179,19,81198,2,0,P|169:60|171:104,1,70,8|0,1:2|0:0,0:0:0:0:
280,326,81569,6,0,P|276:278|267:240,1,70,0|2,1:0|0:2,0:0:0:0:
271,256,81846,1,2,0:2:0:0:
271,256,81939,1,8,1:2:0:0:
349,188,82124,1,0,1:0:0:0:
354,171,82217,1,0,1:0:0:0:
355,153,82309,1,0,1:0:0:0:
362,137,82402,1,0,1:0:0:0:
363,119,82495,1,0,1:0:0:0:
292,56,82680,1,8,1:2:0:0:
450,85,82865,1,8,1:2:0:0:
349,188,83050,6,0,L|369:266,1,70,4|0,1:0|0:0,0:0:0:0:
491,303,83420,2,0,L|473:235,1,70
442,146,83791,1,8,0:0:0:0:
156,323,84161,2,0,L|61:317,1,70
33,236,84532,5,0,0:0:0:0:
33,236,84902,2,2,P|22:170|48:97,1,140,0|8,0:0|0:0,0:0:0:0:
44,101,85458,1,0,1:0:0:0:
131,223,85643,2,0,P|167:224|211:215,1,70,0|0,1:0|1:0,0:0:0:0:
284,168,86013,5,0,1:0:0:0:
369,215,86198,1,0,0:0:0:0:
369,215,86291,1,0,0:0:0:0:
369,215,86383,1,0,0:0:0:0:
452,162,86569,1,0,0:0:0:0:
456,259,86754,2,0,L|436:332,1,70,8|0,0:0|0:0,0:0:0:0:
299,284,87124,2,0,L|227:293,1,70
27,304,87495,5,0,1:0:0:0:
27,304,87865,2,2,P|79:307|156:373,1,140,0|8,0:0|1:3,0:0:0:0:
147,357,88420,1,0,1:0:0:0:
243,336,88606,1,0,1:0:0:0:
220,240,88791,1,0,1:0:0:0:
123,255,88976,6,0,L|105:333,1,70,4|0,1:0|0:0,0:0:0:0:
36,181,89346,2,2,L|18:103,1,70,0|2,0:0|0:0,0:0:0:0:
90,47,89717,1,8,0:0:0:0:
331,66,90087,2,0,L|413:74,1,70
488,45,90458,6,0,P|450:69|401:178,1,140
436,227,91013,1,0,0:0:0:0:
352,225,91198,2,0,L|363:305,1,70,8|0,0:3|1:0,0:0:0:0:
254,373,91569,2,0,L|265:293,1,70,0|0,0:0|1:0,0:0:0:0:
489,320,91939,6,2,P|407:325|361:294,1,140,0|2,0:0|0:0,0:0:0:0:
141,227,92495,2,2,P|223:222|268:252,1,140,2|0,0:0|0:0,0:0:0:0:
388,196,93050,2,2,L|377:104,1,70,0|2,0:0|0:0,0:0:0:0:
379,126,93606,5,0,1:0:0:0:
288,87,93791,1,2,0:0:0:0:
196,122,93976,1,0,1:0:0:0:
104,87,94161,1,8,1:3:0:0:
104,87,94254,1,0,1:0:0:0:
104,87,94346,1,2,1:2:0:0:
196,227,94532,1,0,1:0:0:0:
34,157,94717,1,2,1:2:0:0:
89,324,94902,6,2,L|100:235,1,70,4|2,1:0|0:0,0:0:0:0:
6,360,95272,1,10,1:2:0:0:
175,283,95458,2,2,L|197:133,1,140,2|0,0:0|1:0,0:0:0:0:
249,332,96013,2,0,P|297:349|339:350,1,70,8|0,1:2|0:0,0:0:0:0:
402,264,96383,6,0,L|470:245,1,70,0|0,1:0|0:0,0:0:0:0:
303,211,96754,2,0,L|235:191,1,70,8|0,1:2|0:0,0:0:0:0:
93,246,97124,2,2,P|80:290|74:335,1,70,0|0,0:0|1:0,0:0:0:0:
38,149,97495,2,0,P|26:103|6:63,1,70,8|0,1:2|0:0,0:0:0:0:
135,119,97865,5,0,1:0:0:0:
228,70,98050,1,2,0:0:0:0:
228,70,98143,1,0,0:0:0:0:
228,70,98235,1,10,1:2:0:0:
137,32,98420,2,2,L|159:188,1,140,2|0,0:0|1:0,0:0:0:0:
9,212,98976,2,0,P|44:190|80:187,1,70,0|0,1:0|0:0,0:0:0:0:
246,140,99346,6,0,L|319:151,1,70,0|0,1:0|0:0,0:0:0:0:
484,48,99717,2,0,L|400:75,1,70,8|0,1:2|1:0,0:0:0:0:
397,291,100087,2,2,P|406:242|404:198,1,70,0|0,0:0|1:0,0:0:0:0:
312,80,100458,2,0,P|312:131|320:165,1,70,8|0,1:2|1:0,0:0:0:0:
492,263,100828,5,4,1:0:0:0:
414,146,101013,1,2,0:0:0:0:
414,146,101106,1,0,0:0:0:0:
414,146,101198,1,10,1:2:0:0:
309,231,101383,2,2,P|261:212|162:240,1,140,2|0,0:0|1:0,0:0:0:0:
246,374,101939,2,0,P|288:362|315:338,1,70,8|0,1:2|0:0,0:0:0:0:
116,332,102309,5,0,1:0:0:0:
116,332,102680,5,8,1:2:0:0:
99,235,102865,1,0,0:0:0:0:
212,175,103050,5,0,0:0:0:0:
195,272,103235,1,0,1:0:0:0:
99,235,103420,6,0,L|82:146,1,70,8|0,1:2|1:0,0:0:0:0:
212,175,103791,6,0,P|266:180|302:176,1,70,4|0,1:2|0:0,0:0:0:0:
396,116,104161,1,0,0:0:0:0:
274,51,104346,2,0,P|220:46|184:50,1,70,4|0,1:2|0:0,0:0:0:0:
359,29,104717,5,0,0:0:0:0:
116,61,104902,2,0,L|42:97,1,70,4|0,1:2|0:0,0:0:0:0:
43,197,105272,5,0,0:0:0:0:
145,160,105458,2,0,P|170:193|189:307,1,140,4|0,1:2|1:0,0:0:0:0:
188,304,105920,1,0,1:0:0:0:
182,320,106013,1,0,1:0:0:0:
174,335,106106,1,0,1:0:0:0:
164,349,106198,1,0,1:0:0:0:
32,267,106383,2,0,L|-1:284,2,35,0|0|0,1:0|1:0|1:0,0:0:0:0:
298,137,106754,6,0,P|354:154|388:257,1,161.000003070831,4|8,1:0|1:2,0:0:0:0:
304,307,107309,2,0,P|296:259|306:224,1,80.5000015354157,0|0,1:0|0:0,0:0:0:0:
391,77,107680,1,2,0:0:0:0:
476,191,107865,2,2,P|484:239|474:274,1,80.5000015354157,8|2,1:2|0:0,0:0:0:0:
211,323,108235,6,0,L|104:335,2,80.5000015354157,0|0|8,1:0|0:0|1:2,0:0:0:0:
253,236,108791,1,0,1:0:0:0:
237,233,108883,1,2,0:0:0:0:
222,226,108976,1,0,0:0:0:0:
205,225,109069,1,0,0:0:0:0:
189,220,109161,1,2,0:0:0:0:
320,173,109346,2,2,L|275:98,1,80.5000015354157,10|4,1:2|0:0,0:0:0:0:
23,49,109717,6,0,P|9:89|16:136,1,80.5000015354157,4|0,1:0|0:0,0:0:0:0:
133,267,110087,2,0,P|147:227|140:180,1,80.5000015354157,8|0,1:2|1:0,0:0:0:0:
91,98,110458,1,0,0:0:0:0:
52,226,110643,2,0,P|38:266|45:313,1,80.5000015354157,2|8,0:0|1:2,0:0:0:0:
203,333,111013,6,0,L|301:321,2,80.5000015354157,2|0|0,0:0|1:0|0:0,0:0:0:0:
141,257,111569,1,8,1:2:0:0:
212,192,111754,1,0,1:0:0:0:
227,190,111846,1,2,0:0:0:0:
242,183,111939,1,0,0:0:0:0:
258,181,112032,1,0,0:0:0:0:
273,175,112124,1,2,0:0:0:0:
308,34,112309,1,10,1:2:0:0:
217,67,112495,1,4,0:2:0:0:
342,124,112680,6,0,P|356:180|308:272,1,161.000003070831,4|8,1:0|1:2,0:0:0:0:
171,157,113235,2,0,P|216:155|258:181,1,80.5000015354157,0|0,1:0|0:0,0:0:0:0:
311,268,113606,1,2,0:0:0:0:
215,340,113791,2,2,P|170:342|128:316,1,80.5000015354157,8|2,1:2|0:0,0:0:0:0:
53,222,114161,6,0,L|160:240,1,80.5000015354157,0|0,1:0|0:0,0:0:0:0:
0,289,114532,1,8,1:2:0:0:
221,203,114717,1,0,1:0:0:0:
236,203,114809,1,2,0:0:0:0:
251,200,114902,1,0,0:0:0:0:
266,195,114995,1,0,0:0:0:0:
281,190,115087,1,2,0:0:0:0:
299,99,115272,1,10,1:2:0:0:
379,239,115458,1,4,0:0:0:0:
507,157,115643,6,0,P|491:110|380:57,1,161.000003070831,4|8,1:0|1:2,0:0:0:0:
379,239,116198,2,0,P|403:183|393:141,1,80.5000015354157,0|0,1:0|0:0,0:0:0:0:
290,27,116569,2,0,P|266:83|276:125,1,80.5000015354157,2|8,0:0|1:2,0:0:0:0:
278,214,116939,1,2,0:0:0:0:
267,101,117124,5,4,1:0:0:0:
111,72,117309,1,0,1:0:0:0:
170,222,117495,1,8,1:0:0:0:
202,47,117680,5,4,1:0:0:0:
104,160,117865,1,0,1:0:0:0:
258,193,118050,1,8,1:0:0:0:
69,275,118235,2,0,L|85:360,1,80.5000015354157,8|8,1:0|1:0,0:0:0:0:
439,338,118606,6,0,P|414:297|296:256,1,161.000003070831,4|8,1:0|1:2,0:0:0:0:
180,347,119161,2,0,P|225:350|270:326,1,80.5000015354157,0|0,1:0|0:0,0:0:0:0:
240,189,119532,2,0,P|195:186|150:210,1,80.5000015354157,2|8,0:0|1:2,0:0:0:0:
329,269,119902,1,2,0:0:0:0:
433,191,120087,6,0,L|449:94,1,80.5000015354157,0|0,1:0|0:0,0:0:0:0:
321,33,120458,2,0,L|329:137,1,80.5000015354157,8|0,1:2|1:0,0:0:0:0:
329,129,120735,1,2,0:0:0:0:
331,145,120828,1,0,0:0:0:0:
281,272,121013,1,2,0:0:0:0:
182,177,121198,1,2,1:2:0:0:
226,47,121383,1,4,0:0:0:0:
331,145,121569,6,0,L|320:238,1,80.5000015354157,4|0,1:0|0:0,0:0:0:0:
190,256,121939,2,2,L|182:177,1,80.5000015354157,8|0,1:2|1:0,0:0:0:0:
62,114,122309,1,2,0:0:0:0:
50,210,122495,2,0,L|37:311,1,80.5000015354157,2|8,0:0|1:2,0:0:0:0:
325,280,122865,6,0,P|371:284|414:265,2,80.5000015354157,2|4|0,0:0|1:0|0:0,0:0:0:0:
191,258,123420,1,8,1:0:0:0:
217,130,123606,2,0,P|262:123|356:193,1,161.000003070831,4|8,1:0|1:0,0:0:0:0:
125,194,124161,2,0,P|79:198|36:179,1,80.5000015354157,4|8,1:0|1:1,0:0:0:0:
20,80,124532,5,4,1:0:0:0:
186,336,124902,1,8,1:2:0:0:
261,244,125087,2,2,P|272:190|252:70,1,161.000003070831,0|2,1:0|0:0,0:0:0:0:
88,108,125643,2,0,P|133:119|184:116,1,80.5000015354157,8|2,1:2|0:0,0:0:0:0:
372,99,126013,6,0,L|481:88,1,80.5000015354157,0|0,1:0|0:0,0:0:0:0:
512,220,126383,2,0,L|403:209,1,80.5000015354157,8|0,1:2|1:0,0:0:0:0:
411,208,126661,1,2,0:0:0:0:
391,204,126754,1,0,0:0:0:0:
264,240,126939,1,2,0:0:0:0:
301,360,127124,1,10,1:2:0:0:
427,333,127309,1,4,0:0:0:0:
391,204,127495,6,0,P|385:152|384:113,1,80.5000015354157,4|0,1:0|0:0,0:0:0:0:
470,123,127865,1,8,1:2:0:0:
293,170,128050,2,2,P|296:114|296:6,1,161.000003070831,0|2,1:0|0:0,0:0:0:0:
100,137,128606,2,0,L|190:121,1,80.5000015354157,8|2,1:2|0:0,0:0:0:0:
331,230,128976,5,0,1:0:0:0:
246,337,129161,1,8,1:0:0:0:
187,213,129346,1,8,1:0:0:0:
285,93,129532,1,0,1:0:0:0:
285,93,129624,1,0,1:0:0:0:
285,93,129717,1,0,1:0:0:0:
101,136,129902,1,0,1:0:0:0:
101,136,129995,1,0,1:0:0:0:
101,136,130087,2,0,L|97:226,1,80.5000015354157,0|8,1:0|0:0,0:0:0:0:
285,93,130458,5,4,1:0:0:0:
256,192,130550,12,0,133420,0:0:0:0:
