osu file format v13

[General]
AudioFilename: Nostalgia1.mp3
AudioLeadIn: 0
PreviewTime: 59268
Countdown: 0
SampleSet: Soft
StackLeniency: 0.7
Mode: 0
LetterboxInBreaks: 0
WidescreenStoryboard: 1

[Editor]
Bookmarks: 59268,106676,130380
DistanceSpacing: 1.4
BeatDivisor: 4
GridSize: 4
TimelineZoom: 1.9

[Metadata]
Title:Nostalgia
TitleUnicode:Nostalgia
Artist:Misawa Aki
ArtistUnicode:三澤秋
Creator:Lach
Version:Hard
Source:東方Project
Tags:c76 ZUN 太田順也 上海アリス幻樂団 古明地 こいし ラストリモート 東方地霊殿 矢鴇つかさ 東風谷 早苗 touhou Last Remote Komeiji Koishi Kochiya Sanae Tsukasa Yatoki Subterranean Animism Chireiden Extra Stage Team Shanghai Alice soundonline sound online ryosios tats a2c
BeatmapID:531342
BeatmapSetID:182845

[Difficulty]
HPDrainRate:5
CircleSize:4
OverallDifficulty:6
ApproachRate:7
SliderMultiplier:1.2
SliderTickRate:1

[Events]
//Background and Video events
0,0,"bg.jpg",0,0
//Break Periods
2,47695,57706
//Storyboard Layer 0 (Background)
//Storyboard Layer 1 (Fail)
//Storyboard Layer 2 (Pass)
//Storyboard Layer 3 (Foreground)
//Storyboard Sound Samples
//Background Colour Transformations
3,100,163,162,255

[TimingPoints]
87.6302242490731,370.37037037037,4,2,2,60,1,0
11939,-100,4,2,2,60,0,0
23791,-133.333333333333,4,2,1,60,0,0
59346,-100,4,2,1,60,0,0
83050,-133.333333333333,4,2,2,60,0,0
85180,-133.333333333333,4,3,1,60,0,0
85365,-133.333333333333,4,2,2,60,0,0
88143,-133.333333333333,4,2,1,60,0,0
88328,-133.333333333333,4,2,2,60,0,0
91106,-133.333333333333,4,2,1,60,0,0
91291,-133.333333333333,4,2,2,60,0,0
94161,-100,4,2,1,60,0,0
94254,-100,4,2,2,60,0,0
94902,-100,4,2,1,60,0,0
106754,-86.9565217391304,4,2,1,60,0,1
109532,-86.9565217391304,4,2,1,55,0,1
109624,-86.9565217391304,4,2,1,60,0,1
112495,-86.9565217391304,4,2,1,55,0,1
112587,-86.9565217391304,4,2,1,60,0,1
115458,-86.9565217391304,4,2,1,55,0,1
115550,-86.9565217391304,4,2,1,60,0,1
121383,-86.9565217391304,4,2,1,55,0,1
121476,-86.9565217391304,4,2,1,60,0,1
127309,-86.9565217391304,4,2,1,55,0,1
127402,-86.9565217391304,4,2,1,60,0,1
130458,-100,4,2,1,33,0,0
130550,-100,4,2,1,5,0,0

[Colours]
Combo1 : 108,255,126
Combo2 : 255,157,255
Combo3 : 108,182,255

[HitObjects]
160,196,11383,6,0,L|152:120,2,60,10|8|2,0:0|0:0|0:0,0:0:0:0:
212,256,11939,6,0,B|268:264|329:237,1,120,0|0,1:0|0:0,0:0:0:0:
404,216,12495,1,0,1:0:0:0:
404,216,13050,2,0,L|468:196,1,60,0|0,0:0|0:0,0:0:0:0:
400,124,13420,6,0,B|340:152|272:116,1,120,0|0,1:0|0:0,0:0:0:0:
216,80,13976,1,0,1:0:0:0:
216,80,14532,1,0,0:0:0:0:
104,224,14902,6,0,B|92:284|120:340,1,120,0|0,1:0|0:0,0:0:0:0:
192,368,15458,1,0,1:0:0:0:
418,262,16013,2,0,B|426:234|426:234|420:204,1,60,0|0,0:0|0:0,0:0:0:0:
340,176,16383,6,0,B|276:176|276:176|212:148,1,120,0|2,1:0|0:0,0:0:0:0:
304,96,16939,2,0,B|372:96|372:96|436:140,1,120,2|10,1:2|0:0,0:0:0:0:
420,204,17495,1,8,0:0:0:0:
280,316,17865,6,0,P|220:312|164:276,1,120,0|0,1:0|0:0,0:0:0:0:
128,216,18420,1,0,1:0:0:0:
128,216,18976,2,0,L|117:147,1,60,2|2,0:0|0:0,0:0:0:0:
224,124,19346,6,0,L|364:112,1,120,0|0,1:0|0:0,0:0:0:0:
343,113,19902,1,0,1:0:0:0:
432,328,20458,2,0,L|440:380,2,40,2|0|2,0:0|0:0|0:0,0:0:0:0:
432,328,20828,6,0,P|372:320|284:320,1,120,0|0,1:0|0:0,0:0:0:0:
240,344,21383,2,0,P|156:344|116:332,1,120,0|0,1:0|0:0,0:0:0:0:
60,284,21939,2,0,L|52:208,1,60,2|2,0:0|0:0,0:0:0:0:
112,172,22309,6,0,L|104:104,2,60,0|0|0,1:0|0:0|0:0,0:0:0:0:
184,208,22865,2,0,P|236:204|320:180,2,120,0|8|8,1:0|0:0|0:0,0:0:0:0:
112,172,23791,6,0,L|100:72,1,90.0000034332277,4|0,1:2|0:0,0:0:0:0:
244,40,24532,2,0,L|254:129,1,90.0000034332277,0|0,0:0|0:0,0:0:0:0:
320,224,25272,5,0,0:0:0:0:
320,224,26013,1,8,0:3:0:0:
208,304,26383,1,0,0:0:0:0:
132,292,26569,1,0,0:0:0:0:
84,232,26754,6,0,P|68:164|68:132,1,90.0000034332277,0|0,0:0|0:0,0:0:0:0:
236,130,27495,6,0,L|231:48,2,67.5000025749207,0|0|0,0:0|0:0|0:0,0:0:0:0:
332,96,28235,6,0,P|340:148|320:188,1,90.0000034332277,0|0,0:0|0:0,0:0:0:0:
180,248,28976,1,8,0:3:0:0:
348,248,29346,1,0,0:0:0:0:
424,264,29532,1,0,1:0:0:0:
372,320,29717,6,0,B|308:328|308:328|272:304|240:300,2,135.000005149841,0|0|0,1:0|0:0|0:0,0:0:0:0:
400,184,31198,5,0,0:0:0:0:
296,84,31569,1,0,0:0:0:0:
200,192,31939,1,8,0:3:0:0:
304,288,32309,1,0,0:0:0:0:
299,173,32680,6,0,L|296:84,1,90.0000034332277,0|0,0:0|0:0,0:0:0:0:
140,136,33420,2,0,P|120:196|156:260,1,135.000005149841,0|0,0:0|0:0,0:0:0:0:
220,272,34161,6,0,B|300:264|300:264|292:284,1,90.0000034332277,8|2,0:0|0:0,0:0:0:0:
264,340,34717,1,8,0:0:0:0:
192,348,34902,2,0,L|128:355,1,45.0000017166138,8|0,1:3|1:0,0:0:0:0:
236,148,35458,1,0,1:0:0:0:
312,144,35643,6,0,L|410:139,1,90.0000034332277,4|0,1:1|0:2,0:0:0:0:
302,257,36383,2,0,B|244:284|221:229|163:291,1,135.000005149841,2|0,0:0|0:2,0:0:0:0:
226,332,37124,6,0,P|270:337|314:330,1,90.0000034332277,0|0,0:0|0:0,0:0:0:0:
379,288,37680,1,2,0:0:0:0:
379,211,37865,1,8,0:3:0:0:
111,62,38235,1,0,0:0:0:0:
111,138,38420,1,0,0:0:0:0:
114,214,38606,6,0,B|117:286|117:286|107:354,2,135.000005149841,0|2|0,0:0|0:2|0:0,0:0:0:0:
111,62,40087,6,0,L|204:51,1,90.0000034332277,0|0,0:0|0:0,0:0:0:0:
261,97,40643,1,2,0:0:0:0:
322,141,40828,2,0,L|415:130,1,90.0000034332277,8|0,0:3|0:0,0:0:0:0:
465,76,41383,1,0,1:0:0:0:
411,130,41569,6,0,P|411:161|436:216,1,90.0000034332277,0|0,1:0|0:0,0:0:0:0:
480,268,42124,2,0,L|376:267,1,90.0000034332277,2|0,0:0|0:0,0:0:0:0:
323,229,42680,6,0,L|231:226,2,90.0000034332277,0|0|0,0:0|0:0|0:0,0:0:0:0:
227,337,43791,2,0,B|167:345|167:345|137:334,1,90.0000034332277,8|0,0:3|0:0,0:0:0:0:
81,285,44346,6,0,B|122:247|171:267|171:267|148:239|152:178|210:157,1,225.000008583069,0|2,0:0|0:0,0:0:0:0:
317,180,45643,2,0,L|317:246,1,45.0000017166138,0|0,0:0|0:0,0:0:0:0:
375,274,46013,5,0,0:0:0:0:
449,258,46198,1,2,0:0:0:0:
467,183,46383,1,2,0:0:0:0:
368,84,46754,5,8,1:3:0:0:
368,84,46939,1,0,1:0:0:0:
213,137,47309,1,0,1:0:0:0:
213,137,47495,5,4,1:0:0:0:
316,145,58606,6,0,L|326:80,2,45.0000017166138,8|0|0,1:3|1:0|1:0,0:0:0:0:
256,192,59161,1,8,0:0:0:0:
184,178,59346,6,0,P|126:165|68:177,1,120,4|2,1:0|0:0,0:0:0:0:
72,279,59902,2,0,P|129:287|187:274,1,120,0|2,1:0|0:2,0:0:0:0:
256,192,60458,1,8,1:2:0:0:
420,259,60828,6,0,L|436:127,1,120,0|2,1:0|0:0,0:0:0:0:
359,101,61383,2,0,L|344:220,1,120,0|2,1:0|0:0,0:0:0:0:
288,283,61939,1,8,1:2:0:0:
204,287,62124,1,2,0:0:0:0:
120,291,62309,6,0,L|134:171,1,120,0|2,1:0|0:0,0:0:0:0:
199,114,62865,1,0,1:0:0:0:
274,150,63050,2,0,L|383:125,2,90,2|2|2,0:0|0:0|0:0,0:0:0:0:
316,222,63791,6,0,L|437:193,1,120,2|10,1:2|0:0,0:0:0:0:
250,336,64532,2,0,L|129:307,1,120,2|10,0:0|0:0,0:0:0:0:
111,227,65087,1,8,1:2:0:0:
172,170,65272,6,0,P|246:156|300:159,1,120,4|2,1:0|0:0,0:0:0:0:
356,210,65828,2,0,P|367:278|369:333,1,120,0|0,1:0|0:0,0:0:0:0:
287,347,66383,1,8,1:2:0:0:
139,201,66754,5,0,1:0:0:0:
296,71,67124,1,2,0:0:0:0:
418,234,67495,1,0,0:0:0:0:
262,365,67865,1,8,1:2:0:0:
237,197,68235,6,0,P|216:143|151:106,1,120,0|2,1:0|0:0,0:0:0:0:
81,109,68791,1,0,1:0:0:0:
134,281,69161,1,0,0:0:0:0:
210,315,69346,2,0,P|254:321|288:320,1,60,0|0,1:0|0:0,0:0:0:0:
339,274,69717,6,0,L|465:260,1,120,0|8,1:0|1:2,0:0:0:0:
484,341,70272,2,0,L|481:370,2,30,0|0|0,1:0|1:0|1:0,0:0:0:0:
403,364,70643,1,0,1:0:0:0:
320,368,70828,2,0,L|251:337,1,60,8|8,1:2|1:2,0:0:0:0:
226,268,71198,6,0,L|98:266,1,120,4|2,1:0|0:0,0:0:0:0:
59,336,71754,1,0,1:0:0:0:
20,261,71939,2,0,P|41:212|105:183,1,120,2|8,0:0|1:2,0:0:0:0:
182,186,72495,1,0,0:0:0:0:
261,158,72680,6,0,L|391:105,1,120,0|2,1:0|0:0,0:0:0:0:
372,112,73235,1,0,1:0:0:0:
274,346,73791,2,0,B|252:371|252:371|207:376,1,60,8|2,1:2|0:0,0:0:0:0:
153,329,74161,6,0,B|125:213|125:213|132:140,2,180,0|0|8,1:0|1:0|1:2,0:0:0:0:
382,371,75643,6,0,P|383:308|332:263,1,120,2|10,1:2|1:2,0:0:0:0:
266,293,76198,1,0,1:0:0:0:
300,369,76383,2,0,P|341:327|346:269,1,120,2|10,0:0|0:0,0:0:0:0:
285,211,76939,1,8,1:2:0:0:
204,234,77124,6,0,P|141:224|80:177,1,120,4|2,1:0|0:0,0:0:0:0:
95,109,77680,2,0,P|150:77|227:75,1,120,0|0,1:0|0:0,0:0:0:0:
208,154,78235,1,8,1:2:0:0:
296,288,78606,6,0,P|340:294|419:268,1,120,0|2,1:0|0:0,0:0:0:0:
459,176,79161,2,0,P|415:170|336:196,1,120,0|2,1:0|0:0,0:0:0:0:
296,288,79717,1,8,1:2:0:0:
108,288,80087,6,0,P|82:228|86:157,1,120,0|2,1:0|0:0,0:0:0:0:
135,109,80643,1,0,1:0:0:0:
343,196,81013,1,0,0:0:0:0:
345,286,81198,2,0,P|342:334|332:360,1,60,8|0,1:2|0:0,0:0:0:0:
215,365,81569,6,0,L|86:345,1,120,0|8,1:0|1:2,0:0:0:0:
67,267,82124,1,0,1:0:0:0:
67,267,82217,1,0,1:0:0:0:
67,267,82309,1,0,1:0:0:0:
148,244,82495,2,0,L|224:255,2,60,0|8|8,1:0|1:2|1:2,0:0:0:0:
86,186,83050,5,4,1:0:0:0:
256,192,84532,2,0,L|256:292,2,90.0000034332277,2|2|8,0:0|0:0|0:3,0:0:0:0:
344,104,86013,6,0,L|436:92,1,90.0000034332277,0|0,1:0|0:0,0:0:0:0:
148,192,87495,2,0,L|58:203,2,90.0000034332277,0|2|8,1:0|0:0|1:3,0:0:0:0:
255,258,88606,1,0,1:0:0:0:
342,167,88976,6,0,P|370:210|378:260,1,90.0000034332277,4|0,1:0|0:0,0:0:0:0:
369,323,89532,2,0,B|321:304|321:304|296:341|243:338,1,135.000005149841,2|2,0:0|0:0,0:0:0:0:
173,324,90272,1,0,0:0:0:0:
144,252,90458,6,0,B|156:163|156:163|180:208,1,135.000005149841,2|2,0:0|0:0,0:0:0:0:
226,261,91198,2,0,B|262:228|251:184|251:184|226:134,1,135.000005149841,8|0,0:3|1:0,0:0:0:0:
170,89,91939,2,0,B|122:81|89:122|89:122|77:178,3,135.000005149841,0|0|0|0,0:0|1:0|1:0|1:0,0:0:0:0:
111,313,93976,5,0,1:0:0:0:
195,360,94161,2,0,L|192:304,2,30,8|0|2,1:3|1:0|1:2,0:0:0:0:
272,308,94532,2,0,B|301:297|301:297|333:308,1,60,0|2,1:0|1:2,0:0:0:0:
391,352,94902,6,0,B|461:356|483:290,1,120,0|10,1:0|1:2,0:0:0:0:
490,213,95458,1,2,0:0:0:0:
413,195,95643,2,0,L|314:175,2,90,2|2|2,0:0|0:0|0:0,0:0:0:0:
467,139,96383,1,0,1:0:0:0:
383,27,96754,1,8,1:2:0:0:
325,178,97124,1,8,0:0:0:0:
282,243,97309,1,0,1:0:0:0:
204,253,97495,1,8,1:2:0:0:
130,102,97865,6,0,P|186:112|235:179,1,120,0|10,1:0|1:2,0:0:0:0:
262,312,98606,2,0,P|215:328|163:308,2,90,2|2|2,0:0|0:0|0:0,0:0:0:0:
293,242,99346,1,0,1:0:0:0:
427,173,99717,1,8,1:2:0:0:
419,328,100087,1,0,1:0:0:0:
293,242,100458,2,0,P|281:189|280:157,1,60,8|0,1:2|1:0,0:0:0:0:
305,103,100828,6,0,L|166:78,1,120,4|10,1:0|1:2,0:0:0:0:
111,102,101383,2,0,P|145:149|211:157,1,120,2|0,0:0|1:0,0:0:0:0:
188,81,101939,1,8,1:2:0:0:
85,226,102309,6,0,P|82:298|100:359,1,120,0|8,1:0|1:2,0:0:0:0:
168,366,102865,1,0,0:0:0:0:
237,330,103050,2,0,P|291:319|320:321,1,60,0|0,0:0|1:0,0:0:0:0:
371,338,103420,1,8,1:2:0:0:
447,320,103606,1,0,1:0:0:0:
469,214,103791,6,0,L|492:130,2,60,4|0|0,1:2|0:0|0:0,0:0:0:0:
361,218,104346,2,0,L|341:290,2,60,4|0|0,1:2|0:0|0:0,0:0:0:0:
288,137,104902,6,0,L|311:53,2,60,4|0|0,1:2|0:0|0:0,0:0:0:0:
188,177,105457,2,0,L|168:249,2,60,4|0|0,1:2|0:0|1:0,0:0:0:0:
160,72,106013,5,0,1:0:0:0:
82,72,106198,1,0,1:0:0:0:
45,140,106383,1,0,1:0:0:0:
82,208,106569,1,0,1:0:0:0:
106,237,106661,1,0,1:0:0:0:
111,271,106754,6,0,P|181:304|246:285,1,138.000002632141,4|8,1:0|1:2,0:0:0:0:
272,215,107309,2,0,L|410:258,1,138.000002632141,0|2,1:0|0:0,0:0:0:0:
437,332,107865,1,8,1:2:0:0:
364,370,108050,1,2,0:0:0:0:
314,305,108235,6,0,L|364:158,1,138.000002632141,0|8,1:0|1:2,0:0:0:0:
236,138,108791,2,0,P|194:182|201:261,1,138.000002632141,0|2,1:0|0:0,0:0:0:0:
273,217,109346,1,10,1:2:0:0:
273,217,109532,1,4,0:0:0:0:
123,166,109717,6,0,P|50:176|4:237,1,138.000002632141,4|8,1:0|1:2,0:0:0:0:
39,298,110272,1,0,1:0:0:0:
99,355,110458,2,0,P|132:364|166:369,2,69.0000013160706,0|2|8,0:0|0:0|1:2,0:0:0:0:
193,273,111013,6,0,P|256:258|344:260,1,138.000002632141,2|0,0:0|0:0,0:0:0:0:
393,310,111569,1,8,1:2:0:0:
406,220,111754,2,0,P|416:152|452:91,1,138.000002632141,0|2,1:0|0:0,0:0:0:0:
450,92,112309,1,10,1:2:0:0:
336,152,112495,1,4,0:2:0:0:
247,60,112680,6,0,P|215:124|210:200,1,138.000002632141,4|8,1:0|1:2,0:0:0:0:
253,259,113235,2,0,B|322:288|324:238|404:272,1,138.000002632141,0|2,1:0|0:0,0:0:0:0:
342,338,113791,2,0,P|319:343|264:339,1,69.0000013160706,8|2,1:2|0:0,0:0:0:0:
193,318,114161,6,0,P|138:280|73:294,1,138.000002632141,0|8,1:0|1:2,0:0:0:0:
121,362,114717,2,0,L|148:208,1,138.000002632141,0|2,1:0|0:0,0:0:0:0:
229,116,115272,1,10,1:2:0:0:
308,231,115458,1,4,0:0:0:0:
296,315,115643,6,0,P|238:281|227:216,1,138.000002632141,4|8,1:0|1:2,0:0:0:0:
279,152,116198,1,0,1:0:0:0:
360,163,116383,2,0,P|389:201|395:238,1,69.0000013160706,0|2,0:0|0:0,0:0:0:0:
380,302,116754,1,8,1:2:0:0:
361,164,116939,6,0,P|368:94|436:48,1,138.000002632141,2|0,0:0|1:0,0:0:0:0:
455,142,117495,1,8,1:0:0:0:
422,224,117680,2,0,L|404:261,2,34.5000006580353,4|0|8,1:0|1:0|1:0,0:0:0:0:
451,334,118050,1,0,1:0:0:0:
368,342,118235,1,8,1:0:0:0:
335,265,118420,1,8,1:0:0:0:
330,181,118606,6,0,P|282:140|192:159,1,138.000002632141,4|8,1:0|1:2,0:0:0:0:
118,246,119161,2,0,L|254:222,1,138.000002632141,0|2,1:0|0:0,0:0:0:0:
336,264,119717,1,8,1:2:0:0:
49,169,120087,6,0,P|22:238|36:322,1,138.000002632141,0|8,1:0|1:2,0:0:0:0:
119,325,120643,2,0,L|276:262,1,138.000002632141,0|0,1:0|1:0,0:0:0:0:
351,168,121198,1,10,1:2:0:0:
410,225,121383,1,4,0:0:0:0:
374,300,121569,6,0,P|304:307|236:254,1,138.000002632141,4|8,1:0|1:2,0:0:0:0:
193,163,122124,1,0,1:0:0:0:
209,81,122309,2,0,P|209:31|201:3,1,69.0000013160706,2|2,0:0|0:0,0:0:0:0:
124,48,122680,1,8,1:2:0:0:
98,176,122865,6,0,P|119:229|198:260,1,138.000002632141,2|2,0:0|0:0,0:0:0:0:
266,230,123420,1,8,1:0:0:0:
340,192,123606,2,0,P|343:266|282:311,1,138.000002632141,4|8,1:0|1:0,0:0:0:0:
266,230,124161,1,4,1:0:0:0:
290,104,124346,1,8,1:1:0:0:
408,146,124532,6,0,P|429:237|419:312,1,138.000002632141,4|8,1:0|1:2,0:0:0:0:
352,317,125087,2,0,L|192:298,1,138.000002632141,0|2,1:0|0:0,0:0:0:0:
143,342,125643,1,8,1:2:0:0:
97,131,126013,6,0,P|125:65|203:47,1,138.000002632141,0|8,1:0|1:2,0:0:0:0:
291,202,126569,2,0,L|178:124,1,138.000002632141,0|2,1:0|0:0,0:0:0:0:
246,77,127124,1,10,1:2:0:0:
315,122,127309,1,4,0:0:0:0:
370,183,127495,6,0,P|368:234|290:283,1,138.000002632141,4|8,1:0|1:2,0:0:0:0:
198,209,128050,2,0,P|160:257|178:351,1,138.000002632141,0|2,1:0|0:0,0:0:0:0:
240,364,128606,1,8,1:2:0:0:
320,344,128791,6,0,P|392:319|466:326,1,138.000002632141,2|8,0:0|1:0,0:0:0:0:
452,322,129346,1,8,1:0:0:0:
311,210,129532,1,0,1:0:0:0:
270,218,129624,1,0,1:0:0:0:
236,242,129717,2,0,P|177:255|114:244,2,103.500001974106,0|0|8,1:0|1:0|1:2,0:0:0:0:
280,148,130458,5,4,1:0:0:0:
256,192,130550,12,0,133420,0:0:0:0:
