osu file format v12

[General]
AudioFilename: Track (4).mp3
AudioLeadIn: 2000
PreviewTime: 41696
Countdown: 0
SampleSet: Soft
StackLeniency: 0.7
Mode: 3
LetterboxInBreaks: 0
EpilepsyWarning: 1
SpecialStyle: 0
WidescreenStoryboard: 0

[Editor]
Bookmarks: 135042,264000,285507
DistanceSpacing: 1
BeatDivisor: 8
GridSize: 8
TimelineZoom: 2.099999

[Metadata]
Title:Ashita no Sora
TitleUnicode:あしたの空
Artist:Misawa Aki
ArtistUnicode:三澤 秋
Creator:Reikosaka
Version:Normal
Source:
Tags:naotyu- Setsurei Aki no Sora Fuyusora no Arupejio
BeatmapID:385677
BeatmapSetID:149131

[Difficulty]
HPDrainRate:6
CircleSize:7
OverallDifficulty:7
ApproachRate:5
SliderMultiplier:1.7
SliderTickRate:2

[Events]
//Background and Video events
0,0,"Akimisawa.jpg",0,0
//Break Periods
//Storyboard Layer 0 (Background)
//Storyboard Layer 1 (Fail)
//Storyboard Layer 2 (Pass)
//Storyboard Layer 3 (Foreground)
//Storyboard Sound Samples
//Background Colour Transformations
3,100,163,162,255

[TimingPoints]
1526,416.666666666667,4,2,1,20,1,0
40876,416.666666666667,4,2,1,20,1,0
41709,416.666666666667,4,2,1,20,1,0
201708,-125,4,2,1,20,0,0
203375,416.666666666667,4,2,1,20,1,0
203375,-142.857142857143,4,2,1,20,0,0
216708,-133.333333333333,4,2,1,20,0,0
223375,-125,4,2,1,20,0,0
224208,-117.647058823529,4,2,1,20,0,0
225041,-111.111111111111,4,2,1,20,0,0
225875,-105.263157894737,4,2,1,20,0,0
226708,-100,4,2,1,20,0,1
266708,-100,4,2,1,20,0,0
275041,431.654676258993,4,2,1,20,1,0
275472,454.545454545455,4,2,1,20,1,0
275926,504.201680672269,4,2,1,20,1,0
276430,545.454545454546,4,2,1,20,1,0
276975,550.45871559633,4,2,1,20,1,0

[HitObjects]
109,192,1526,5,0,0:0:0:0:
402,192,1526,1,0,0:0:0:0:
402,192,1942,1,0,0:0:0:0:
36,192,2151,1,0,0:0:0:0:
475,192,2567,1,0,0:0:0:0:
109,192,2776,1,0,0:0:0:0:
402,192,3192,1,0,0:0:0:0:
109,192,3218,1,0,0:0:0:0:
36,192,4859,1,0,0:0:0:0:
402,192,4859,1,0,0:0:0:0:
36,192,5276,1,0,0:0:0:0:
402,192,5484,1,0,0:0:0:0:
109,192,5901,1,0,0:0:0:0:
475,192,6109,1,0,0:0:0:0:
109,192,6526,1,0,0:0:0:0:
475,192,6526,1,0,0:0:0:0:
329,192,8192,1,0,0:0:0:0:
475,192,8192,1,0,0:0:0:0:
182,192,8401,1,0,0:0:0:0:
36,192,8609,1,0,0:0:0:0:
402,192,8817,1,0,0:0:0:0:
402,192,9234,1,0,0:0:0:0:
182,192,9442,1,0,0:0:0:0:
475,192,9807,1,0,0:0:0:0:
402,192,9833,1,0,0:0:0:0:
329,192,9859,1,0,0:0:0:0:
36,192,11499,1,0,0:0:0:0:
475,192,11526,1,0,0:0:0:0:
475,192,11942,1,0,0:0:0:0:
109,192,12151,1,0,0:0:0:0:
402,192,12567,1,0,0:0:0:0:
36,192,12776,1,0,0:0:0:0:
402,192,13166,1,0,0:0:0:0:
36,192,13192,1,0,0:0:0:0:
109,192,14026,1,0,0:0:0:0:
256,192,14859,1,0,0:0:0:0:
475,192,14859,1,0,0:0:0:0:
329,192,15276,1,0,0:0:0:0:
36,192,15484,1,0,0:0:0:0:
475,192,15901,1,0,0:0:0:0:
182,192,16109,1,0,0:0:0:0:
329,192,16499,1,0,0:0:0:0:
36,192,16526,1,0,0:0:0:0:
402,192,18192,1,0,0:0:0:0:
36,192,18192,1,0,0:0:0:0:
402,192,18609,1,0,0:0:0:0:
36,192,18817,1,0,0:0:0:0:
36,192,19234,1,0,0:0:0:0:
329,192,19442,1,0,0:0:0:0:
182,192,19833,1,0,0:0:0:0:
475,192,19859,1,0,0:0:0:0:
36,192,21526,1,0,0:0:0:0:
182,192,21526,1,0,0:0:0:0:
329,192,21734,1,0,0:0:0:0:
475,192,21942,1,0,0:0:0:0:
256,192,22151,1,0,0:0:0:0:
109,192,22567,1,0,0:0:0:0:
329,192,22776,1,0,0:0:0:0:
36,192,23166,1,0,0:0:0:0:
475,192,23192,1,0,0:0:0:0:
36,192,24807,1,0,0:0:0:0:
109,192,24833,1,0,0:0:0:0:
182,192,24859,1,0,0:0:0:0:
329,192,25276,1,0,0:0:0:0:
36,192,25484,1,0,0:0:0:0:
402,192,25901,1,0,0:0:0:0:
109,192,26109,1,0,0:0:0:0:
329,192,26499,1,0,0:0:0:0:
36,192,26526,1,0,0:0:0:0:
36,192,28192,1,0,0:0:0:0:
475,192,28192,1,0,0:0:0:0:
36,192,28609,1,0,0:0:0:0:
475,192,28817,1,0,0:0:0:0:
109,192,29026,1,0,0:0:0:0:
475,192,29234,1,0,0:0:0:0:
36,192,29442,1,0,0:0:0:0:
329,192,29651,1,0,0:0:0:0:
475,192,29859,1,0,0:0:0:0:
109,192,29859,1,0,0:0:0:0:
475,192,30692,1,0,0:0:0:0:
36,192,31526,1,0,0:0:0:0:
402,192,31526,1,0,0:0:0:0:
109,192,31942,1,0,0:0:0:0:
329,192,32151,1,0,0:0:0:0:
475,192,32359,1,0,0:0:0:0:
329,192,32567,1,0,0:0:0:0:
109,192,32776,1,0,0:0:0:0:
36,192,33192,1,0,0:0:0:0:
475,192,33192,1,0,0:0:0:0:
36,192,34026,1,0,0:0:0:0:
182,192,34859,1,0,0:0:0:0:
402,192,34859,1,0,0:0:0:0:
109,192,35276,1,0,0:0:0:0:
329,192,35484,1,0,0:0:0:0:
36,192,35692,1,0,0:0:0:0:
475,192,35901,1,0,0:0:0:0:
182,192,36109,1,0,0:0:0:0:
329,192,36317,1,0,0:0:0:0:
36,192,36526,1,0,0:0:0:0:
402,192,36526,1,0,0:0:0:0:
36,192,37359,1,0,0:0:0:0:
36,192,38192,1,0,0:0:0:0:
475,192,38192,1,0,0:0:0:0:
36,192,38609,1,0,0:0:0:0:
182,192,38817,1,0,0:0:0:0:
256,192,39026,1,0,0:0:0:0:
329,192,39234,1,0,0:0:0:0:
475,192,39442,1,0,0:0:0:0:
475,192,39911,1,0,0:0:0:0:
109,192,39911,1,0,0:0:0:0:
402,192,40876,1,0,0:0:0:0:soft-hitnormal.wav
402,192,41084,1,0,0:0:0:0:soft-hitnormal.wav
402,192,41292,1,0,0:0:0:50:ride.wav
36,192,41709,1,0,0:0:0:0:soft-hitnormal.wav
182,192,41709,1,0,0:0:0:0:soft-hitnormal.wav
329,192,42125,1,0,0:0:0:35:bassdrum.wav
109,192,42334,1,0,0:0:0:35:bassdrum.wav
402,192,42542,1,0,0:0:0:50:snare01.wav
256,192,42959,1,0,0:0:0:50:bassdrum.wav
109,192,43167,1,0,0:0:0:50:bassdrum.wav
329,192,43375,1,0,0:0:0:0:soft-hitnormal.wav
475,192,43375,1,0,0:0:0:0:soft-hitnormal.wav
36,192,43792,1,0,0:0:0:0:
402,192,44000,1,0,0:0:0:40:guitar.wav
109,192,44209,1,0,0:0:0:50:snare01.wav
329,192,44625,1,0,0:0:0:50:bassdrum.wav
402,192,44834,1,0,0:0:0:0:
109,192,45042,1,0,0:0:0:0:soft-hitnormal.wav
182,192,45042,1,0,0:0:0:0:
475,192,45459,1,0,0:0:0:50:bassdrum.wav
329,192,45667,1,0,0:0:0:40:guitar.wav
109,192,45875,1,0,0:0:0:50:snare01.wav
402,192,46292,1,0,0:0:0:0:soft-hitnormal.wav
256,192,46500,1,0,0:0:0:50:bassdrum.wav
36,192,46709,1,0,0:0:0:0:soft-hitnormal.wav
109,192,46709,1,0,0:0:0:0:soft-hitnormal.wav
402,192,47125,1,0,0:0:0:50:bassdrum.wav
182,192,47334,1,0,0:0:0:0:
329,192,47542,1,0,0:0:0:0:soft-hitnormal.wav
475,192,47542,1,0,0:0:0:0:
109,192,47959,1,0,0:0:0:0:soft-hitnormal.wav
329,192,48167,1,0,0:0:0:0:soft-hitnormal.wav
36,192,48375,1,0,0:0:0:0:soft-hitnormal.wav
182,192,48375,1,0,0:0:0:0:soft-hitnormal.wav
256,192,48792,1,0,0:0:0:0:soft-hitnormal.wav
109,192,49000,1,0,0:0:0:40:guitar.wav
402,192,49209,1,0,0:0:0:50:snare01.wav
36,192,49625,1,0,0:0:0:0:soft-hitnormal.wav
182,192,49834,1,0,0:0:0:50:bassdrum.wav
475,192,50042,1,0,0:0:0:0:soft-hitnormal.wav
329,192,50042,1,0,0:0:0:0:soft-hitnormal.wav
256,192,50459,1,0,0:0:0:50:bassdrum.wav
402,192,50667,1,0,0:0:0:40:guitar.wav
109,192,50875,1,0,0:0:0:0:soft-hitnormal.wav
182,192,51292,1,0,0:0:0:0:soft-hitnormal.wav
329,192,51500,1,0,0:0:0:0:
36,192,51709,1,0,0:0:0:0:soft-hitnormal.wav
109,192,51709,1,0,0:0:0:0:soft-hitnormal.wav
329,192,52125,1,0,0:0:0:50:bassdrum.wav
182,192,52334,1,0,0:0:0:0:
475,192,52542,1,0,0:0:0:0:soft-hitnormal.wav
36,192,52959,1,0,0:0:0:50:bassdrum.wav
329,192,53167,1,0,0:0:0:0:
109,192,53375,1,0,0:0:0:0:soft-hitnormal.wav
475,192,53375,1,0,0:0:0:0:
182,192,53792,1,0,0:0:0:0:soft-hitnormal.wav
329,192,54000,1,0,0:0:0:0:soft-hitnormal.wav
475,192,54209,1,0,0:0:0:0:soft-hitnormal.wav
36,192,54209,1,0,0:0:0:0:soft-hitnormal.wav
109,192,54625,1,0,0:0:0:0:soft-hitnormal.wav
36,192,55042,1,0,0:0:0:0:soft-hitnormal.wav
402,192,55042,1,0,0:0:0:0:soft-hitnormal.wav
109,192,55459,1,0,0:0:0:0:soft-hitnormal.wav
402,192,55667,1,0,0:0:0:40:guitar.wav
182,192,55875,1,0,0:0:0:0:soft-hitnormal.wav
402,192,56292,1,0,0:0:0:0:soft-hitnormal.wav
109,192,56709,1,0,0:0:0:0:soft-hitnormal.wav
475,192,56709,1,0,0:0:0:0:soft-hitnormal.wav
36,192,57125,1,0,0:0:0:50:bassdrum.wav
329,192,57334,1,0,0:0:0:40:guitar.wav
109,192,57542,1,0,0:0:0:0:soft-hitnormal.wav
402,192,57959,1,0,0:0:0:0:soft-hitnormal.wav
256,192,58375,1,0,0:0:0:0:soft-hitnormal.wav
36,192,58375,1,0,0:0:0:0:soft-hitnormal.wav
329,192,58792,1,0,0:0:0:50:bassdrum.wav
182,192,59000,1,0,0:0:0:40:guitar.wav
36,192,59209,1,0,0:0:0:0:soft-hitnormal.wav
36,192,59625,1,0,0:0:0:0:soft-hitnormal.wav
329,192,59625,1,0,0:0:0:0:soft-hitnormal.wav
36,192,60042,1,0,0:0:0:0:soft-hitnormal.wav
475,192,60042,1,0,0:0:0:0:soft-hitnormal.wav
109,192,60459,1,0,0:0:0:50:bassdrum.wav
475,192,60459,1,0,0:0:0:0:
475,192,60875,1,0,0:0:0:0:soft-hitnormal.wav
329,192,61084,1,0,0:0:0:0:soft-hitnormal.wav
182,192,61292,1,0,0:0:0:0:soft-hitnormal.wav
36,192,61500,1,0,0:0:0:0:soft-hitnormal.wav
475,192,61709,1,0,0:0:0:0:soft-hitnormal.wav
256,192,61709,1,0,0:0:0:0:soft-hitnormal.wav
36,192,62125,1,0,0:0:0:0:soft-hitnormal.wav
182,192,62334,1,0,0:0:0:0:
329,192,62542,1,0,0:0:0:0:soft-hitnormal.wav
475,192,62750,1,0,0:0:0:0:soft-hitnormal.wav
36,192,62959,1,0,0:0:0:50:bassdrum.wav
36,192,63375,1,0,0:0:0:0:soft-hitnormal.wav
402,192,63375,1,0,0:0:0:0:soft-hitnormal.wav
182,192,63792,1,0,0:0:0:50:bassdrum.wav
109,192,64209,1,0,0:0:0:0:soft-hitnormal.wav
402,192,64209,1,0,0:0:0:0:soft-hitnormal.wav
329,192,64625,1,0,0:0:0:0:soft-hitnormal.wav
182,192,65042,1,0,0:0:0:0:soft-hitnormal.wav
475,192,65042,128,0,67542:0:0:0:0:soft-hitnormal.wav
256,192,67542,1,0,0:0:0:0:soft-hitnormal.wav
36,192,67542,1,0,0:0:0:0:
109,192,67959,1,0,0:0:0:40:ride.wav
36,192,68375,1,0,0:0:0:0:
402,192,68375,1,0,0:0:0:0:
329,192,69209,1,0,0:0:0:70:Piano 1.wav
182,192,69834,1,0,0:0:0:70:Piano 2.wav
475,192,70042,1,0,0:0:0:70:Piano 3.wav
402,192,70459,1,0,0:0:0:70:Piano 4.wav
182,192,70875,1,0,0:0:0:70:Piano 5.wav
109,192,71292,1,0,0:0:0:70:Piano 6.wav
36,192,71709,1,0,0:0:0:70:Piano 7.wav
109,192,72750,1,0,0:0:0:70:Piano 8.wav
256,192,72959,1,0,0:0:0:70:Piano 9.wav
329,192,73167,1,0,0:0:0:70:Piano 10.wav
402,192,73375,1,0,0:0:0:70:Piano 11.wav
36,192,74000,1,0,0:0:0:70:Piano 12.wav
36,192,74209,1,0,0:0:0:70:Piano 13.wav
475,192,75042,1,0,0:0:0:70:Piano 14.wav
329,192,75459,1,0,0:0:0:70:Piano 15.wav
182,192,75875,1,0,0:0:0:70:Piano 16.wav
36,192,76292,1,0,0:0:0:70:Piano 17.wav
256,192,76709,1,0,0:0:0:70:Piano 18.wav
402,192,77542,1,0,0:0:0:70:Piano 19.wav
109,192,78167,1,0,0:0:0:70:Piano 20.wav
109,192,78375,1,0,0:0:0:70:Piano 21.wav
475,192,78792,1,0,0:0:0:70:Piano 22.wav
182,192,79000,1,0,0:0:0:70:Piano 23.wav
402,192,79209,1,0,0:0:0:70:Piano 24.wav
36,192,79417,1,0,0:0:0:70:Piano 25.wav
182,192,79625,1,0,0:0:0:70:Piano 26.wav
329,192,79834,1,0,0:0:0:70:Piano 27.wav
109,192,80042,1,0,0:0:0:35:Piano 28.wav
475,192,80042,1,0,0:0:0:35:Piano 28.wav
36,192,80667,1,0,0:0:0:70:Bassdrum #1.wav
36,192,80875,1,0,0:0:0:70:Bassdrum #2.wav
182,192,80875,1,0,0:0:0:0:
475,192,81292,1,0,0:0:0:70:bassdrum.wav
475,192,81709,1,0,0:0:0:70:bassdrum.wav
256,192,81709,1,0,0:0:0:70:cymbol01.wav
109,192,82125,1,0,0:0:0:0:
402,192,82334,1,0,0:0:0:0:
36,192,82542,1,0,0:0:0:35:Snare.wav
182,192,82542,1,0,0:0:0:35:Snare.wav
109,192,82959,1,0,0:0:0:35:bassdrum.wav
256,192,82959,1,0,0:0:0:35:bassdrum.wav
475,192,83375,1,0,0:0:0:0:
182,192,83584,1,0,0:0:0:70:bassdrum.wav
182,192,83792,1,0,0:0:0:35:bassdrum.wav
475,192,84000,1,0,0:0:0:0:
36,192,84209,1,0,0:0:0:35:Snare.wav
329,192,84209,1,0,0:0:0:35:Snare.wav
182,192,84417,1,0,0:0:0:70:String 1.wav
256,192,84625,1,0,0:0:0:70:String 2.wav
402,192,84834,1,0,0:0:0:70:String 3.wav
475,192,85042,1,0,0:0:0:35:bassdrum.wav
36,192,85042,1,0,0:0:0:35:bassdrum.wav
256,192,85459,1,0,0:0:0:0:
109,192,85667,1,0,0:0:0:35:bassdrum.wav
329,192,85875,1,0,0:0:0:35:Snare.wav
475,192,85875,1,0,0:0:0:35:Snare.wav
256,192,86292,1,0,0:0:0:0:
402,192,86292,1,0,0:0:0:0:
36,192,86709,1,0,0:0:0:0:
329,192,86917,1,0,0:0:0:70:bassdrum.wav
329,192,87125,1,0,0:0:0:35:bassdrum.wav
109,192,87334,1,0,0:0:0:0:
329,192,87542,1,0,0:0:0:35:Snare.wav
402,192,87542,1,0,0:0:0:35:Snare.wav
329,192,87750,1,0,0:0:0:35:Snare.wav
402,192,87750,1,0,0:0:0:35:Snare.wav
109,192,87959,1,0,0:0:0:70:ride.wav
256,192,88167,1,0,0:0:0:0:
109,192,88375,1,0,0:0:0:35:bassdrum.wav
475,192,88375,1,0,0:0:0:35:bassdrum.wav
36,192,88792,1,0,0:0:0:35:bassdrum.wav
402,192,88792,1,0,0:0:0:35:bassdrum.wav
36,192,89209,1,0,0:0:0:35:Snare.wav
329,192,89209,1,0,0:0:0:35:Snare.wav
36,192,89625,1,0,0:0:0:35:bassdrum.wav
402,192,90042,1,0,0:0:0:0:
256,192,90250,1,0,0:0:0:70:bassdrum.wav
109,192,90459,1,0,0:0:0:35:bassdrum.wav
402,192,90667,1,0,0:0:0:0:
36,192,90875,1,0,0:0:0:35:Snare.wav
329,192,91084,1,0,0:0:0:0:
36,192,91292,1,0,0:0:0:0:
402,192,91500,1,0,0:0:0:0:
109,192,91709,1,0,0:0:0:35:bassdrum.wav
256,192,91709,1,0,0:0:0:35:bassdrum.wav
182,192,92125,1,0,0:0:0:0:
329,192,92334,1,0,0:0:0:35:bassdrum.wav
256,192,92542,1,0,0:0:0:35:Snare.wav
475,192,92542,1,0,0:0:0:35:Snare.wav
329,192,92959,1,0,0:0:0:0:
475,192,92959,1,0,0:0:0:0:
36,192,93375,1,0,0:0:0:0:
182,192,93584,1,0,0:0:0:50:bassdrum.wav
36,192,93792,1,0,0:0:0:35:bassdrum.wav
256,192,94000,1,0,0:0:0:0:
402,192,94209,1,0,0:0:0:20:Snare.wav
475,192,94209,1,0,0:0:0:20:Snare.wav
402,192,94417,1,0,0:0:0:20:Snare.wav
475,192,94417,1,0,0:0:0:20:Snare.wav
182,192,94625,1,0,0:0:0:70:ride.wav
256,192,94834,1,0,0:0:0:0:
36,192,95042,128,0,97542:0:0:0:35:bassdrum.wav
402,192,95042,1,0,0:0:0:35:bassdrum.wav
329,192,95459,1,0,0:0:0:0:
402,192,95667,1,0,0:0:0:35:bassdrum.wav
182,192,95875,1,0,0:0:0:35:Snare.wav
475,192,96292,1,0,0:0:0:35:bassdrum.wav
109,192,96709,1,0,0:0:0:0:
402,192,96917,1,0,0:0:0:70:bassdrum.wav
402,192,97125,1,0,0:0:0:70:bassdrum.wav
182,192,97334,1,0,0:0:0:0:
475,192,97542,1,0,0:0:0:35:Snare.wav
256,192,97750,1,0,0:0:0:0:
109,192,97959,1,0,0:0:0:0:
329,192,98167,1,0,0:0:0:0:
475,192,98375,128,0,100250:0:0:0:35:bassdrum.wav
109,192,98375,1,0,0:0:0:35:bassdrum.wav
182,192,98792,1,0,0:0:0:0:
402,192,99000,1,0,0:0:0:35:bassdrum.wav
36,192,99209,1,0,0:0:0:35:Snare.wav
36,192,99417,1,0,0:0:0:35:Snare.wav
256,192,99625,1,0,0:0:0:0:Snare.wav
109,192,100042,1,0,0:0:0:0:
329,192,100250,1,0,0:0:0:50:bassdrum.wav
109,192,100459,1,0,0:0:0:35:bassdrum.wav
402,192,100667,1,0,0:0:0:0:
182,192,100875,1,0,0:0:0:50:Snare.wav
182,192,101084,1,0,0:0:0:50:Snare.wav
329,192,101292,1,0,0:0:0:70:ride.wav
475,192,101292,1,0,0:0:0:0:
36,192,101709,1,0,0:0:0:35:bassdrum.wav
256,192,101709,1,0,0:0:0:35:bassdrum.wav
109,192,102125,1,0,0:0:0:35:bassdrum.wav
256,192,102125,1,0,0:0:0:35:bassdrum.wav
402,192,102542,1,0,0:0:0:50:Snare.wav
475,192,102542,1,0,0:0:0:0:Snare.wav
182,192,102959,1,0,0:0:0:35:bassdrum.wav
256,192,102959,1,0,0:0:0:35:bassdrum.wav
329,192,103375,1,0,0:0:0:0:
475,192,103584,1,0,0:0:0:0:
109,192,103792,1,0,0:0:0:35:bassdrum.wav
475,192,104209,1,0,0:0:0:50:Snare.wav
256,192,104417,1,0,0:0:0:0:
36,192,104625,1,0,0:0:0:0:
402,192,104834,1,0,0:0:0:0:
109,192,105042,1,0,0:0:0:70:bassdrum.wav
256,192,105042,1,0,0:0:0:0:
329,192,105459,128,0,105875:0:0:0:0:
475,192,105875,128,0,106084:0:0:0:50:Snare.wav
182,192,106084,128,0,106292:0:0:0:0:
36,192,106292,128,0,106500:0:0:0:0:
329,192,106500,128,0,106709:0:0:0:0:
402,192,106709,128,0,107125:0:0:0:0:
109,192,107125,128,0,107542:0:0:0:70:bassdrum.wav
182,192,107542,128,0,107959:0:0:0:50:Snare.wav
329,192,107959,128,0,110250:0:0:0:70:ride.wav
109,192,108375,1,0,0:0:0:70:bassdrum.wav
402,192,108375,1,0,0:0:0:50:ride01.wav
182,192,108792,1,0,0:0:0:0:
475,192,109000,1,0,0:0:0:0:
36,192,109209,1,0,0:0:0:35:Snare.wav
109,192,109625,1,0,0:0:0:35:bassdrum.wav
182,192,110042,1,0,0:0:0:0:
475,192,110250,1,0,0:0:0:50:bassdrum.wav
109,192,110459,128,0,110875:0:0:0:35:bassdrum.wav
36,192,110875,128,0,111292:0:0:0:50:Snare.wav
402,192,110875,1,0,0:0:0:0:
256,192,111292,128,0,111709:0:0:0:0:
475,192,111292,1,0,0:0:0:0:
182,192,111709,128,0,113584:0:0:0:70:bassdrum.wav
402,192,112125,1,0,0:0:0:0:
36,192,112334,1,0,0:0:0:70:bassdrum.wav
329,192,112542,1,0,0:0:0:50:Snare.wav
109,192,112959,1,0,0:0:0:0:
475,192,112959,1,0,0:0:0:0:
475,192,113375,1,0,0:0:0:0:
36,192,113584,1,0,0:0:0:70:bassdrum.wav
329,192,113792,1,0,0:0:0:70:bassdrum.wav
475,192,114000,1,0,0:0:0:0:
329,192,114209,1,0,0:0:0:50:Snare.wav
182,192,114417,1,0,0:0:0:50:Snare.wav
36,192,114625,1,0,0:0:0:70:ride.wav
402,192,114625,1,0,0:0:0:0:
182,192,114834,1,0,0:0:0:0:
109,192,115042,1,0,0:0:0:70:bassdrum.wav
402,192,115042,128,0,115459:0:0:0:0:
182,192,115459,1,0,0:0:0:70:bassdrum.wav
475,192,115459,128,0,115875:0:0:0:0:
256,192,115875,1,0,0:0:0:50:Snare.wav
36,192,115875,128,0,116292:0:0:0:0:
402,192,116292,1,0,0:0:0:70:bassdrum.wav
109,192,116292,128,0,117334:0:0:0:0:
182,192,116709,1,0,0:0:0:0:
402,192,116917,1,0,0:0:0:70:bassdrum.wav
402,192,117125,1,0,0:0:0:70:bassdrum.wav
36,192,117334,1,0,0:0:0:0:
475,192,117542,1,0,0:0:0:50:Snare.wav
256,192,117542,128,0,118375:0:0:0:0:
402,192,117750,1,0,0:0:0:0:
109,192,117959,1,0,0:0:0:0:
36,192,118167,1,0,0:0:0:0:
402,192,118375,128,0,119625:0:0:0:70:bassdrum.wav
182,192,118792,1,0,0:0:0:0:
475,192,119000,1,0,0:0:0:70:bassdrum.wav
36,192,119209,1,0,0:0:0:50:Snare.wav
256,192,119209,1,0,0:0:0:0:
109,192,119625,1,0,0:0:0:0:
475,192,119625,128,0,119834:0:0:0:0:
329,192,119834,128,0,120042:0:0:0:0:
36,192,120042,128,0,120459:0:0:0:0:
182,192,120459,1,0,0:0:0:70:bassdrum.wav
402,192,120459,128,0,120875:0:0:0:70:ride.wav
109,192,120875,1,0,0:0:0:50:Snare.wav
109,192,121084,1,0,0:0:0:50:Snare.wav
475,192,121292,1,0,0:0:0:70:bassdrum.wav
329,192,121292,1,0,0:0:0:70:ride.wav
256,192,121709,1,0,0:0:0:70:bassdrum.wav
109,192,121709,128,0,123375:0:0:0:0:
402,192,122125,1,0,0:0:0:0:
256,192,122334,1,0,0:0:0:0:
36,192,122542,1,0,0:0:0:50:Snare.wav
36,192,122959,1,0,0:0:0:70:bassdrum.wav
475,192,122959,1,0,0:0:0:0:
329,192,123375,1,0,0:0:0:0:
475,192,123584,1,0,0:0:0:70:bassdrum.wav
36,192,123792,1,0,0:0:0:70:bassdrum.wav
182,192,124000,1,0,0:0:0:0:
402,192,124209,1,0,0:0:0:50:Snare.wav
402,192,124417,1,0,0:0:0:0:
256,192,124625,1,0,0:0:0:0:
109,192,124834,1,0,0:0:0:0:
402,192,125042,128,0,126709:0:0:0:70:bassdrum.wav
256,192,125459,1,0,0:0:0:0:
109,192,125667,1,0,0:0:0:0:
36,192,125875,1,0,0:0:0:50:Snare.wav
36,192,126084,1,0,0:0:0:50:Snare.wav
256,192,126292,1,0,0:0:0:70:bassdrum.wav
475,192,126709,1,0,0:0:0:0:
182,192,126917,1,0,0:0:0:70:bassdrum.wav
182,192,127125,1,0,0:0:0:70:bassdrum.wav
329,192,127334,1,0,0:0:0:0:
475,192,127542,128,0,127959:0:0:0:50:Snare.wav
36,192,127542,1,0,0:0:0:0:
36,192,127750,1,0,0:0:0:50:Snare.wav
402,192,127959,128,0,128375:0:0:0:70:ride.wav
182,192,127959,1,0,0:0:0:0:
109,192,128375,1,0,0:0:0:70:bassdrum.wav
329,192,128375,128,0,131292:0:0:0:0:
182,192,128792,1,0,0:0:0:70:bassdrum.wav
36,192,129209,1,0,0:0:0:50:Snare.wav
475,192,129625,1,0,0:0:0:70:bassdrum.wav
182,192,130042,1,0,0:0:0:0:
109,192,130250,1,0,0:0:0:0:
36,192,130459,128,0,131292:0:0:0:70:bassdrum.wav
475,192,130875,1,0,0:0:0:50:Snare.wav
182,192,131292,1,0,0:0:0:0:
402,192,131500,1,0,0:0:0:0:
109,192,131709,1,0,0:0:0:70:bassdrum.wav
329,192,131917,1,0,0:0:0:50:Snare.wav
475,192,131917,1,0,0:0:0:0:
109,192,132125,1,0,0:0:0:0:
402,192,132334,1,0,0:0:0:70:bassdrum.wav
36,192,132542,1,0,0:0:0:50:Snare.wav
182,192,132542,1,0,0:0:0:0:
36,192,132750,1,0,0:0:0:50:tom.wav
182,192,132750,1,0,0:0:0:0:
329,192,132959,1,0,0:0:0:50:tom01.wav
475,192,133167,1,0,0:0:0:50:Snare.wav
109,192,133375,1,0,0:0:0:0:
402,192,133584,1,0,0:0:0:50:tom.wav
256,192,133792,1,0,0:0:0:50:tom01.wav
36,192,133792,1,0,0:0:0:50:ride.wav
475,192,134209,1,0,0:0:0:50:Snare.wav
475,192,134417,1,0,0:0:0:50:Snare.wav
182,192,134625,1,0,0:0:0:70:bassdrum.wav
109,192,134625,1,0,0:0:0:50:ride.wav
475,192,134834,1,0,0:0:0:50:Snare.wav
329,192,135042,1,0,0:0:0:70:bassdrum.wav
36,192,135042,1,0,0:0:0:70:bassdrum.wav
402,192,135459,1,0,0:0:0:0:
256,192,135667,1,0,0:0:0:70:bassdrum.wav
109,192,135875,1,0,0:0:0:50:Snare.wav
475,192,135875,1,0,0:0:0:0:
36,192,136292,1,0,0:0:0:70:bassdrum.wav
402,192,136292,1,0,0:0:0:0:
36,192,136709,1,0,0:0:0:0:
329,192,136709,1,0,0:0:0:0:
109,192,137125,1,0,0:0:0:70:bassdrum.wav
256,192,137334,1,0,0:0:0:0:
402,192,137542,1,0,0:0:0:50:Snare.wav
182,192,137959,1,0,0:0:0:0:
329,192,138167,1,0,0:0:0:0:
475,192,138375,1,0,0:0:0:70:bassdrum.wav
109,192,138375,1,0,0:0:0:0:
329,192,138792,1,0,0:0:0:0:
109,192,139000,1,0,0:0:0:70:bassdrum.wav
36,192,139209,1,0,0:0:0:50:Snare.wav
402,192,139209,1,0,0:0:0:0:
109,192,139625,1,0,0:0:0:0:
329,192,139625,1,0,0:0:0:0:
182,192,140042,1,0,0:0:0:0:
256,192,140042,1,0,0:0:0:0:
475,192,140459,1,0,0:0:0:70:bassdrum.wav
329,192,140667,1,0,0:0:0:0:
475,192,140875,1,0,0:0:0:50:Snare.wav
182,192,140875,1,0,0:0:0:50:ride.wav
36,192,141292,1,0,0:0:0:70:bassdrum.wav
182,192,141500,1,0,0:0:0:0:
36,192,141709,1,0,0:0:0:70:bassdrum.wav
256,192,142125,1,0,0:0:0:0:
402,192,142334,1,0,0:0:0:70:bassdrum.wav
475,192,142542,1,0,0:0:0:50:Snare.wav
109,192,142542,1,0,0:0:0:0:
329,192,142959,1,0,0:0:0:70:bassdrum.wav
109,192,143167,1,0,0:0:0:0:
36,192,143375,1,0,0:0:0:0:
256,192,143792,1,0,0:0:0:70:bassdrum.wav
109,192,144000,1,0,0:0:0:0:
36,192,144209,1,0,0:0:0:50:Snare.wav
402,192,144209,1,0,0:0:0:0:
182,192,144625,1,0,0:0:0:0:
402,192,144834,1,0,0:0:0:0:
475,192,145042,1,0,0:0:0:70:bassdrum.wav
36,192,145042,1,0,0:0:0:0:
109,192,145459,1,0,0:0:0:70:bassdrum.wav
475,192,145459,1,0,0:0:0:0:
36,192,145875,1,0,0:0:0:50:Snare.wav
475,192,145875,1,0,0:0:0:0:
182,192,146292,1,0,0:0:0:0:
329,192,146709,1,0,0:0:0:70:bassdrum.wav
109,192,147125,1,0,0:0:0:30:bassdrum.wav
402,192,147125,1,0,0:0:0:30:ride.wav
109,192,147542,1,0,0:0:0:50:Snare.wav
256,192,147542,1,0,0:0:0:0:
475,192,147750,1,0,0:0:0:50:Snare.wav
329,192,147750,1,0,0:0:0:0:
182,192,147959,1,0,0:0:0:30:bassdrum.wav
36,192,147959,1,0,0:0:0:30:ride.wav
402,192,148167,1,0,0:0:0:50:Snare.wav
109,192,148375,1,0,0:0:0:70:bassdrum.wav
256,192,148375,1,0,0:0:0:50:cymbol.wav
475,192,148792,1,0,0:0:0:0:
182,192,149000,1,0,0:0:0:70:bassdrum.wav
36,192,149209,1,0,0:0:0:50:Snare.wav
402,192,149209,1,0,0:0:0:0:
475,192,149625,1,0,0:0:0:70:bassdrum.wav
109,192,149625,1,0,0:0:0:0:
329,192,149834,1,0,0:0:0:0:
36,192,150042,1,0,0:0:0:0:
182,192,150459,1,0,0:0:0:70:bassdrum.wav
329,192,150667,1,0,0:0:0:0:
109,192,150875,1,0,0:0:0:50:Snare.wav
475,192,150875,1,0,0:0:0:0:
256,192,151292,1,0,0:0:0:0:
402,192,151500,1,0,0:0:0:0:
36,192,151709,1,0,0:0:0:70:bassdrum.wav
182,192,151709,1,0,0:0:0:0:
256,192,152125,1,0,0:0:0:0:
109,192,152334,1,0,0:0:0:70:bassdrum.wav
329,192,152542,1,0,0:0:0:50:Snare.wav
475,192,152542,1,0,0:0:0:0:
402,192,152959,1,0,0:0:0:0:
36,192,153375,1,0,0:0:0:0:
402,192,153375,1,0,0:0:0:0:
36,192,153792,1,0,0:0:0:70:bassdrum.wav
36,192,154209,1,0,0:0:0:50:ride.wav
329,192,154209,1,0,0:0:0:0:
109,192,154417,1,0,0:0:0:0:
182,192,154625,1,0,0:0:0:70:bassdrum.wav
475,192,154834,128,0,154938:0:0:0:0:
329,192,154938,128,0,155042:0:0:0:0:
109,192,155042,1,0,0:0:0:70:bassdrum.wav
402,192,155459,1,0,0:0:0:0:
256,192,155667,1,0,0:0:0:70:bassdrum.wav
36,192,155875,1,0,0:0:0:50:Snare.wav
475,192,155875,1,0,0:0:0:0:
182,192,156084,1,0,0:0:0:50:Snare.wav
256,192,156292,1,0,0:0:0:70:bassdrum.wav
402,192,156500,1,0,0:0:0:0:
475,192,156709,1,0,0:0:0:0:
256,192,157125,1,0,0:0:0:70:bassdrum.wav
109,192,157334,1,0,0:0:0:0:
36,192,157542,1,0,0:0:0:50:Snare.wav
329,192,157542,1,0,0:0:0:0:
402,192,157959,1,0,0:0:0:0:
329,192,158167,1,0,0:0:0:50:Snare.wav
36,192,158375,1,0,0:0:0:70:bassdrum.wav
182,192,158792,1,0,0:0:0:70:bassdrum.wav
329,192,159000,1,0,0:0:0:0:
475,192,159209,1,0,0:0:0:50:Snare.wav
109,192,159209,1,0,0:0:0:0:
475,192,159625,1,0,0:0:0:0:
182,192,160042,1,0,0:0:0:0:
329,192,160459,1,0,0:0:0:50:ride.wav
475,192,160459,1,0,0:0:0:0:
109,192,160667,1,0,0:0:0:50:Snare.wav
109,192,160875,1,0,0:0:0:50:Snare.wav
402,192,161084,1,0,0:0:0:70:bassdrum.wav
402,192,161292,1,0,0:0:0:70:bassdrum.wav
256,192,161500,1,0,0:0:0:50:Snare.wav
36,192,161709,128,0,162125:0:0:0:70:bassdrum.wav
329,192,162125,128,0,162334:0:0:0:0:
182,192,162334,128,0,162542:0:0:0:70:bassdrum.wav
402,192,162542,128,0,162750:0:0:0:50:Snare.wav
109,192,162750,128,0,162959:0:0:0:50:Snare.wav
475,192,162959,128,0,163167:0:0:0:70:bassdrum.wav
329,192,163167,128,0,163375:0:0:0:0:
36,192,163375,128,0,165042:0:0:0:0:
475,192,163792,1,0,0:0:0:70:bassdrum.wav
256,192,164209,1,0,0:0:0:50:Snare.wav
402,192,164209,1,0,0:0:0:0:
182,192,164625,1,0,0:0:0:0:
109,192,165042,1,0,0:0:0:0:
256,192,165042,1,0,0:0:0:0:
475,192,165459,1,0,0:0:0:0:
182,192,165875,1,0,0:0:0:50:Snare.wav
36,192,165875,1,0,0:0:0:50:ride.wav
329,192,166084,1,0,0:0:0:0:
402,192,166292,1,0,0:0:0:70:bassdrum.wav
475,192,166500,1,0,0:0:0:70:bassdrum.wav
109,192,166709,1,0,0:0:0:35:bassdrum.wav
329,192,166709,1,0,0:0:0:35:bassdrum.wav
36,192,167542,1,0,0:0:0:0:
402,192,167959,1,0,0:0:0:0:
475,192,168167,1,0,0:0:0:0:
402,192,168375,1,0,0:0:0:0:
182,192,168375,1,0,0:0:0:0:
109,192,168792,1,0,0:0:0:0:
256,192,169000,1,0,0:0:0:70:bassdrum.wav
109,192,169209,1,0,0:0:0:50:Snare.wav
475,192,169417,1,0,0:0:0:0:
329,192,169625,1,0,0:0:0:0:
182,192,169834,1,0,0:0:0:0:
475,192,170042,1,0,0:0:0:0:
329,192,170250,1,0,0:0:0:0:
109,192,170459,1,0,0:0:0:70:bassdrum.wav
256,192,170667,1,0,0:0:0:0:
109,192,170875,1,0,0:0:0:0:
329,192,171084,1,0,0:0:0:0:
36,192,171292,1,0,0:0:0:50:ride.wav
182,192,171500,1,0,0:0:0:0:
402,192,171709,1,0,0:0:0:0:
329,192,171917,1,0,0:0:0:0:
182,192,172125,128,0,172334:0:0:0:0:
475,192,172542,1,0,0:0:0:50:Snare.wav
402,192,172750,1,0,0:0:0:0:Snare.wav
256,192,172959,128,0,173167:0:0:0:70:bassdrum.wav
402,192,173375,1,0,0:0:0:0:
329,192,173584,1,0,0:0:0:0:
182,192,173792,128,0,174000:0:0:0:50:ride.wav
329,192,174209,1,0,0:0:0:50:Snare.wav
256,192,174417,1,0,0:0:0:0:
109,192,174625,128,0,174834:0:0:0:0:
402,192,175042,1,0,0:0:0:70:bassdrum.wav
329,192,175250,1,0,0:0:0:0:
182,192,175459,128,0,175667:0:0:0:0:
475,192,175875,1,0,0:0:0:50:Snare.wav
402,192,176084,1,0,0:0:0:0:
256,192,176292,128,0,176500:0:0:0:0:
402,192,176709,1,0,0:0:0:0:
329,192,176917,1,0,0:0:0:0:
182,192,177125,128,0,177334:0:0:0:50:ride.wav
329,192,177542,1,0,0:0:0:50:Snare.wav
256,192,177750,1,0,0:0:0:0:
109,192,177959,128,0,178167:0:0:0:70:bassdrum.wav
36,192,178375,1,0,0:0:0:70:bassdrum.wav
182,192,178584,1,0,0:0:0:0:
329,192,178792,128,0,179000:0:0:0:0:
182,192,179209,1,0,0:0:0:50:Snare.wav
256,192,179417,1,0,0:0:0:0:
402,192,179625,128,0,179834:0:0:0:70:bassdrum.wav
109,192,180042,1,0,0:0:0:0:
182,192,180250,1,0,0:0:0:0:
329,192,180459,128,0,180667:0:0:0:50:ride.wav
36,192,180875,1,0,0:0:0:50:Snare.wav
109,192,181084,1,0,0:0:0:0:
256,192,181292,128,0,181500:0:0:0:0:
475,192,181709,1,0,0:0:0:70:bassdrum.wav
182,192,181709,1,0,0:0:0:0:
109,192,182125,128,0,182542:0:0:0:0:
256,192,182542,128,0,182959:0:0:0:50:Snare.wav
402,192,182959,128,0,183375:0:0:0:50:ride01.wav
475,192,183375,128,0,183792:0:0:0:0:
36,192,183792,128,0,184209:0:0:0:70:bassdrum.wav
182,192,184209,128,0,184625:0:0:0:50:Snare.wav
329,192,184625,128,0,185042:0:0:0:70:bassdrum.wav
402,192,185042,128,0,186292:0:0:0:70:cymbol01.wav
36,192,186500,128,0,186604:0:0:0:0:
182,192,186604,128,0,186709:0:0:0:0:
329,192,186709,128,0,187334:0:0:0:0:
475,192,187542,128,0,187959:0:0:0:50:Snare.wav
402,192,187959,128,0,188375:0:0:0:0:
182,192,188375,128,0,189000:0:0:0:70:bassdrum.wav
329,192,189000,128,0,189209:0:0:0:0:
109,192,189417,128,0,189625:0:0:0:0:
475,192,189834,128,0,189938:0:0:0:0:
329,192,189938,128,0,190042:0:0:0:0:
109,192,190042,128,0,190667:0:0:0:0:
182,192,190667,128,0,190771:0:0:0:0:
329,192,190771,128,0,190875:0:0:0:0:
475,192,190875,128,0,191292:0:0:0:50:Snare.wav
109,192,191292,128,0,191709:0:0:0:70:bassdrum.wav
329,192,191709,128,0,192750:0:0:0:70:bassdrum.wav
475,192,192750,128,0,192959:0:0:0:0:
182,192,192959,128,0,193167:0:0:0:70:bassdrum.wav
329,192,193167,128,0,193375:0:0:0:0:
36,192,193375,128,0,193792:0:0:0:0:
182,192,193792,128,0,194209:0:0:0:70:bassdrum.wav
329,192,194209,128,0,194625:0:0:0:50:Snare.wav
475,192,194625,128,0,195042:0:0:0:70:bassdrum.wav
402,192,195042,128,0,195875:0:0:0:70:bassdrum.wav
36,192,196084,128,0,196292:0:0:0:0:
329,192,196292,128,0,196500:0:0:0:50:ride01.wav
182,192,196500,128,0,196709:0:0:0:0:
475,192,196709,128,0,197125:0:0:0:50:cymbol01.wav
329,192,197125,128,0,197542:0:0:0:70:bassdrum.wav
182,192,197542,128,0,197959:0:0:0:50:Snare.wav
36,192,197959,128,0,198375:0:0:0:70:bassdrum.wav
109,192,198375,128,0,199834:0:0:0:70:bassdrum.wav
402,192,199834,1,0,0:0:0:0:
402,192,200042,128,0,201500:0:0:0:50:Snare.wav
109,192,200042,1,0,0:0:0:0:
36,192,201500,1,0,0:0:0:60:Snare.wav
182,192,201604,1,0,0:0:0:60:Snare.wav
475,192,201709,1,0,0:0:0:0:Snare.wav
329,192,203375,1,0,0:0:0:0:
475,192,203791,1,0,0:0:0:0:
109,192,204208,1,0,0:0:0:0:
402,192,204625,1,0,0:0:0:0:
36,192,204833,1,0,0:0:0:0:
256,192,205041,1,0,0:0:0:0:
109,192,205458,1,0,0:0:0:0:
475,192,205875,1,0,0:0:0:0:
182,192,206291,1,0,0:0:0:0:
402,192,206500,1,0,0:0:0:0:
109,192,206708,1,0,0:0:0:0:
329,192,207750,1,0,0:0:0:0:
475,192,207958,1,0,0:0:0:0:
109,192,208375,1,0,0:0:0:0:
256,192,208375,1,0,0:0:0:0:
36,192,209208,1,0,0:0:0:0:
182,192,209208,1,0,0:0:0:0:
402,192,209833,1,0,0:0:0:0:
182,192,210041,1,0,0:0:0:0:
475,192,210458,1,0,0:0:0:0:
329,192,210875,1,0,0:0:0:0:
36,192,211291,1,0,0:0:0:0:
402,192,211500,1,0,0:0:0:0:
109,192,211708,1,0,0:0:0:0:
475,192,212125,1,0,0:0:0:0:
36,192,212541,1,0,0:0:0:0:
329,192,212750,1,0,0:0:0:0:
475,192,212958,1,0,0:0:0:0:
182,192,213166,1,0,0:0:0:0:
36,192,213375,1,0,0:0:0:0:
402,192,213375,1,0,0:0:0:0:
329,192,213791,1,0,0:0:0:0:
182,192,214208,1,0,0:0:0:0:
475,192,214416,1,0,0:0:0:0:
329,192,214625,1,0,0:0:0:0:
36,192,215041,1,0,0:0:0:0:
402,192,215041,1,0,0:0:0:0:
109,192,215666,1,0,0:0:0:0:
256,192,215875,1,0,0:0:0:0:
329,192,215875,1,0,0:0:0:0:
182,192,216708,1,0,0:0:0:0:
475,192,216708,1,0,0:0:0:0:
402,192,217125,1,0,0:0:0:0:
329,192,217333,1,0,0:0:0:0:
182,192,217541,1,0,0:0:0:50:ride.wav
36,192,217750,1,0,0:0:0:0:
475,192,217958,1,0,0:0:0:0:
329,192,218166,1,0,0:0:0:0:
182,192,218375,1,0,0:0:0:0:
256,192,218583,1,0,0:0:0:0:
109,192,218791,1,0,0:0:0:0:
36,192,219000,1,0,0:0:0:0:
475,192,219208,1,0,0:0:0:50:ride.wav
329,192,219416,1,0,0:0:0:0:
109,192,219625,1,0,0:0:0:0:
402,192,219833,1,0,0:0:0:0:
36,192,220041,1,0,0:0:0:0:
256,192,220250,1,0,0:0:0:0:
402,192,220458,1,0,0:0:0:0:
475,192,220666,1,0,0:0:0:0:
36,192,220875,1,0,0:0:0:50:ride.wav
182,192,221083,1,0,0:0:0:0:
402,192,221291,1,0,0:0:0:0:
475,192,221500,1,0,0:0:0:0:
36,192,221708,1,0,0:0:0:0:
182,192,221916,1,0,0:0:0:0:
329,192,222125,1,0,0:0:0:0:
475,192,222333,1,0,0:0:0:50:ride.wav
256,192,222437,1,0,0:0:0:50:ride.wav
109,192,222541,1,0,0:0:0:50:ride.wav
402,192,222750,1,0,0:0:0:0:
109,192,222958,1,0,0:0:0:55:bassdrum.wav
402,192,222958,1,0,0:0:0:0:
36,192,223375,1,0,0:0:0:70:bassdrum.wav
402,192,223375,1,0,0:0:0:0:
36,192,223791,1,0,0:0:0:70:bassdrum.wav
402,192,223791,1,0,0:0:0:0:
36,192,224208,1,0,0:0:0:70:bassdrum.wav
402,192,224208,1,0,0:0:0:0:
109,192,224625,1,0,0:0:0:70:bassdrum.wav
475,192,224625,1,0,0:0:0:40:Snare.wav
109,192,225041,1,0,0:0:0:70:bassdrum.wav
475,192,225041,1,0,0:0:0:40:Snare.wav
329,192,225250,1,0,0:0:0:0:
109,192,225458,1,0,0:0:0:70:tom.wav
475,192,225458,1,0,0:0:0:0:
256,192,225666,1,0,0:0:0:70:tom.wav
36,192,225875,1,0,0:0:0:70:tom01.wav
402,192,225875,1,0,0:0:0:0:
182,192,226083,1,0,0:0:0:70:tom.wav
36,192,226291,1,0,0:0:0:70:tom01.wav
402,192,226291,1,0,0:0:0:0:
256,192,226500,1,0,0:0:0:70:bassdrum.wav
109,192,226708,1,0,0:0:0:70:bassdrum.wav
402,192,226708,128,0,229416:0:0:0:60:cymbol.wav
182,192,227333,1,0,0:0:0:70:bassdrum.wav
36,192,227541,1,0,0:0:0:50:Snare.wav
256,192,227958,1,0,0:0:0:50:ride.wav
475,192,228375,1,0,0:0:0:0:
182,192,228791,1,0,0:0:0:70:bassdrum.wav
36,192,229000,1,0,0:0:0:0:
329,192,229208,1,0,0:0:0:50:Snare.wav
109,192,229416,1,0,0:0:0:0:
329,192,229625,128,0,229833:0:0:0:50:ride.wav
475,192,229833,128,0,230041:0:0:0:0:
182,192,230041,128,0,230875:0:0:0:70:bassdrum.wav
256,192,230458,1,0,0:0:0:50:ride.wav
475,192,230666,1,0,0:0:0:0:
109,192,230875,128,0,231291:0:0:0:50:Snare.wav
329,192,230875,1,0,0:0:0:0:
36,192,231291,128,0,231708:0:0:0:50:ride.wav
402,192,231291,1,0,0:0:0:0:
475,192,231708,1,0,0:0:0:0:
329,192,231708,128,0,232541:0:0:0:0:
182,192,232125,1,0,0:0:0:70:bassdrum.wav
402,192,232541,128,0,233375:0:0:0:50:Snare.wav
109,192,232541,1,0,0:0:0:50:ride.wav
36,192,232958,1,0,0:0:0:70:bassdrum.wav
182,192,233166,1,0,0:0:0:0:
475,192,233375,128,0,234208:0:0:0:70:bassdrum.wav
256,192,233791,1,0,0:0:0:50:ride.wav
109,192,234000,1,0,0:0:0:70:bassdrum.wav
36,192,234208,1,0,0:0:0:50:Snare.wav
329,192,234416,128,0,234625:0:0:0:0:
182,192,234625,128,0,234833:0:0:0:70:bassdrum.wav
36,192,234833,128,0,235041:0:0:0:0:
402,192,235041,128,0,236708:0:0:0:0:
182,192,235458,1,0,0:0:0:70:bassdrum.wav
109,192,235875,1,0,0:0:0:50:Snare.wav
256,192,236083,1,0,0:0:0:0:
475,192,236291,1,0,0:0:0:50:ride.wav
36,192,236500,1,0,0:0:0:50:Snare.wav
329,192,236708,1,0,0:0:0:70:bassdrum.wav
109,192,236916,1,0,0:0:0:50:Snare.wav
475,192,237125,1,0,0:0:0:70:bassdrum.wav
182,192,237541,1,0,0:0:0:50:Snare.wav
182,192,237750,1,0,0:0:0:50:Snare.wav
402,192,237958,1,0,0:0:0:70:bassdrum.wav
256,192,238166,1,0,0:0:0:50:tom.wav
36,192,238375,1,0,0:0:0:0:
475,192,238583,1,0,0:0:0:0:
329,192,238791,1,0,0:0:0:50:Snare.wav
109,192,239000,1,0,0:0:0:50:Snare.wav
256,192,239208,1,0,0:0:0:50:Snare.wav
475,192,239416,1,0,0:0:0:50:Snare.wav
36,192,239625,1,0,0:0:0:70:tom.wav
182,192,239833,1,0,0:0:0:70:bassdrum.wav
402,192,240041,1,0,0:0:0:70:bassdrum.wav
329,192,240041,1,0,0:0:0:40:cymbol.wav
109,192,240666,1,0,0:0:0:70:bassdrum.wav
256,192,240875,1,0,0:0:0:60:cymbol.wav
329,192,240875,1,0,0:0:0:70:Snare.wav
475,192,241291,1,0,0:0:0:70:bassdrum.wav
182,192,241500,1,0,0:0:0:0:
36,192,241708,1,0,0:0:0:0:
402,192,241916,1,0,0:0:0:0:
402,192,242333,1,0,0:0:0:0:
109,192,242541,1,0,0:0:0:50:Snare.wav
329,192,242958,1,0,0:0:0:50:ride.wav
475,192,243166,1,0,0:0:0:0:
182,192,243375,1,0,0:0:0:70:bassdrum.wav
329,192,243791,1,0,0:0:0:50:ride.wav
36,192,244000,1,0,0:0:0:70:bassdrum.wav
402,192,244208,1,0,0:0:0:50:Snare.wav
182,192,244625,1,0,0:0:0:50:ride.wav
329,192,245041,1,0,0:0:0:0:ride.wav
36,192,245458,1,0,0:0:0:70:bassdrum.wav
182,192,245666,1,0,0:0:0:0:
402,192,245875,1,0,0:0:0:50:Snare.wav
109,192,246187,1,0,0:0:0:0:
475,192,246500,1,0,0:0:0:0:
329,192,246708,1,0,0:0:0:70:bassdrum.wav
109,192,247125,1,0,0:0:0:50:ride.wav
402,192,247333,1,0,0:0:0:0:
182,192,247541,1,0,0:0:0:50:Snare.wav
475,192,247750,1,0,0:0:0:0:
329,192,247958,1,0,0:0:0:50:ride.wav
182,192,248166,1,0,0:0:0:0:
36,192,248375,128,0,249416:0:0:0:0:
109,192,248791,1,0,0:0:0:50:ride.wav
256,192,249000,1,0,0:0:0:0:
475,192,249208,1,0,0:0:0:50:Snare.wav
475,192,249416,1,0,0:0:0:50:Snare.wav
182,192,249625,128,0,249833:0:0:0:50:ride.wav
402,192,249833,128,0,250041:0:0:0:50:Snare.wav
475,192,250041,128,0,250458:0:0:0:70:bassdrum.wav
182,192,250458,128,0,250875:0:0:0:50:ride.wav
36,192,250875,128,0,251291:0:0:0:50:Snare.wav
329,192,250875,1,0,0:0:0:0:
402,192,251291,128,0,251708:0:0:0:50:ride.wav
109,192,251708,128,0,252125:0:0:0:0:
182,192,251708,1,0,0:0:0:0:
256,192,252125,1,0,0:0:0:70:bassdrum.wav
109,192,252333,1,0,0:0:0:50:Snare.wav
402,192,252333,1,0,0:0:0:0:
109,192,252541,1,0,0:0:0:50:Snare.wav
402,192,252541,1,0,0:0:0:0:
182,192,252750,1,0,0:0:0:50:tom.wav
36,192,252958,1,0,0:0:0:50:tom01.wav
182,192,253166,1,0,0:0:0:50:Snare.wav
329,192,253375,1,0,0:0:0:70:bassdrum.wav
475,192,253375,1,0,0:0:0:0:
402,192,253791,1,0,0:0:0:50:ride.wav
329,192,254208,1,0,0:0:0:50:Snare.wav
182,192,254625,1,0,0:0:0:50:ride.wav
36,192,255875,1,0,0:0:0:50:Snare.wav
182,192,256291,1,0,0:0:0:0:
256,192,256708,1,0,0:0:0:70:bassdrum.wav
475,192,257125,1,0,0:0:0:50:ride.wav
402,192,257541,1,0,0:0:0:50:Snare.wav
182,192,257750,1,0,0:0:0:50:Snare.wav
36,192,257958,1,0,0:0:0:70:bassdrum.wav
329,192,258166,1,0,0:0:0:0:
109,192,258375,1,0,0:0:0:50:cymbol01.wav
475,192,258375,1,0,0:0:0:0:
36,192,259208,1,0,0:0:0:0:
475,192,259208,1,0,0:0:0:0:
36,192,259625,1,0,0:0:0:70:bassdrum.wav
402,192,259625,1,0,0:0:0:0:
36,192,260041,1,0,0:0:0:70:bassdrum.wav
329,192,260041,1,0,0:0:0:50:cymbol.wav
182,192,260458,1,0,0:0:0:0:
475,192,260875,1,0,0:0:0:50:Snare.wav
329,192,261083,1,0,0:0:0:0:
36,192,261291,1,0,0:0:0:70:bassdrum.wav
329,192,261500,1,0,0:0:0:0:
475,192,261708,1,0,0:0:0:0:
109,192,262125,1,0,0:0:0:70:bassdrum.wav
109,192,262541,1,0,0:0:0:50:Snare.wav
182,192,262541,1,0,0:0:0:0:
329,192,262750,1,0,0:0:0:0:
475,192,262958,1,0,0:0:0:70:bassdrum.wav
36,192,263166,1,0,0:0:0:0:
329,192,263375,1,0,0:0:0:70:bassdrum.wav
256,192,263583,1,0,0:0:0:0:
109,192,263791,1,0,0:0:0:0:
36,192,264000,1,0,0:0:0:0:
402,192,264208,1,0,0:0:0:0:
329,192,264416,1,0,0:0:0:0:
182,192,264625,1,0,0:0:0:50:ride.wav
109,192,264833,1,0,0:0:0:0:
475,192,265041,1,0,0:0:0:0:
402,192,265250,1,0,0:0:0:0:
256,192,265458,1,0,0:0:0:70:bassdrum.wav
182,192,265666,1,0,0:0:0:0:
402,192,265875,1,0,0:0:0:50:Snare.wav
329,192,266083,1,0,0:0:0:0:
182,192,266291,1,0,0:0:0:70:bassdrum.wav
109,192,266500,1,0,0:0:0:0:
36,192,266708,1,0,0:0:0:50:cymbol01.wav
475,192,266708,1,0,0:0:0:0:
182,192,267541,1,0,0:0:0:70:Piano 29.wav
402,192,268166,1,0,0:0:0:70:Piano 30.wav
402,192,268375,1,0,0:0:0:70:Piano 31.wav
109,192,268791,1,0,0:0:0:70:Piano 32.wav
329,192,269208,1,0,0:0:0:70:Piano 33.wav
475,192,269625,1,0,0:0:0:70:Piano 34.wav
182,192,270041,1,0,0:0:0:70:Piano 35.wav
36,192,271083,1,0,0:0:0:70:Piano 36.wav
109,192,271291,1,0,0:0:0:70:Piano 37.wav
256,192,271500,1,0,0:0:0:70:Piano 38.wav
402,192,271708,1,0,0:0:0:70:Piano 39.wav
475,192,272333,1,0,0:0:0:70:Piano 40.wav
475,192,272541,1,0,0:0:0:60:Piano 41.wav
109,192,272958,1,0,0:0:0:60:ride.wav
402,192,273166,1,0,0:0:0:70:Piano 42.wav
182,192,273270,1,0,0:0:0:70:Piano 43.wav
36,192,273375,1,0,0:0:0:70:Acoustic Guitar 1.wav
329,192,273739,1,0,0:0:0:70:Acoustic Guitar 2-1.wav
402,192,273791,1,0,0:0:0:70:Acoustic Guitar 2-2.wav
182,192,274156,1,0,0:0:0:70:Acoustic Guitar 3-1.wav
109,192,274208,1,0,0:0:0:50:Acoustic Guitar 3-2.wav
475,192,274572,1,0,0:0:0:70:Acoustic Guitar 4-1.wav
402,192,274625,1,0,0:0:0:70:Acoustic Guitar 4-2.wav
36,192,274989,1,0,0:0:0:70:Acoustic Guitar 5-1.wav
109,192,275041,1,0,0:0:0:70:Acoustic Guitar 5-2.wav
475,192,275041,1,0,0:0:0:50:ride.wav
402,192,275472,1,0,0:0:0:70:bassdrum.wav
182,192,275699,1,0,0:0:0:50:bassdrum.wav
36,192,275926,1,0,0:0:0:50:Snare.wav
402,192,276178,1,0,0:0:0:50:bassdrum.wav
182,192,276430,1,0,0:0:0:70:bassdrum.wav
329,192,276702,1,0,0:0:0:0:
475,192,276975,128,0,279727:0:0:0:0:
182,192,276975,1,0,0:0:0:0:
36,192,276975,1,0,0:0:0:50:cymbol.wav
256,192,280002,1,0,0:0:0:0:
182,192,280071,1,0,0:0:0:0:
109,192,280140,1,0,0:0:0:0:
36,192,280208,1,0,0:0:0:0:
402,192,280277,128,0,285507:0:0:0:0:
