osu file format v9

[General]
AudioFilename: _.mp3
AudioLeadIn: 1500
PreviewTime: 55895
Countdown: 0
SampleSet: Normal
StackLeniency: 0.7
Mode: 1
LetterboxInBreaks: 0

[Editor]
DistanceSpacing: 0
BeatDivisor: 4
GridSize: 4

[Metadata]
Title:Unmei no Chikai (Short Ver.)
Artist:Misato Aki
Creator:Mythol
Version:tTaiko
Source:Lunaris Filia ~Kiss to Keiyaku to Shinku no Hitomi~
Tags:visual novel opening hentai eroge game kosiga Mixagji Laurier those

[Difficulty]
HPDrainRate:6
CircleSize:5
OverallDifficulty:6
ApproachRate:5
SliderMultiplier:1.4
SliderTickRate:1

[Events]
//Background and Video events
0,0,"taiko.png"
//Break Periods
//Storyboard Layer 0 (Background)
//Storyboard Layer 1 (Fail)
//Storyboard Layer 2 (Pass)
//Storyboard Layer 3 (Foreground)
//Storyboard Sound Samples
//Background Colour Transformations
3,100,163,162,255

[TimingPoints]
695,342.857142857143,4,1,0,80,1,0
56752,-100,4,1,0,80,0,1
81609,-100,4,1,0,80,0,0

[Colours]
Combo1 : 0,0,255
Combo2 : 255,0,0
Combo3 : 0,0,255
Combo4 : 255,0,0

[HitObjects]
256,192,2066,1,4
256,192,3437,1,4
256,192,4809,1,4
256,192,6180,1,4
256,192,7552,1,4
256,192,7895,5,8
256,192,8066,5,0
256,192,8152,1,0
256,192,8237,5,8
256,192,8409,5,0
256,192,8495,1,0
256,192,8580,5,8
256,192,8752,5,0
256,192,8837,1,0
256,192,8923,5,8
256,192,9009,1,8
256,192,9095,1,8
256,192,9180,1,8
256,192,9266,5,0
256,192,9352,1,0
256,192,9437,1,0
256,192,9523,1,0
256,192,9609,5,8
256,192,9695,1,8
256,192,9780,5,0
256,192,9866,1,0
256,192,9952,5,8
256,192,10037,1,8
256,192,10123,5,0
256,192,10209,1,0
256,192,10295,1,0
256,192,10466,1,0
256,192,10552,1,0
256,192,10637,5,8
256,192,10809,5,0
256,192,10980,1,0
256,192,11066,1,0
256,192,11152,5,8
256,192,11323,1,8
256,192,11409,1,8
256,192,11495,1,8
256,192,11666,1,12
256,192,11837,1,12
256,192,12180,1,12
256,192,12523,5,0
256,192,12695,5,8
256,192,12866,1,8
256,192,12952,1,8
256,192,13037,5,0
256,192,13380,5,8
256,192,13637,1,8
256,192,13723,5,0
256,192,13895,1,0
256,192,14066,5,8
256,192,14237,5,4
256,192,14580,1,0
256,192,14752,5,8
256,192,14923,1,8
256,192,15009,1,8
256,192,15095,5,0
256,192,15266,1,0
256,192,15437,5,8
256,192,15609,5,0
256,192,15780,1,4
256,192,16123,5,8
256,192,16380,1,8
256,192,16466,5,0
256,192,16637,1,0
256,192,16809,5,8
256,192,16980,5,4
256,192,17323,1,0
256,192,17495,5,8
256,192,17837,5,0
256,192,18009,1,0
256,192,18180,5,8
256,192,18352,5,0
256,192,18523,1,4
256,192,18866,5,8
256,192,19123,1,8
256,192,19209,5,0
256,192,19380,1,0
256,192,19552,5,8
256,192,19723,5,4
256,192,20066,1,0
256,192,20237,5,8
256,192,20409,1,8
256,192,20580,5,0
256,192,20752,1,0
256,192,20923,5,8
256,192,21266,5,4
256,192,21437,1,0
256,192,21609,5,8
256,192,21780,5,0
256,192,21952,1,0
256,192,22123,5,8
256,192,22295,5,0
256,192,22466,1,4
256,192,22809,5,8
256,192,22980,5,0
256,192,23152,1,0
256,192,23323,5,8
256,192,23495,5,0
256,192,23666,5,8
256,192,23837,5,0
256,192,24009,1,4
256,192,24695,2,0,B|296:192,8,35
256,192,26752,5,8
256,192,27437,2,0,B|296:192,8,35
256,192,28809,1,8
256,192,29495,1,8
256,192,29837,5,0
256,192,30180,2,0,B|296:192,8,35
256,192,32237,5,8
256,192,32580,5,0
256,192,32923,2,0,B|296:192,8,35
256,192,34295,5,8
256,192,34980,5,4
256,192,35152,1,0
256,192,35237,1,0
256,192,35323,5,8
256,192,35495,5,0
256,192,35666,5,8
256,192,35837,5,0
256,192,36009,5,8
256,192,36180,5,0
256,192,36352,5,8
256,192,36437,1,8
256,192,36523,5,0
256,192,36609,1,0
256,192,36695,5,8
256,192,36952,5,0
256,192,37037,5,8
256,192,37209,5,0
256,192,37380,5,8
256,192,37552,1,8
256,192,37637,1,8
256,192,37723,5,0
256,192,37895,1,0
256,192,37980,1,0
256,192,38066,5,8
256,192,38237,5,0
256,192,38409,5,8
256,192,38580,1,8
256,192,38752,5,0
256,192,38837,1,0
256,192,38923,5,8
256,192,39095,1,8
256,192,39180,1,8
256,192,39266,5,0
256,192,39352,5,8
256,192,39437,1,8
256,192,39695,1,8
256,192,39780,5,0
256,192,39952,1,0
256,192,40037,1,0
256,192,40123,5,8
256,192,40209,5,0
256,192,40295,5,8
256,192,40380,1,8
256,192,40466,5,0
256,192,40637,1,0
256,192,40809,5,8
256,192,40980,5,0
256,192,41152,5,8
256,192,41323,1,8
256,192,41495,5,0
256,192,41580,1,0
256,192,41666,5,8
256,192,41837,5,0
256,192,41923,5,8
256,192,42009,5,0
256,192,42095,1,0
256,192,42180,5,8
256,192,42437,1,8
256,192,42523,5,0
256,192,42695,1,0
256,192,42866,5,8
256,192,43037,1,8
256,192,43209,5,0
256,192,43380,1,0
256,192,43552,5,8
256,192,43723,5,0
256,192,43895,1,0
256,192,44066,1,0
256,192,44237,5,8
256,192,44323,1,8
256,192,44409,5,0
256,192,44580,5,8
256,192,44752,1,8
256,192,44923,5,0
256,192,45095,1,4
256,192,45437,1,0
256,192,45609,5,8
256,192,45695,5,0
256,192,45780,5,8
256,192,45866,1,8
256,192,45952,5,0
256,192,46123,1,0
256,192,46295,5,12
256,192,46552,1,8
256,192,46637,5,0
256,192,46809,1,0
256,192,46980,5,8
256,192,47152,5,0
256,192,47323,5,8
256,192,47409,1,8
256,192,47495,5,0
256,192,47580,1,0
256,192,47666,5,8
256,192,47837,5,0
256,192,47923,1,0
256,192,48009,5,8
256,192,48180,5,0
256,192,48352,5,8
256,192,48523,1,8
256,192,48695,5,0
256,192,48866,1,0
256,192,49037,5,8
256,192,49209,5,0
256,192,49380,5,8
256,192,49552,1,8
256,192,49723,5,0
256,192,49895,5,8
256,192,50066,5,0
256,192,50237,5,8
256,192,50323,1,8
256,192,50409,5,0
256,192,50580,5,12
256,192,50923,1,12
256,192,51095,5,0
256,192,51266,5,12
256,192,51609,5,0
256,192,51780,5,12
256,192,51952,5,0
256,192,52123,1,0
256,192,52295,1,0
256,192,52466,5,8
256,192,52638,5,0
256,192,52809,1,0
256,192,52980,1,0
256,192,53152,5,8
256,192,53323,1,8
256,192,53409,5,0
256,192,53495,1,0
256,192,53666,1,0
256,192,53837,5,8
256,192,54180,1,8
256,192,54352,5,4
256,192,54523,1,4
256,192,54866,1,4
256,192,55037,1,0
256,192,55095,1,0
256,192,55152,1,0
256,192,55209,5,8
256,192,55380,5,0
256,192,55723,5,12
256,192,55895,5,4
256,192,56580,1,0
256,192,56752,1,4
256,192,57095,1,0
256,192,57266,5,8
256,192,57437,1,8
256,192,57523,1,8
256,192,57609,5,0
256,192,57780,1,0
256,192,57952,5,8
256,192,58123,1,12
256,192,58295,5,0
256,192,58466,1,0
256,192,58637,5,8
256,192,58809,5,0
256,192,58980,1,0
256,192,59152,1,0
256,192,59323,5,8
256,192,59495,5,0
256,192,59666,1,0
256,192,59837,1,0
256,192,59923,1,0
256,192,60009,5,8
256,192,60180,1,8
256,192,60266,1,8
256,192,60352,5,0
256,192,60523,5,8
256,192,60695,5,0
256,192,60780,1,0
256,192,60866,5,8
256,192,61037,5,0
256,192,61209,1,0
256,192,61380,5,8
256,192,61552,1,8
256,192,61637,5,0
256,192,61723,5,8
256,192,61895,5,0
256,192,62066,5,8
256,192,62237,1,8
256,192,62409,5,4
256,192,62580,1,0
256,192,62752,5,8
256,192,62923,5,0
256,192,63095,5,8
256,192,63266,5,0
256,192,63437,1,0
256,192,63609,5,12
256,192,63952,5,0
256,192,64123,5,8
256,192,64295,5,0
256,192,64380,5,8
256,192,64466,5,0
256,192,64637,1,0
256,192,64809,5,8
256,192,64980,5,0
256,192,65152,1,4
256,192,65323,1,0
256,192,65495,5,8
256,192,65666,5,0
256,192,65837,5,8
256,192,66009,5,0
256,192,66180,5,8
256,192,66352,1,8
256,192,66523,5,0
256,192,66695,5,8
256,192,66866,1,8
256,192,67037,5,0
256,192,67123,1,0
256,192,67209,5,8
256,192,67380,1,8
256,192,67552,5,0
256,192,67723,1,4
256,192,67895,1,0
256,192,68066,1,0
256,192,68237,5,8
256,192,68409,1,8
256,192,68580,5,0
256,192,68752,1,0
256,192,68923,5,8
256,192,69095,5,4
256,192,69437,1,0
256,192,69609,5,8
256,192,69780,5,0
256,192,69866,5,8
256,192,69952,5,0
256,192,70123,1,0
256,192,70295,5,8
256,192,70466,1,8
256,192,70637,5,0
256,192,70809,1,0
256,192,70980,5,8
256,192,71152,1,8
256,192,71237,1,8
256,192,71323,5,0
256,192,71495,1,0
256,192,71666,5,8
256,192,71837,5,0
256,192,72009,1,0
256,192,72180,1,0
256,192,72352,5,8
256,192,72523,5,0
256,192,72609,1,0
256,192,72695,5,8
256,192,72866,5,0
256,192,73037,5,8
256,192,73209,5,0
256,192,73380,1,4
256,192,73552,1,0
256,192,73723,5,8
256,192,73895,5,0
256,192,73980,1,0
256,192,74066,1,0
256,192,74237,1,0
256,192,74409,5,8
256,192,74580,1,8
256,192,74752,5,0
256,192,74923,1,0
256,192,75095,5,8
256,192,75266,5,0
256,192,75352,1,0
256,192,75437,1,0
256,192,75609,1,0
256,192,75695,1,0
256,192,75780,5,8
256,192,75952,1,8
256,192,76123,5,0
256,192,76295,1,0
256,192,76466,5,8
256,192,76637,5,0
256,192,76809,5,8
256,192,76980,1,8
256,192,77152,5,0
256,192,77323,1,4
256,192,77666,5,12
256,192,77837,1,12
256,192,78009,5,0
256,192,78095,5,8
256,192,78180,5,0
256,192,78352,1,0
256,192,78523,5,12
256,192,78695,5,0
256,192,78866,1,0
256,192,79037,5,12
256,192,79209,1,12
256,192,79380,5,0
256,192,79552,5,8
256,192,79723,5,0
256,192,79809,1,0
256,192,79895,5,8
256,192,80066,1,8
256,192,80237,5,0
256,192,80409,1,0
256,192,80580,5,8
256,192,80752,5,0
256,192,80923,5,8
256,192,81095,5,0
256,192,81266,1,0
256,192,81437,5,8
256,192,81609,5,4
256,192,81952,5,8
256,192,82295,1,8
256,192,82467,5,0
256,192,82638,5,8
256,192,82809,5,4
256,192,83152,1,0
256,192,83323,5,8
256,192,83495,1,8
256,192,83580,1,8
256,192,83666,5,0
256,192,83837,1,0
256,192,84009,5,8
256,192,84352,5,4
256,192,84695,5,8
256,192,84866,1,8
256,192,84952,1,8
256,192,85037,5,0
256,192,85209,1,0
256,192,85380,5,8
256,192,85552,5,4
256,192,85895,1,0
256,192,86066,5,8
256,192,86237,5,0
256,192,86409,5,8
256,192,86580,5,0
256,192,86752,5,8
256,192,86923,5,0
256,192,87095,1,4
256,192,87437,5,8
256,192,87609,5,0
256,192,87695,5,8
256,192,87780,5,0
256,192,87952,1,0
256,192,88123,5,8
256,192,88295,5,4
256,192,88637,1,0
256,192,88809,5,8
256,192,88980,1,8
256,192,89066,1,8
256,192,89152,5,0
256,192,89323,1,0
256,192,89495,5,8
256,192,89837,5,0
256,192,90009,5,8
256,192,90180,1,8
256,192,90352,1,8
256,192,90523,5,0
256,192,90695,5,8
256,192,90866,1,8
256,192,91037,5,4
256,192,91380,1,0
256,192,91552,5,8
256,192,91723,5,0
256,192,91895,5,8
256,192,92066,5,0
256,192,92237,5,8
256,192,92409,1,8
256,192,92580,5,4
