osu file format v9

[General]
AudioFilename: _.mp3
AudioLeadIn: 1500
PreviewTime: 55895
Countdown: 0
SampleSet: Soft
StackLeniency: 0.7
Mode: 0
LetterboxInBreaks: 0

[Editor]
DistanceSpacing: 1
BeatDivisor: 4
GridSize: 4

[Metadata]
Title:Unmei no Chikai (Short Ver.)
Artist:Misato Aki
Creator:Mythol
Version:Normal
Source:Lunaris Filia ~Kiss to Keiyaku to Shinku no Hitomi~
Tags:visual novel opening hentai eroge game kosiga Mixagji Laurier those

[Difficulty]
HPDrainRate:4
CircleSize:3
OverallDifficulty:4
ApproachRate:5
SliderMultiplier:1
SliderTickRate:1

[Events]
//Background and Video events
Video,0,"video.avi"
0,0,"Normal.jpg"
//Break Periods
//Storyboard Layer 0 (Background)
//Storyboard Layer 1 (Fail)
//Storyboard Layer 2 (Pass)
//Storyboard Layer 3 (Foreground)
//Storyboard Sound Samples
//Background Colour Transformations
3,100,163,162,255

[TimingPoints]
695,342.857142857143,4,2,1,90,1,0
2152,-100,4,2,1,70,0,0
7809,-100,4,2,1,40,0,0
9952,-100,4,2,1,70,0,0
11580,-100,4,1,0,30,0,0
12952,-100,4,2,1,70,0,0
21180,-100,4,2,1,50,0,0
21952,-100,4,2,1,60,0,0
22295,-100,4,2,1,70,0,0
23923,-100,4,2,1,60,0,0
34895,-100,4,2,1,70,0,0
35580,-100,4,1,0,40,0,0
36266,-100,4,2,1,70,0,0
36952,-100,4,1,0,50,0,0
39009,-100,4,2,1,70,0,0
40037,-100,4,1,0,50,0,0
41752,-100,4,2,1,70,0,0
42437,-100,4,1,0,40,0,0
43123,-100,4,1,0,50,0,0
44152,-100,4,1,0,60,0,0
44495,-100,4,1,0,70,0,0
45009,-100,4,2,1,90,0,0
45180,-100,4,2,1,70,0,0
53495,-100,4,2,1,50,0,0
56752,-100,4,2,1,80,0,1
66523,-100,4,2,1,50,0,0
67723,-100,4,2,1,80,0,1
76123,-100,4,2,1,70,0,1
77495,-100,4,2,1,60,0,1
80152,-100,4,2,1,30,0,1
80837,-100,4,1,0,30,0,1
81180,-100,4,1,0,40,0,1
81609,-100,4,2,1,70,0,0

[Colours]
Combo1 : 139,250,177
Combo2 : 255,179,255
Combo3 : 51,189,249
Combo4 : 255,169,83

[HitObjects]
132,176,2066,2,0,B|164:84|256:52|256:52|360:112,1,300,4|0
380,208,3437,2,0,B|348:300|256:332|256:332|152:272,1,300,4|0
132,176,4809,6,0,B|187:211|270:159|259:129|248:99|332:47|387:82,1,300,4|0
428,172,6180,2,0,B|478:245|442:333|354:369|280:319,1,300,4|0
192,272,7552,5,4
152,180,7895,1,8
200,92,8237,1,0
300,100,8580,1,8
256,192,8923,12,4,10294
256,244,11666,6,0,B|256:192,1,50,2|2
328,124,12180,1,2
400,192,12523,2,0,B|400:244,2,50,2|2|0
424,148,13037,6,0,B|438:99|407:46|353:15|305:29,1,200,4|0
224,88,14066,1,8
200,132,14237,2,0,B|152:200|152:200|88:216,1,150,4|8
136,304,15094,1,2
232,336,15437,1,10
332,332,15780,6,0,B|416:276,1,99.9999999999999,4|8
444,180,16466,2,0,B|453:100|394:44,2,150,0|4|8
416,276,17837,1,2
320,304,18180,1,8
220,312,18523,6,0,B|168:318|127:287,2,99.9999999999999,4|8|0
256,220,19552,1,8
256,172,19723,2,0,B|232:132|256:100|280:68|256:28,1,150,4|8
160,52,20580,2,0,B|76:108,1,99.9999999999999,2|10
48,204,21266,6,0,B|92:296|92:296|188:324|188:324|284:304|284:304|316:264,1,350,4|4
300,96,24009,6,0,B|350:85|403:109|436:157|434:209,2,200,4|2|0
124,188,26066,1,2
164,280,26409,1,0
256,320,26752,2,0,B|362:332|436:254,1,200,2|0
472,56,28123,1,2
332,196,28809,1,0
272,276,29152,1,2
176,308,29495,6,0,B|126:319|73:295|40:247|42:195,2,200,2|0|2
372,272,31552,1,2
384,172,31895,1,0
336,84,32237,2,0,B|249:19|146:49,1,200,2|0
84,128,33266,1,2
112,224,33609,2,0,B|198:288|301:258,1,200,2|0
384,200,34637,1,2
356,104,34980,6,0,B|256:104,1,100,4|0
176,164,35666,1,0
236,244,36009,1,0
176,324,36352,2,0,B|124:324,2,50,0|0|0
272,352,37037,5,0
372,336,37380,1,0
460,288,37723,2,0,B|497:188|442:96,1,200
360,36,38752,1,0
320,128,39095,2,0,B|300:176,2,50
240,68,39780,1,0
144,40,40123,5,0
56,88,40466,2,0,B|16:188|70:279,1,200
148,344,41495,1,0
244,316,41837,2,0,B|288:288,2,50
148,344,42523,5,0
72,280,42866,1,0
48,184,43209,2,0,B|48:136|48:136|100:80|184:80,1,200,0|0
284,68,44237,1,0
376,108,44580,2,0,B|341:149,1,50,0|0
412,220,45095,6,0,B|456:220|456:220|488:248|488:320,1,150,4|8
392,348,45952,1,4
324,272,46295,1,8
240,216,46637,2,0,B|188:210|147:241,1,99.9999999999999,0|8
56,196,47323,2,0,B|32:152,2,50,0|0|8
136,136,48009,6,0,B|188:142|229:110,1,99.9999999999999,2|8
312,52,48695,2,0,B|336:157|433:200,1,200,2|2
392,292,49723,1,8
292,308,50066,2,0,B|229:245|229:245|168:233,1,150,2|2
76,196,50923,1,2
116,104,51266,6,0,B|145:47|213:19|288:29|330:77,1,250,4|0
360,172,52466,1,8
352,272,52809,2,0,B|336:320|289:354|231:359|187:331,1,200
256,192,54180,12,8,55895
256,68,56752,5,4
396,120,57266,2,0,B|412:168|412:168|400:220,1,99.9999999999999,8|0
324,280,57952,2,0,B|372:292|372:292|408:328,2,99.9999999999999,8|0|8
256,208,58980,1,0
208,296,59323,6,0,B|180:340|129:352,1,99.9999999999999,8|2
116,252,60009,2,0,B|64:259|22:228,1,99.9999999999999,8|2
92,156,60695,1,8
184,116,61037,2,0,B|228:183|309:188,2,150,2|2|8
156,212,62409,6,0,B|176:308,1,99.9999999999999,4|8
279,291,63095,2,0,B|352:276|352:276|424:300,2,150,0|4|8
224,208,64466,1,2
256,112,64809,1,8
256,192,65152,12,8,66523
256,272,67723,6,0,B|310:330|391:321,1,150,4|8
476,268,68580,1,0
488,168,68923,2,0,B|500:120,2,50,8|4|0
400,216,69609,1,8
312,168,69952,1,0
232,228,70295,6,0,B|152:288,1,99.9999999999999,8|2
124,192,70980,2,0,B|24:186,1,99.9999999999999,8|2
76,100,71666,1,8
160,44,72009,2,0,B|312:28,2,150,2|2|8
172,144,73380,6,0,B|267:195|283:299,1,200,4|0
200,356,74409,1,8
284,300,74752,2,0,B|353:218|331:113,1,200,2|0
256,48,75780,1,8
256,192,76123,12,4,78866
256,48,80237,5,8
256,148,80580,1,8
256,248,80923,2,0,B|256:308,1,50
304,312,81266,2,0,B|342:357,1,50
384,336,81609,1,4
432,248,81952,6,0,B|443:141|365:67,2,200,8|8|8
384,336,83666,1,2
284,352,84009,1,10
184,336,84352,6,0,B|112:300|120:228|120:228|172:188,1,200,4|0
220,100,85380,1,8
248,144,85552,2,0,B|280:204|280:204|220:260,1,150,4|8
280,340,86409,1,2
376,312,86752,1,8
440,236,87094,6,0,B|404:140,1,99.9999999999999,4|8
320,196,87780,2,0,B|256:236|256:236|192:196,2,150,0|4|8
306,96,89152,1,2
206,96,89494,1,10
256,192,89837,12,4,92580
