osu file format v9

[General]
AudioFilename: _.mp3
AudioLeadIn: 1500
PreviewTime: 55895
Countdown: 0
SampleSet: Soft
StackLeniency: 0.7
Mode: 0
LetterboxInBreaks: 0

[Editor]
DistanceSpacing: 1.2
BeatDivisor: 4
GridSize: 4

[Metadata]
Title:Unmei no Chikai (Short Ver.)
Artist:Misato Aki
Creator:Mythol
Version:Insane
Source:Lunaris Filia ~Kiss to Keiyaku to Shinku no Hitomi~
Tags:visual novel opening hentai eroge game kosiga Mixagji Laurier those

[Difficulty]
HPDrainRate:7
CircleSize:4
OverallDifficulty:7
ApproachRate:8
SliderMultiplier:1.8
SliderTickRate:1

[Events]
//Background and Video events
Video,0,"video.avi"
0,0,"Insane.jpg"
//Break Periods
//Storyboard Layer 0 (Background)
//Storyboard Layer 1 (Fail)
//Storyboard Layer 2 (Pass)
//Storyboard Layer 3 (Foreground)
//Storyboard Sound Samples
//Background Colour Transformations
3,100,163,162,255

[TimingPoints]
695,342.857142857143,4,2,0,35,1,0
2066,-100,4,2,1,60,0,0
8923,-100,4,2,1,40,0,0
9266,-100,4,2,1,45,0,0
9609,-100,4,2,1,50,0,0
9952,-100,4,2,1,55,0,0
10295,-100,4,2,1,60,0,0
22980,-100,4,2,1,40,0,0
23323,-100,4,2,1,45,0,0
23666,-100,4,2,1,50,0,0
24009,-133.333333333333,4,2,1,40,0,0
34980,-100,4,2,1,60,0,0
45095,-100,4,2,1,50,0,0
45952,-100,4,2,1,60,0,0
46295,-100,4,2,1,40,0,0
46466,-100,4,2,1,60,0,0
56752,-90.9090909090909,4,2,1,70,0,1
66523,-90.9090909090909,4,2,1,70,0,0
67723,-90.9090909090909,4,2,1,70,0,1
72523,-90.9090909090909,4,2,1,55,0,1
73380,-90.9090909090909,4,2,1,70,0,1
80237,-90.9090909090909,4,2,1,40,0,1
80580,-90.9090909090909,4,2,1,50,0,1
80923,-90.9090909090909,4,2,1,60,0,1
81266,-90.9090909090909,4,2,1,75,0,1
81609,-100,4,2,1,70,0,0
92580,-100,4,2,1,50,0,0

[Colours]
Combo1 : 139,250,177
Combo2 : 255,179,255
Combo3 : 51,189,249
Combo4 : 255,169,83

[HitObjects]
424,54,695,2,0,B|362:86,3,45,2|0|0|0
361,113,1037,2,0,B|360:182,3,45,2|0|0|0
339,196,1380,2,0,B|277:228,3,45,2|0|0|0
276,256,1723,2,0,B|275:325,3,45,2|0|0|0
260,344,2066,6,0,B|152:336|124:220,1,180,4|0
132,56,2752,1,0
60,112,2923,1,0
144,148,3095,2,0,B|196:172|248:148,1,90,0|0
320,52,3437,6,0,B|380:116|364:224,1,180,4|0
304,288,3952,1,0
304,288,4037,1,0
304,288,4123,1,0
400,340,4295,1,0
400,340,4380,1,0
400,340,4466,1,0
472,200,4637,1,0
472,200,4809,6,0,B|392:152|288:180,1,180,4|0
225,317,5323,2,0,B|305:365|409:337,1,180
468,280,5837,1,0
468,266,5923,1,0
468,252,6009,1,0
468,238,6094,1,0
468,224,6180,6,0,B|468:101,1,90,4|0
424,56,6523,1,0
308,100,6694,1,0
308,100,6780,1,0
308,100,6866,2,0,B|216:132,1,90
184,232,7209,2,0,B|276:200,1,90,0|0
396,280,7552,6,0,B|360:368|246:359,1,180,4|0
168,320,8066,2,0,B|112:300,2,45,0|0|0
268,240,8409,2,0,B|324:220,2,45,0|0|0
184,148,8752,1,0
72,204,8923,5,8
55,230,9009,1,8
47,260,9094,1,8
54,290,9180,1,8
70,317,9266,1,8
96,334,9352,1,8
125,343,9437,1,8
156,336,9523,1,8
184,321,9609,5,8
211,304,9694,1,8
241,296,9780,1,8
271,289,9866,1,8
302,294,9952,2,0,B|343:286|414:294,1,90,8|0
484,168,10294,6,0,B|443:160|372:168,1,90,4|0
394,165,10552,1,0
394,165,10637,1,8
296,72,10809,1,0
296,72,10895,1,0
296,72,10980,1,0
176,136,11152,1,8
128,260,11323,2,0,B|132:312|168:352,1,90,8|0
268,232,11666,5,8
268,232,11837,1,8
432,64,12180,1,8
144,92,12523,1,8
144,92,12695,1,8
104,192,12866,5,0
104,192,12952,1,0
104,192,13037,2,0,B|80:248|80:300,1,90,4|0
172,284,13380,2,0,B|179:344|205:389,1,90,8|0
268,320,13723,1,0
356,340,13895,2,0,B|404:320|472:328,1,90,0|8
484,152,14237,6,0,B|396:216|304:144,1,180,4|0
396,56,14752,2,0,B|308:-8|216:64,1,180,8|0
180,152,15266,1,0
72,136,15437,1,8
60,244,15609,5,0
60,244,15695,1,0
60,244,15780,2,0,B|60:304|32:336,1,90,4|0
180,152,16123,2,0,B|180:92|208:60,1,90,8|0
360,96,16466,2,0,B|400:116|456:108,1,90
412,28,16809,1,8
280,120,16980,6,0,B|248:192|276:296,1,180,4|0
376,336,17495,2,0,B|476:356,1,90,8|0
276,296,17837,2,0,B|176:316,1,90
100,288,18180,1,8
48,216,18352,5,0
48,216,18437,1,0
48,216,18523,2,0,B|16:116|60:32,1,180,4|8
236,16,19037,1,0
288,112,19209,2,0,B|304:164|292:208,1,90
200,256,19552,1,8
288,112,19723,6,0,B|380:48|484:124,1,180,4|0
369,251,20237,2,0,B|277:315|173:239,1,180,8|0
136,192,20752,1,0
124,104,20923,1,8
212,80,21095,5,0
212,80,21180,1,0
212,80,21266,2,0,B|268:100|324:84,1,90,4|0
460,176,21609,2,0,B|404:196|348:180,1,90,8|0
252,228,21952,2,0,B|216:268|216:328,1,90,8|0
308,308,22295,1,8
380,122,22466,6,0,B|308:58|200:82,1,180,4|0
31,90,22980,5,8
132,128,23152,1,8
23,208,23323,1,8
132,209,23495,1,8
28,326,23666,1,8
132,291,23837,1,8
308,352,24009,6,0,B|236:368|148:352,1,134.999995976687,4|2
124,272,24523,2,0,B|196:256|284:272,1,134.999995976687
332,236,25037,1,2
260,24,25380,1,0
180,44,25552,1,0
128,108,25723,1,2
187,166,25895,2,0,B|234:106|179:42,1,134.999995976687
64,160,26409,2,0,B|52:200|60:232,1,67.4999979883433,2|0
152,304,26752,6,0,B|164:264|156:232,1,67.4999979883433,0|0
80,264,27095,1,2
112,368,27266,2,0,B|168:384|208:368|228:308,1,134.999995976687
260,256,27780,1,2
412,368,27952,2,0,B|356:384|316:368|296:308,1,134.999995976687
376,292,28466,1,2
464,156,28809,2,0,B|416:136|380:144,1,67.4999979883433
316,148,29152,1,2
104,276,29495,6,0,B|176:328|252:264,1,134.999995976687,0|2
300,208,30009,2,0,B|228:156|152:220,1,134.999995976687
180,284,30523,2,0,B|184:328|180:360,1,67.4999979883433,2|0
104,276,30866,2,0,B|100:232|104:200,1,67.4999979883433
52,144,31209,1,2
104,80,31380,2,0,B|168:40|240:80,1,134.999995976687
288,136,31895,2,0,B|300:168|292:204,1,67.4999979883433,2|0
216,184,32237,6,0,B|204:216|212:252,1,67.4999979883433,0|0
280,296,32580,1,2
280,296,32752,2,0,B|348:344|420:292,1,134.999995976687
448,232,33266,2,0,B|484:256|488:292,1,67.4999979883433,2|0
368,224,33609,2,0,B|336:204|328:164,1,67.4999979883433
288,100,33952,1,2
216,68,34123,2,0,B|152:112|68:64,1,134.999995976687
87,74,34637,1,2
36,280,34980,6,0,B|116:332|208:284,1,180,4|8
304,184,35495,2,0,B|220:120|124:184,1,180
152,284,36009,2,0,B|168:332|156:372,1,90,8|0
56,224,36352,2,0,B|40:176|52:136,1,90
116,72,36694,1,8
192,116,36866,2,0,B|284:144|376:96,1,180
496,140,37380,1,8
366,100,37552,1,0
344,184,37723,6,0,B|320:236|340:288,1,90
416,236,38066,1,8
366,100,38237,2,0,B|312:88|272:136,1,90
336,272,38580,1,0
416,236,38752,2,0,B|436:184|420:136,1,90,8|0
256,312,39094,5,0
172,260,39266,1,0
140,168,39437,2,0,B|124:116|140:60,1,90,8|0
260,136,39780,2,0,B|276:188|260:244,1,90
140,168,40123,1,8
260,136,40295,1,0
372,176,40466,6,0,B|420:196|444:252,2,90,0|0|8
344,260,40980,2,0,B|316:304|256:320,1,90
184,296,41323,1,0
108,248,41494,2,0,B|92:296|96:336,1,90,8|0
264,224,41837,2,0,B|280:176|276:136,1,90
232,56,42180,1,8
56,80,42352,2,0,B|88:184|208:164,1,180
297,116,42866,2,0,B|273:72|233:56,1,90,8|0
264,224,43209,6,0,B|288:268|328:284,1,90
420,280,43552,1,8
488,224,43723,2,0,B|520:128|480:32,1,180
340,24,44237,2,0,B|288:20|248:56,1,90,8|0
220,132,44580,6,0,B|224:184|180:240,1,90,8|8
132,156,44923,1,0
292,208,45094,2,0,B|380:260|484:212,1,180,4|0
500,120,45609,1,8
299,120,45780,5,0
299,120,45866,1,0
299,120,45952,2,0,B|279:168|295:220,1,90,4|0
344,284,46294,1,12
420,236,46466,2,0,B|460:246|507:224,2,90
344,168,46980,1,8
280,92,47152,1,0
280,92,47237,1,0
280,92,47323,6,0,B|192:44|92:92,1,180,0|8
36,148,47837,1,0
56,236,48009,2,0,B|72:288|120:332,1,90
248,244,48352,2,0,B|268:200|260:144,1,90,8|0
172,64,48694,6,0,B|116:144|168:276,1,180,4|8
261,155,49209,2,0,B|317:235|265:367,1,180,4|8
102,354,49723,1,8
172,236,49894,1,0
279,328,50066,6,0,B|328:348|395:332,1,90,4|0
448,296,50409,1,8
372,160,50580,2,0,B|356:208|372:256,1,90,4|0
480,188,50923,2,0,B|496:140|480:92,1,90,4|0
404,52,51266,6,0,B|320:0|220:48,1,180,4|0
132,168,51780,2,0,B|216:220|316:172,1,180,8|0
352,252,52294,1,0
276,300,52466,2,0,B|228:316|176:296,1,90,8|0
64,208,52809,2,0,B|24:296|64:393,2,180,2|8|2
156,188,53666,2,0,B|208:200|260:184,1,90,0|8
316,132,54009,1,0
396,60,54180,5,2
452,152,54352,1,8
444,260,54523,2,0,B|440:316|392:340,1,90,8|0
344,244,54866,1,2
200,172,55037,1,2
316,132,55209,1,8
224,280,55380,6,0,B|116:296|80:176,1,180,4|0
96,84,55894,1,8
376,28,56237,2,0,B|305:83,1,90
224,120,56580,1,0
224,120,56666,1,0
224,120,56752,6,0,B|176:220|232:328,1,197.99999409914,4|0
356,368,57266,2,0,B|404:268|348:160,1,197.99999409914,8|0
308,88,57780,1,0
220,40,57952,1,8
116,172,58123,6,0,B|144:220|204:228,1,98.9999970495702,4|0
208,124,58466,1,0
44,80,58637,2,0,B|0:176|48:292,1,197.99999409914,8|0
116,340,59152,1,0
204,256,59323,1,8
116,340,59494,1,0
304,348,59666,6,0,B|336:304|336:244,1,98.9999970495702,4|0
264,184,60009,2,0,B|269:129|239:77,1,98.9999970495702,8|0
144,92,60352,2,0,B|121:42|69:12,1,98.9999970495702,0|0
28,120,60694,2,0,B|8:176|24:236,1,98.9999970495702,8|0
88,288,61037,2,0,B|180:368|300:284,1,197.99999409914,4|8
364,212,61552,2,0,B|272:132|152:216,1,197.99999409914,0|0
212,324,62066,1,8
284,256,62237,5,0
284,256,62323,1,0
284,256,62409,2,0,B|264:200|280:136,1,98.9999970495702,4|0
324,72,62752,1,8
456,192,62923,2,0,B|396:208|348:192,1,98.9999970495702
226,76,63266,2,0,B|286:60|334:76,1,98.9999970495702,0|8
276,160,63609,6,0,B|324:248|280:360,1,197.99999409914,4|0
136,296,64123,1,8
100,204,64294,1,0
104,104,64466,2,0,B|116:52|148:12,1,98.9999970495702
276,160,64809,2,0,B|272:216|232:252,1,98.9999970495702,8|0
240,80,65152,6,0,B|300:64|360:112,1,98.9999970495702,4|0
380,184,65494,1,8
380,184,65666,2,0,B|472:108|392:0,1,197.99999409914
240,80,66180,1,8
160,20,66352,1,0
77,68,66523,1,0
64,100,66609,1,0
54,133,66694,1,0
47,166,66780,1,0
40,200,66866,2,0,B|20:252|32:308,1,98.9999970495702,8|0
212,320,67209,5,8
232,156,67380,1,0
136,228,67552,1,8
316,256,67723,6,0,B|372:256|408:212,1,98.9999970495702,4|0
480,156,68066,1,0
396,108,68237,2,0,B|340:108|304:64,1,98.9999970495702,8|0
392,12,68580,1,0
292,164,68752,1,0
243,12,68923,1,8
292,164,69094,6,0,B|256:204|200:204,1,98.9999970495702,4|0
128,140,69437,1,0
316,68,69609,2,0,B|408:100|384:260,1,197.99999409914,8|0
328,320,70123,1,0
232,288,70294,1,8
140,324,70466,1,0
60,264,70637,6,0,B|8:164|64:64,1,197.99999409914,4|8
428,128,71323,2,0,B|480:228|424:328,1,197.99999409914,4|8
232,160,71837,5,0
232,160,71923,1,0
232,160,72009,2,0,B|216:104|216:52,1,98.9999970495702,4|0
320,224,72352,1,8
212,272,72523,2,0,B|156:292|96:256,1,98.9999970495702,8|0
320,128,72866,2,0,B|376:108|436:144,1,98.9999970495702,8|8
484,208,73209,1,0
484,208,73294,1,0
484,208,73380,6,0,B|500:272|488:324,1,98.9999970495702,4|0
376,332,73723,1,8
360,212,73894,2,0,B|360:80|496:96,1,197.99999409914
420,280,74409,2,0,B|372:316|308:288,1,98.9999970495702,8|0
272,200,74752,2,0,B|184:244|228:376,1,197.99999409914,2|8
420,280,75437,2,0,B|508:236|464:104,1,197.99999409914,2|8
384,52,75952,1,0
384,52,76037,1,0
384,52,76123,6,0,B|332:72|272:52,1,98.9999970495702,4|0
136,52,76466,1,8
260,132,76637,1,0
408,148,76809,5,0
260,244,76980,1,0
120,148,77152,1,8
260,52,77323,1,4
260,52,77666,5,0
332,180,77837,2,0,B|392:292|264:348,1,197.99999409914,8|8
260,244,78352,1,0
372,100,78523,1,4
472,224,78694,1,0
472,224,78780,1,0
472,224,78866,6,0,B|456:280|408:308,1,98.9999970495702,4|0
260,244,79209,2,0,B|276:188|324:160,1,98.9999970495702,8|0
408,148,79552,1,0
308,340,79723,2,0,B|192:372|156:240,1,197.99999409914
120,160,80237,5,8
120,160,80409,1,8
244,32,80580,1,8
244,32,80752,1,8
416,84,80923,1,8
416,84,81094,1,8
376,256,81266,1,8
376,256,81437,1,8
284,164,81609,6,0,B|232:256|280:364,2,180,4|8|0
364,108,82466,1,0
444,164,82637,1,8
284,164,82809,2,0,B|244:128|260:44,1,90,4|0
348,24,83152,1,0
364,208,83323,2,0,B|400:248|392:320,1,90,8|0
268,292,83666,2,0,B|216:300|176:256,1,90,0|0
84,184,84009,2,0,B|60:232|72:304,1,90,8|0
185,266,84352,6,0,B|217:174|189:54,1,180,4|8
88,100,84866,2,0,B|104:188|184:196|256:164,1,180
312,136,85380,1,8
448,64,85552,2,0,B|407:43|327:51|311:136,1,180,4|0
356,212,86066,2,0,B|456:280,1,90,8|0
264,248,86409,2,0,B|189:298,1,90,0|0
324,316,86752,2,0,B|398:366,1,90,8|0
120,332,87094,6,0,B|68:244|112:140,1,180,4|8
152,80,87609,1,0
339,132,87780,2,0,B|341:182|317:221,1,90,0|0
248,160,88123,1,8
426,103,88295,2,0,B|433:209|366:310,1,180,4|0
280,304,88809,1,8
280,304,88895,1,0
280,304,88980,1,0
172,300,89152,2,0,B|124:288|107:241,1,90
124,152,89495,2,0,B|172:164|188:210,1,90,8|0
256,192,89837,12,4,92580
