osu file format v9

[General]
AudioFilename: _.mp3
AudioLeadIn: 1500
PreviewTime: 55895
Countdown: 0
SampleSet: Soft
StackLeniency: 0.7
Mode: 0
LetterboxInBreaks: 0

[Editor]
Bookmarks: 8823,12938,23909,34881,45166,89738
DistanceSpacing: 1.1
BeatDivisor: 4
GridSize: 4

[Metadata]
Title:Unmei no Chikai (Short Ver.)
Artist:Misato Aki
Creator:Mythol
Version:Hard
Source:Lunaris Filia ~Kiss to Keiyaku to Shinku no Hitomi~
Tags:visual novel opening hentai eroge game kosiga Mixagji Laurier those

[Difficulty]
HPDrainRate:5
CircleSize:4
OverallDifficulty:6
ApproachRate:7
SliderMultiplier:1.6
SliderTickRate:1

[Events]
//Background and Video events
Video,0,"video.avi"
0,0,"Hard.jpg"
//Break Periods
//Storyboard Layer 0 (Background)
//Storyboard Layer 1 (Fail)
//Storyboard Layer 2 (Pass)
//Storyboard Layer 3 (Foreground)
//Storyboard Sound Samples
//Background Colour Transformations
3,100,163,162,255

[TimingPoints]
695,342.857142857143,4,2,1,60,1,0
8923,-100,4,2,1,45,0,0
10295,-100,4,2,1,60,0,0
24009,-133.333333333333,4,2,1,60,0,0
34980,-100,4,2,1,60,0,0
46209,-100,4,2,1,45,0,0
46380,-100,4,2,1,60,0,0
56752,-100,4,2,1,70,0,1
66523,-100,4,2,1,70,0,0
67723,-100,4,2,1,70,0,1
81609,-100,4,2,1,60,0,0

[Colours]
Combo1 : 139,250,177
Combo2 : 255,179,255
Combo3 : 51,189,249
Combo4 : 255,169,83

[HitObjects]
114,73,695,1,2
94,158,866,2,0,B|82:197,2,40,0|0|2
173,196,1209,2,0,B|176:236,2,40,0|0|2
260,204,1552,2,0,B|277:245,2,40,0|0|2
344,177,1895,1,0
344,177,1980,1,0
344,177,2066,6,0,B|378:198|394:242,1,80,4|0
399,326,2409,2,0,B|447:324|466:284,1,80,2|0
465,200,2752,2,0,B|463:103|377:68,1,160,0|2
297,75,3266,1,2
229,131,3437,6,0,B|133:148|87:64,1,160,4|0
179,59,3952,2,0,B|169:147|70:162,1,160,2|0
63,249,4466,2,0,B|68:294|106:317,1,80,2|2
187,339,4809,6,0,B|274:344|332:279,1,160,4|0
417,268,5323,1,2
417,268,5494,2,0,B|387:186|290:178,1,160,0|2
218,222,6009,1,2
130,215,6180,6,0,B|95:190|91:144,1,80,4|0
99,64,6523,2,0,B|133:46|181:52,1,80,2|2
239,113,6866,2,0,B|283:123|324:101,1,80,2|0
373,36,7209,1,2
448,80,7380,1,2
448,80,7466,1,0
448,80,7552,6,0,B|450:123|421:158,1,80,4|2
458,235,7894,2,0,B|421:261|375:252,1,80,0|2
362,338,8237,2,0,B|278:333|249:241,1,160,0|2
226,154,8752,1,2
174,82,8923,6,8,B|126:75,3,40
95,97,9266,2,8,B|58:120,3,40
56,162,9609,2,8,B|49:206,3,40
58,244,9952,2,8,B|75:285,3,40
104,312,10294,6,0,B|169:363|268:328,1,160,4|8
231,247,10809,2,0,B|302:216|388:247,1,160,8|8
420,328,11323,1,8
256,112,11666,5,0
256,112,11837,1,2
100,192,12180,1,2
412,192,12523,1,2
412,192,12695,6,0,B|395:234|351:252,1,80
315,259,12952,1,0
271,257,13037,2,0,B|192:224|177:133,1,160,4|8
207,52,13552,1,0
292,69,13723,2,0,B|334:77|374:55,2,80,0|2|8
207,52,14237,6,0,B|112:28|52:97,1,160,4|0
38,175,14752,1,8
67,257,14923,1,2
153,275,15095,2,0,B|197:269|223:233,1,80
203,150,15437,2,0,B|244:134|287:160,1,80,8|0
352,104,15780,6,0,B|413:161|384:254,1,160,4|8
313,304,16295,1,0
236,260,16466,2,0,B|220:298|236:341,2,80,0|2|8
153,229,16980,6,0,B|187:152|295:166,1,160,4|0
352,104,17495,2,0,B|335:61|289:51,1,80,8|0
209,31,17837,1,2
120,26,18009,1,0
60,90,18180,2,0,B|75:129|118:142,1,80,8|0
209,31,18523,6,0,B|255:102|215:189,1,160,4|8
135,216,19037,1,0
111,300,19209,2,0,B|133:340|178:347,1,80,0|2
261,348,19552,1,8
348,336,19723,6,0,B|423:290|417:195,1,160,4|2
450,119,20237,2,0,B|429:81|385:73,1,80,8|2
305,41,20580,1,0
243,104,20752,1,0
329,123,20923,2,0,B|372:115|387:73,1,80,8|0
216,29,21266,6,0,B|122:49|122:148,1,160,4|0
124,230,21780,1,8
153,313,21952,1,8
230,354,22123,1,8
318,349,22295,1,8
398,245,22466,6,0,B|417:192|378:133|316:141,1,160,4|0
244,193,22980,2,0,B|218:228|168:231,1,80,8|0
106,117,23323,2,0,B|127:80|170:74,1,80,8|0
249,105,23666,1,8
177,155,23837,1,8
188,240,24009,6,0,B|187:309|234:353,1,119.999996423721,4|2
188,240,24523,2,0,B|131:268|69:231,1,119.999996423721
73,154,25037,2,0,B|130:119|187:147,1,119.999996423721,2|0
378,80,25895,6,0,B|399:59|397:23,2,59.9999982118607,0|2|0
311,76,26409,2,0,B|289:103|293:141,1,59.9999982118607
226,122,26752,2,0,B|214:182|273:230,1,119.999996423721,2|2
228,278,27266,2,0,B|277:327|345:297,2,119.999996423721,0|0|2
123,300,29152,5,0
123,300,29495,2,0,B|184:324|248:290,1,119.999996423721,0|2
302,313,30009,2,0,B|326:250|299:188,1,119.999996423721,0|2
344,144,30523,2,0,B|302:96|231:103,1,119.999996423721
384,234,31380,6,0,B|352:286|277:284,1,119.999996423721
228,324,31895,2,0,B|192:319|180:286,1,59.9999982118607,2|0
116,299,32237,2,0,B|75:249|91:183,1,119.999996423721,0|2
54,130,32752,2,0,B|96:87|172:99,1,119.999996423721,0|0
215,55,33266,2,0,B|272:99|261:168,1,119.999996423721,0|2
211,201,33780,5,0
200,266,33952,2,0,B|205:302|229:321,1,59.9999982118607
316,358,34295,2,0,B|298:331|297:299,1,59.9999982118607
342,213,34637,2,0,B|341:247|360:272,1,59.9999982118607,0|2
423,329,34980,6,0,B|451:294|448:250,1,80,4|0
441,166,35323,1,2
441,166,35495,2,0,B|423:124|386:109,1,80
302,87,35837,1,2
302,87,36009,2,0,B|256:85|231:114,1,80,0|2
208,200,36352,5,0
208,200,36437,1,0
208,200,36523,1,0
242,281,36694,1,0
154,274,36866,2,0,B|112:244|105:171|142:131,1,160,2|2
101,52,37380,2,0,B|138:34|182:53,1,80,0|2
237,117,37723,6,0,B|276:162|344:161|379:109,1,160,0|2
430,182,38237,2,0,B|480:156|480:78|439:44,2,160,0|2|2
379,318,39094,6,0,B|399:358,2,40
334,242,39437,2,0,B|297:263|291:312,1,80
219,357,39780,2,0,B|182:336|174:288,1,80
119,224,40123,2,0,B|78:243|72:287,1,80
72,284,40466,6,0,B|39:211|71:126,1,160,2|2
193,81,40980,2,0,B|232:153|202:237,1,160
163,315,41494,2,0,B|225:372|320:352,1,160,2|0
312,353,41923,1,0
312,353,42009,1,0
352,182,42352,6,0,B|433:214|424:315,1,160,2|2
312,353,42866,2,0,B|295:315|312:274,1,80,0|2
352,182,43209,2,0,B|351:117|351:117|328:78|277:59,1,160,0|2
145,55,43723,2,0,B|145:119|145:119|169:159|220:178,1,160,0|2
261,254,44237,2,0,B|256:296|216:319,2,80,0|0|2
95,192,44923,5,8
95,192,45094,2,0,B|151:175|151:175|156:128|214:100,1,160,4|0
256,23,45609,2,0,B|300:27|326:57,1,80,8|0
414,63,45952,6,0,B|423:108|399:144|399:144|363:160|315:151,1,160,4|12
239,177,46466,2,0,B|207:211|200:248|200:248|215:288|261:314,1,160
331,339,46980,2,0,B|373:354|414:335,1,80,8|0
457,263,47323,2,0,B|478:274|478:274|503:270,2,40
421,188,47666,1,8
421,188,48009,6,0,B|413:120|380:90|380:90|323:74,1,160,2|8
71,206,48694,2,0,B|73:163|106:136,1,80,0|2
71,55,49037,1,8
71,55,49209,2,0,B|126:48|126:48|189:87|185:131,1,160,2|0
166,214,49723,5,8
116,286,49894,1,0
116,286,49980,1,0
116,286,50066,2,0,B|152:310|192:302,1,80,0|2
269,259,50409,1,8
298,176,50580,2,0,B|353:186|378:257|350:312,1,160,4|2
289,367,51094,1,8
208,331,51266,6,0,B|168:292|165:223|207:187,1,160,4|0
235,104,51780,2,0,B|213:65|174:54,1,80,4|2
114,118,52123,2,0,B|72:122|47:157,1,80,2|2
90,233,52466,2,0,B|94:273|125:305,1,80,8|0
208,331,52809,2,0,B|290:356|361:305,1,160,0|8
329,222,53323,1,2
411,251,53494,2,0,B|444:277|445:324,2,80
459,127,54009,5,0
459,127,54180,2,0,B|417:144|377:132,1,80
325,68,54523,1,8
325,68,54866,6,0,B|281:51|244:64,1,80
161,84,55209,1,0
161,84,55380,2,0,B|94:136|97:224,1,160,4|8
90,312,55895,2,0,B|120:343|170:334,1,80,8|0
274,315,56237,6,0,B|285:338|286:359,5,40
261,315,56752,2,0,B|242:261|288:204|349:212,1,160,4|2
430,182,57266,2,0,B|435:123|396:71|320:84,1,160,8|2
260,131,57780,2,0,B|213:168|143:156|118:107,1,160,0|4
198,69,58294,1,0
260,131,58466,1,0
288,214,58637,2,0,B|296:282|296:282|290:329|232:358,1,160,8|0
154,345,59152,5,0
76,303,59323,1,8
153,259,59494,1,0
154,345,59666,2,0,B|97:345|50:295|59:235,1,160,4|8
128,77,60352,1,0
256,198,60694,1,8
256,198,61037,6,0,B|338:192|338:192|405:135,1,160,4|0
363,59,61552,2,0,B|278:66|278:66|213:109,1,160,4|0
159,175,62066,2,0,B|150:221|183:258,1,80,8|0
255,287,62409,6,0,B|268:236|335:204|393:226,1,160,4|8
342,300,62923,2,0,B|328:356|265:385|209:364,1,160,2|8
159,297,63437,2,0,B|125:326|127:369,1,80,8|4
126,367,63780,6,0,B|88:293|125:211,1,160,0|8
82,134,64294,1,2
169,143,64466,2,0,B|204:168|206:217,1,80,0|2
255,283,64809,2,0,B|289:257|291:213,1,80,8|0
270,128,65152,6,0,B|337:81|424:105,1,160,4|8
424,237,65666,2,0,B|355:289|269:263,1,160,4|0
221,335,66180,2,0,B|187:306|189:255,1,80,8|0
150,185,66523,1,0
150,185,66609,1,0
150,185,66694,1,0
252,112,66866,6,0,B|285:87|333:90,1,80,8|0
307,175,67209,2,0,B|274:208|225:192,1,80,8|0
166,94,67552,1,8
150,185,67723,6,0,B|131:249|164:303|240:321,1,160,4|0
302,303,68237,2,0,B|349:230|368:155,1,160,8|0
372,69,68752,1,0
372,69,68923,1,8
294,136,69094,6,0,B|238:144|189:97|198:36,1,160,4|0
285,48,69609,2,0,B|294:109|245:156|189:148,1,160,8|0
102,146,70123,1,2
85,232,70294,1,8
126,309,70466,1,2
209,335,70637,2,0,B|292:349|367:311,1,160,4|8
303,49,71323,2,0,B|220:35|145:73,1,160,4|8
314,127,72009,6,0,B|363:152|359:241|298:258,1,160,4|8
198,257,72523,2,0,B|149:232|153:143|214:126,1,160,4|0
256,196,73037,1,8
256,196,73209,1,2
261,283,73380,6,0,B|342:325|408:262,1,160,4|8
256,196,73894,2,0,B|202:202|164:264|186:325,2,160
342,213,74752,6,0,B|343:154|297:107|235:115,1,160,2|8
74,55,75437,2,0,B|72:113|111:156|176:151,1,160,2|8
164,62,75952,1,0
247,35,76123,6,0,B|282:109|253:193,1,160,2|8
192,254,76637,1,0
275,282,76809,2,0,B|313:297|355:290,2,80,8|0|8
148,321,77323,2,0,B|102:278|107:215|157:183,1,160,4|2
243,192,77837,1,8
243,192,78009,1,8
314,140,78180,2,0,B|331:100|319:62,2,80,0|0|4
402,41,78695,5,0
402,41,78866,2,0,B|421:81|406:126,1,80,2|0
381,203,79209,1,8
456,248,79380,2,0,B|427:300|359:310|315:268,1,160,2|0
264,200,79894,2,0,B|233:224|230:271,1,80,8|0
162,326,80237,2,0,B|108:332|61:287|66:222,1,160
86,138,80752,5,8
135,65,80923,1,8
223,60,81094,1,8
290,116,81266,1,8
206,143,81437,1,8
223,60,81609,6,0,B|261:26|332:32|370:79,1,160,4|8
371,163,82123,1,0
403,245,82294,2,0,B|426:277|470:287,2,80,0|0|8
453,172,82809,2,0,B|289:153,1,160,4|2
206,143,83323,1,8
118,130,83494,1,0
153,210,83666,2,0,B|202:280|298:265,1,160,2|8
361,102,84352,6,0,B|305:41|212:53,1,160,4|8
118,130,84866,2,0,B|74:118|62:73,2,80,0|0|2
206,143,85380,1,8
167,219,85552,2,0,B|227:235|284:201|290:146,1,160,4|2
253,68,86066,2,0,B|293:52|339:72,1,80,8|0
405,116,86409,2,0,B|456:180|445:271,1,160,2|8
298,364,87094,6,0,B|208:374|148:308,1,160,4|8
128,227,87609,1,0
92,146,87780,2,0,B|79:102|41:85,2,80,2|0|8
179,158,88295,2,0,B|238:165|283:123|280:56,1,160,4|2
192,71,88809,1,8
192,71,88980,1,0
179,158,89152,2,0,B|199:249|298:250,1,160,0|8
256,192,89837,12,4,92580
