osu file format v9

[General]
AudioFilename: _.mp3
AudioLeadIn: 1500
PreviewTime: 55895
Countdown: 0
SampleSet: Soft
StackLeniency: 0.7
Mode: 0
LetterboxInBreaks: 0

[Editor]
DistanceSpacing: 1.4
BeatDivisor: 2
GridSize: 4

[Metadata]
Title:Unmei no Chikai (Short Ver.)
Artist:Misato Aki
Creator:Mythol
Version:Easy
Source:Lunaris Filia ~Kiss to Keiyaku to Shinku no Hitomi~
Tags:visual novel opening hentai eroge game kosiga Mixagji Laurier those

[Difficulty]
HPDrainRate:2
CircleSize:3
OverallDifficulty:2
ApproachRate:3
SliderMultiplier:0.6
SliderTickRate:1

[Events]
//Background and Video events
Video,0,"video.avi"
0,0,"Easy.jpg"
//Break Periods
//Storyboard Layer 0 (Background)
//Storyboard Layer 1 (Fail)
//Storyboard Layer 2 (Pass)
//Storyboard Layer 3 (Foreground)
//Storyboard Sound Samples
//Background Colour Transformations
3,100,163,162,255

[TimingPoints]
695,342.857142857143,4,2,1,90,1,0
2066,-100,4,2,1,70,0,0
24009,-100,4,2,1,50,0,0
34980,-100,4,2,1,70,0,0
55209,-100,4,2,1,10,0,0
55895,-100,4,2,1,70,0,0
56752,-100,4,2,1,80,0,1
66523,-100,4,2,1,80,0,0
67723,-100,4,2,1,80,0,1
81609,-100,4,2,1,70,0,0

[Colours]
Combo1 : 139,250,177
Combo2 : 255,179,255
Combo3 : 51,189,249
Combo4 : 255,169,83

[HitObjects]
256,332,2066,6,0,B|352:332|408:236,1,180,4|0
476,284,3437,2,0,B|508:220|484:132|416:96|368:108,2,240,4|4|4
396,260,6523,1,0
348,192,6866,1,0
256,52,7552,6,0,B|192:64|164:144|192:204,1,180,4|0
252,252,8923,2,0,B|184:316|72:280,1,180,4|0
40,212,10295,2,0,B|40:144,2,60,4|0|0
192,288,11666,6,0,B|168:240|196:200,2,90,8|0|0
256,344,13037,6,0,B|380:360|456:288,1,210,4|2
412,84,15095,1,2
256,24,15780,6,0,B|224:124|68:132,1,210,4|2
140,336,17837,2,0,B|208:336,2,60,2|0|4
216,184,19209,1,2
316,260,19723,6,0,B|404:240|428:172,1,150,2|2
320,40,21266,1,4
152,40,21952,1,2
108,156,22466,2,0,B|108:236|172:292,1,150,2|2
332,320,24009,5,4
440,192,24695,1,0
332,64,25380,2,0,B|212:64,1,120
100,192,26752,6,0,B|96:260|28:296,2,120
256,256,28809,2,0,B|256:168,1,60
300,124,29495,6,0,B|368:108|420:156,1,120
464,308,30866,2,0,B|404:328|344:276,1,120,0|0
256,144,32237,5,0
96,192,32923,2,0,B|148:244,2,60
160,36,34295,2,0,B|160:112,1,60
232,140,34980,6,0,B|300:140|344:88,1,120,4|8
420,112,36009,1,0
456,188,36352,2,0,B|456:264,2,60,0|0|8
312,272,37723,6,0,B|312:344,2,60,0|0|8
256,212,38752,1,0
180,176,39095,2,0,B|164:276|52:296,1,180,0|8
0,236,40466,5,4
64,80,41152,1,8
232,80,41837,2,0,B|312:80,1,60
364,36,42523,2,0,B|432:76,1,60,8|0
388,148,43209,2,0,B|332:180|324:268|376:328|448:316,1,240,0|4
272,328,45095,5,2
148,300,45609,2,0,B|76:300,1,60
64,176,46466,5,2
112,60,46980,2,0,B|176:60,1,60,0|0
256,204,48009,5,2
332,168,48352,1,0
408,204,48695,6,0,B|448:156|416:56|340:56,1,180,4|0
280,92,50066,1,2
208,136,50409,2,0,B|140:156|60:92,2,150,0|4|2
280,180,52466,5,0
256,260,52809,2,0,B|184:260,1,60,2|0
112,260,53495,1,2
256,192,54009,12,0,55209
268,252,55895,6,0,B|351:234|367:154,2,150,0|4|2
192,352,58123,2,0,B|140:340|104:268|128:216,1,150,2|0
160,160,59323,1,0
132,80,59666,5,2
292,128,60352,1,0
452,80,61037,2,0,B|452:148,1,60,2|0
484,216,61723,2,0,B|448:276,1,60
380,308,62409,6,0,B|288:312|240:204|296:132,1,240,4|0
448,72,64466,1,2
372,36,64809,1,0
288,36,65152,2,0,B|192:48|152:144,1,180,4|0
88,192,66523,5,2
88,276,66866,2,0,B|136:352|224:344,2,150,0|4|2
189,201,69095,2,0,B|213:157|277:141|321:169,1,150
402,193,70295,1,0
484,216,70637,6,0,B|464:272|416:292|356:284|332:240,1,180,4|0
280,192,72009,2,0,B|280:128,2,60,2|0|0
144,292,73380,5,4
80,136,74066,1,2
208,28,74752,2,0,B|280:28,1,60
344,64,75437,2,0,B|404:84,2,60,2|0|4
256,208,76809,5,2
92,252,77495,1,0
256,292,78180,2,0,B|324:292,1,60,2|0
388,332,78866,6,0,B|456:256|428:148,1,180,4|0
356,128,80237,1,2
200,192,80923,1,2
256,192,81609,12,4,84352
256,272,85552,5,2
84,152,86409,2,0,B|96:88,1,60
180,84,87095,6,0,B|240:56|240:56|320:60|360:140,1,210,4|2
256,316,89152,1,2
256,232,89495,1,2
256,192,89837,12,4,92580
