osu file format v9

[General]
AudioFilename: Lunaris Filia.mp3
AudioLeadIn: 0
PreviewTime: 55893
Countdown: 0
SampleSet: Soft
StackLeniency: 0.7
Mode: 0
LetterboxInBreaks: 0

[Editor]
DistanceSpacing: 0
BeatDivisor: 4
GridSize: 4

[Metadata]
Title:Unmei no Chikai (Short Ver.)
Artist:Misato Aki
Creator:Melophobia
Version:Insane
Source:Lunaris Filia ~ Kiss to Keiyaku to Shinku no Hitomi ~
Tags:whirlpool Suzully KSHR opening hentai eroge game visual novel KanaRin

[Difficulty]
HPDrainRate:7
CircleSize:4
OverallDifficulty:7
ApproachRate:8
SliderMultiplier:1.8
SliderTickRate:1

[Events]
//Background and Video events
0,0,"BG.jpg"
Video,0,"video.avi"
//Break Periods
//Storyboard Layer 0 (Background)
//Storyboard Layer 1 (Fail)
//Storyboard Layer 2 (Pass)
//Storyboard Layer 3 (Foreground)
//Storyboard Sound Samples
//Background Colour Transformations
3,100,163,162,255

[TimingPoints]
696,342.857142857143,4,2,1,80,1,0
11496,-100,4,2,1,10,0,0
11581,-100,4,2,1,80,0,0
12610,-100,4,2,1,80,0,0
13038,-100,4,2,1,70,0,0
13124,-100,4,2,1,80,0,0
14238,-100,4,2,1,70,0,0
14324,-100,4,2,1,80,0,0
15781,-100,4,2,1,70,0,0
15867,-100,4,2,1,80,0,0
16981,-100,4,2,1,70,0,0
17067,-100,4,2,1,80,0,0
18524,-100,4,2,1,70,0,0
18610,-100,4,2,1,80,0,0
19724,-100,4,2,1,70,0,0
19810,-100,4,2,1,80,0,0
21267,-100,4,2,1,70,0,0
21353,-100,4,1,1,30,0,0
21524,-100,4,1,1,40,0,0
21696,-100,4,1,1,50,0,0
21867,-100,4,1,1,60,0,0
22038,-100,4,1,1,70,0,0
22210,-100,4,1,1,80,0,0
22381,-100,4,2,1,70,0,0
22724,-100,4,1,1,20,0,0
22896,-100,4,1,1,30,0,0
23067,-100,4,1,1,40,0,0
23238,-100,4,1,1,50,0,0
23410,-100,4,1,1,60,0,0
23581,-100,4,1,1,70,0,0
23753,-100,4,1,1,80,0,0
24010,-133.333333333333,4,2,1,50,0,0
24096,-133.333333333333,4,2,1,60,0,0
34896,-100,4,2,1,70,0,0
35238,-100,4,2,1,80,0,0
44581,-100,4,2,1,60,0,0
45096,-100,4,2,1,70,0,0
45181,-100,4,2,1,80,0,0
45953,-100,4,2,1,70,0,0
46038,-100,4,2,1,80,0,0
50067,-100,4,2,1,70,0,0
50153,-100,4,2,1,80,0,0
50581,-100,4,2,1,70,0,0
50667,-100,4,2,1,80,0,0
50924,-100,4,2,1,70,0,0
51010,-100,4,2,1,80,0,0
54181,-100,4,2,1,70,0,0
54267,-100,4,2,1,80,0,0
54867,-100,4,2,1,70,0,0
56753,-100,4,2,1,70,0,1
56838,-100,4,2,1,80,0,1
58124,-100,4,2,1,70,0,1
58210,-100,4,2,1,80,0,1
59667,-100,4,2,1,70,0,1
59753,-100,4,2,1,80,0,1
61038,-100,4,2,1,70,0,1
61124,-100,4,2,1,80,0,1
62410,-100,4,2,1,70,0,1
62496,-100,4,2,1,80,0,1
63610,-100,4,2,1,70,0,1
63696,-100,4,2,1,80,0,1
65153,-100,4,2,1,70,0,1
65238,-100,4,2,1,80,0,1
66867,-100,4,2,1,60,0,1
67296,-100,4,2,1,80,0,1
67638,-100,4,2,1,80,0,0
67724,-100,4,2,1,70,0,1
67810,-100,4,2,1,80,0,1
69096,-100,4,2,1,70,0,1
69181,-100,4,2,1,80,0,1
70638,-100,4,2,1,70,0,1
70724,-100,4,2,1,80,0,1
73381,-100,4,2,1,70,0,1
73467,-100,4,2,1,80,0,1
80067,-100,4,2,1,60,0,1
80238,-100,4,2,1,70,0,1
80496,-100,4,1,1,30,0,1
80667,-100,4,1,1,40,0,1
80838,-100,4,1,1,50,0,1
81010,-100,4,1,1,60,0,1
81181,-100,4,1,1,70,0,1
81353,-100,4,1,1,80,0,1
81610,-100,4,2,1,70,0,0
81696,-100,4,2,1,80,0,0
82810,-100,4,2,1,70,0,0
82896,-100,4,2,1,80,0,0
84353,-100,4,2,1,70,0,0
84438,-100,4,2,1,80,0,0
85553,-100,4,2,1,70,0,0
85638,-100,4,2,1,80,0,0
87096,-100,4,2,1,70,0,0
87181,-100,4,2,1,80,0,0
88296,-100,4,2,1,70,0,0
88381,-100,4,2,1,80,0,0
89838,-100,4,2,1,70,0,0
90096,-100,4,1,1,30,0,0
90267,-100,4,1,1,40,0,0
90438,-100,4,1,1,50,0,0
90610,-100,4,1,1,60,0,0
90781,-100,4,1,1,70,0,0
90953,-100,4,2,1,80,0,0
91296,-100,4,1,1,30,0,0
91467,-100,4,1,1,20,0,0
91638,-100,4,1,1,40,0,0
91810,-100,4,1,1,50,0,0
91981,-100,4,1,1,60,0,0
92153,-100,4,1,1,70,0,0
92324,-100,4,1,1,80,0,0
92581,-100,4,2,1,10,0,0

[Colours]
Combo1 : 255,128,64
Combo2 : 128,128,255

[HitObjects]
256,192,8924,12,0,11496
76,152,11667,5,8
172,172,11838,2,0,B|208:248|192:348,2,180,8|8|8
76,152,12696,1,0
64,184,12781,1,0
56,220,12867,1,0
64,256,12953,1,0
76,288,13038,6,0,B|136:288|136:288|184:312|184:312|256:312,1,180,4|8
216,216,13553,2,0,B|168:192|168:192|131:192,1,90
296,160,13896,2,0,B|344:184|344:184|384:184,1,90,0|8
456,120,14238,2,0,B|400:192|416:296,1,180,4|0
328,344,14753,2,0,B|240:344,1,90,8|0
144,312,15096,2,0,B|128:264|72:240,1,90
32,160,15438,2,0,B|136:160,1,90,8|0
216,192,15781,6,0,B|280:128|384:128,2,180,4|8|0
296,256,16638,2,0,B|288:360,1,90,0|8
200,296,16981,2,0,B|136:232|32:232,1,180,4|0
8,136,17496,1,8
72,56,17667,1,0
144,120,17838,2,0,B|248:112,1,90
312,56,18181,1,8
312,56,18353,1,0
408,56,18524,6,0,B|488:104|504:208,2,180,4|8|0
312,56,19381,1,0
264,144,19553,1,8
176,104,19724,2,0,B|72:104,2,90,4|0|0
296,240,20238,2,0,B|254:256|206:240,1,90,8|0
120,192,20581,1,0
120,192,20753,1,0
392,192,20924,1,8
392,192,21096,1,0
368,288,21267,5,4
296,320,21438,1,0
208,320,21610,1,0
128,264,21781,1,0
96,160,21953,1,0
144,56,22124,1,0
264,8,22296,1,0
384,64,22467,6,0,B|440:136|432:240,1,180,4|0
392,304,22981,1,0
344,232,23153,1,0
312,328,23324,1,0
256,232,23496,1,0
232,344,23667,1,0
168,232,23838,1,0
144,360,24010,5,4
48,128,24353,1,2
120,80,24524,2,0,B|168:32|256:32,1,134.999995976687
288,104,25038,2,0,B|432:104,1,134.999995976687,2|0
432,280,25724,1,2
352,240,25896,2,0,B|280:216|192:240,1,134.999995976687
136,208,26410,1,2
120,296,26581,1,0
136,208,26753,6,0,B|144:128|104:72,1,134.999995976687,0|2
24,104,27267,2,0,B|16:184|56:240,1,134.999995976687
120,296,27781,1,2
200,264,27953,2,0,B|272:240|344:264,1,134.999995976687
408,304,28467,1,2
456,136,28810,2,0,B|384:160|312:136,1,134.999995976687,0|2
160,80,29496,6,0,B|96:120|80:186,1,134.999995976687,0|2
112,272,30010,1,0
272,344,30353,1,0
320,272,30524,2,0,B|464:272,2,134.999995976687,2|0|2
232,264,31381,2,0,B|192:208|192:120,1,134.999995976687
232,56,31896,1,2
320,80,32067,1,0
232,56,32238,6,0,B|176:24|96:24,1,134.999995976687,0|2
64,104,32753,2,0,B|120:136|200:136,1,134.999995976687
232,56,33267,1,2
320,296,33610,2,0,B|272:240|272:160,1,134.999995976687,0|2
400,48,34296,2,0,B|448:104|448:184,1,134.999995976687,0|2
104,312,34981,6,0,B|48:240|72:136,1,180,4|8
120,56,35496,2,0,B|168:40|210:56,1,90,0|2
280,120,35838,1,0
224,200,36010,2,0,B|264:232|264:312,1,90,8|0
192,352,36353,2,0,B|272:296|384:320,1,180,2|8
424,240,36867,1,0
384,152,37038,1,2
440,72,37210,1,0
384,152,37381,1,8
288,144,37553,1,0
208,88,37724,6,0,B|112:72|24:128,1,180,2|8
96,200,38238,2,0,B|144:224|152:280,1,90,0|2
56,378,38581,2,0,B|56:288,1,90,0|8
96,200,38924,2,0,B|128:160|176:152,1,90,0|2
256,200,39267,1,0
348,184,39438,2,0,B|452:184,2,90,8|0|2
336,88,39953,1,0
240,104,40124,2,0,B|200:80|152:86,1,90,8|0
4,192,40467,6,0,B|184:192,1,180,2|8
240,280,40981,2,0,B|200:304|152:297,2,90,0|2|0
288,192,41495,2,0,B|328:168|375:174,1,90,8|0
456,304,41838,2,0,B|384:360|280:344,1,180,2|8
200,296,42353,2,0,B|184:256|200:192,1,90,0|2
288,248,42695,1,0
144,128,42867,1,8
288,248,43038,1,0
368,184,43210,6,0,B|408:160|464:168,1,90,2|0
424,264,43553,1,8
264,320,43724,2,0,B|192:256|80:272,1,180
160,168,44238,2,0,B|168:120|140:81,1,90,8|0
64,152,44581,5,8
256,264,44753,1,8
448,152,44924,1,8
256,40,45095,2,0,B|160:56|120:152,1,180,4|0
80,248,45610,1,8
136,344,45781,1,0
240,320,45953,6,0,B|288:304|344:320,1,90,4|0
432,336,46295,1,8
456,232,46467,2,0,B|440:184|464:128,1,90,0|2
368,80,46810,1,0
264,64,46981,1,8
208,160,47153,1,0
312,160,47324,5,2
160,64,47495,1,0
152,240,47667,1,8
312,160,47838,1,0
384,240,48010,2,0,B|424:216|472:224,1,90,2|0
304,312,48353,2,0,B|264:336|216:328,1,90,8|0
70,189,48695,6,0,B|126:269|112:360,1,180,2|8
213,218,49210,2,0,B|257:203|300:218,1,90,0|2
400,360,49553,2,0,B|386:269|442:189,1,180,0|0
488,96,50067,5,4
256,40,50410,1,0
256,144,50581,1,4
24,96,50924,1,4
256,312,51267,2,0,B|320:232|416:240,1,180,4|0
464,144,51781,1,8
392,64,51953,1,0
296,120,52124,2,0,B|256:96|184:88,1,90,2|0
112,48,52467,1,8
56,144,52638,1,0
152,192,52810,6,0,B|160:240|128:296,1,90,2|0
256,344,53153,2,0,B|256:248,1,90,8|0
360,192,53495,2,0,B|352:240|384:296,1,90,2|0
464,216,53838,1,8
448,112,54010,1,0
344,88,54181,5,4
256,256,54353,1,8
168,88,54524,1,8
168,88,54610,1,0
168,88,54695,1,0
48,216,54867,5,4
64,112,55038,1,0
152,192,55210,1,0
256,336,55381,2,0,B|272:280|254:244|240:208|254:157,1,180,8|8
254,158,55895,1,8
376,80,56753,6,0,B|432:160|424:272,1,180,4|0
352,336,57267,1,8
264,272,57438,1,0
168,312,57610,1,0
104,224,57781,1,0
200,184,57953,1,8
264,272,58124,6,0,B|354:264|434:320,1,180,4|0
472,216,58638,1,8
472,216,58724,1,0
472,216,58810,1,0
400,136,58981,1,0
368,240,59153,1,0
504,112,59324,1,8
368,240,59495,1,0
192,176,59667,6,0,B|144:160|80:184,1,90,4|0
274,255,60010,2,0,B|284:304|318:332,1,90,8|0
301,144,60353,2,0,B|339:111|345:67,2,90,0|0|8
192,176,60867,1,0
274,256,61038,6,0,B|320:272|376:256,1,90,4|0
184,304,61381,1,8
104,232,61553,2,0,B|56:264|56:320,1,90
192,176,61895,2,0,B|240:144|240:88,2,90,0|8|0
184,304,62410,6,0,B|296:288|360:344,1,180,4|8
448,280,62924,2,0,B|480:192,1,90
408,112,63267,1,0
344,200,63438,1,8
248,144,63610,6,0,B|208:168|136:144,2,90,4|0|0
200,48,64124,1,8
344,200,64295,1,0
368,304,64467,2,0,B|336:344|288:344,1,90
184,320,64810,1,8
184,320,64895,1,0
184,320,64981,1,0
96,256,65153,6,0,B|72:216|80:168,1,90,4|0
160,72,65495,1,8
256,136,65667,1,0
160,200,65838,1,0
352,72,66010,1,0
352,200,66181,1,8
256,136,66353,1,0
48,120,66524,5,0
80,128,66610,1,0
96,152,66695,1,0
96,184,66781,1,0
80,216,66867,2,0,B|64:264|88:320,1,90,8|0
184,272,67210,1,8
264,344,67381,2,0,B|304:312|352:312,1,90
464,360,67724,6,0,B|408:288|432:176,1,180,4|0
464,88,68238,1,8
464,88,68324,1,0
464,88,68410,1,0
336,48,68581,1,0
312,184,68753,1,0
208,152,68924,6,0,B|160:144|104:184,2,90,8|4|0
288,232,69438,1,0
184,272,69610,2,0,B|144:304|144:360,1,90,8|0
256,360,69953,1,0
367,349,70124,2,0,B|368:304|328:272,1,90,0|8
256,120,70467,1,0
88,96,70638,6,0,B|64:184,1,90,4|0
329,304,70981,2,0,B|344:216,1,90,8|0
168,216,71324,2,0,B|182:304,1,90
447,182,71667,2,0,B|424:96,1,90,8|0
216,40,72010,6,0,B|128:88|104:184,1,180,0|8
296,344,72524,2,0,B|384:296|408:200,1,180,0|0
336,80,73038,1,8
336,80,73124,1,0
336,80,73210,1,0
184,112,73381,6,0,B|144:144|136:200,1,90,4|0
208,272,73724,2,0,B|192:320|208:360,1,90,8|0
408,336,74067,1,0
448,240,74238,2,0,B|464:192|448:152,1,90,0|8
352,200,74581,1,0
296,296,74753,6,0,B|184:272|120:336,1,180,0|8
40,264,75267,1,0
112,184,75438,2,0,B|104:136|120:96,1,90
280,32,75781,2,0,B|288:80|272:120,1,90,8|0
207,328,76124,2,0,B|199:280|216:240,1,90,0|0
328,160,76467,5,8
400,272,76638,1,0
456,152,76810,1,8
264,280,76981,1,0
400,272,77153,1,8
456,152,77324,1,4
192,80,77667,5,8
96,120,77838,1,8
96,120,77924,1,0
96,120,78010,1,0
80,224,78181,1,8
80,224,78267,1,0
80,224,78353,1,0
152,304,78524,2,0,B|248:304,1,90,4|0
385,216,78867,6,0,B|321:216|321:216|273:200|273:200|208:200,1,180,0|8
352,112,79381,2,0,B|448:112,1,90
464,296,79724,1,0
464,296,79810,1,0
464,296,79895,1,0
384,368,80067,1,8
288,328,80238,6,0,B|192:360|112:304,1,180,4|0
88,224,80753,1,0
88,128,80924,1,0
168,56,81095,1,0
288,48,81267,1,0
376,136,81438,1,0
336,264,81610,6,0,B|280:336|160:336,2,180,4|8|0
304,168,82467,2,0,B|320:120|376:104,1,90,0|8
416,216,82810,2,0,B|208:216,1,180,4|0
160,160,83324,1,8
160,160,83410,1,0
160,160,83495,1,0
72,208,83667,2,0,B|48:256|56:304,1,90
144,344,84010,2,0,B|192:360|192:360|240:352,1,90,8|0
184,264,84353,6,0,B|256:256|256:256|312:272|320:336,2,180,4|8|0
96,224,85210,1,0
56,136,85381,1,8
136,80,85553,2,0,B|224:48|320:80,1,180,4|0
408,72,86067,1,8
408,72,86153,1,0
408,72,86238,1,0
400,168,86410,2,0,B|424:224|416:264,1,90
319,237,86753,1,8
346,331,86924,1,0
441,358,87095,6,0,B|337:310|241:342,1,180,4|8
98,229,87781,1,0
194,204,87953,2,0,B|229:163|234:116,1,90,0|8
136,96,88296,2,0,B|342:96,1,180,4|0
408,56,88810,1,8
408,56,88981,1,0
488,120,89153,2,0,B|512:176|504:216,1,90
440,288,89496,1,8
440,288,89667,1,0
344,352,89838,6,0,B|276:292|176:304,1,180,4|0
88,344,90353,1,0
176,303,90524,1,0
76,240,90696,1,0
176,303,90867,1,0
160,172,91038,6,0,B|224:108|328:124,1,180,4|0
400,156,91553,1,0
324,208,91724,1,0
420,236,91896,1,0
324,288,92067,1,0
444,324,92238,1,0
324,368,92410,1,0
256,192,92581,12,0,95324
