osu file format v9

[General]
AudioFilename: Spread Wings.mp3
AudioLeadIn: 0
PreviewTime: 52408
Countdown: 0
SampleSet: Normal
StackLeniency: 0.7
Mode: 0
LetterboxInBreaks: 0

[Editor]
DistanceSpacing: 1
BeatDivisor: 4
GridSize: 4

[Metadata]
Title:Spread Wings. (TV Size)
Artist:Misato Aki
Creator:ertyukjh010
Version:Saya
Source:Oretachi ni Tsubasa wa Nai
Tags:Opening KayeSara Saya-honmei 12BARRY21

[Difficulty]
HPDrainRate:6
CircleSize:4
OverallDifficulty:6
ApproachRate:8
SliderMultiplier:1.8
SliderTickRate:2

[Events]
//Background and Video events
0,0,"BG.jpg"
Video,0,"Video.avi"
//Break Periods
//Storyboard Layer 0 (Background)
//Storyboard Layer 1 (Fail)
//Storyboard Layer 2 (Pass)
//Storyboard Layer 3 (Foreground)
//Storyboard Sound Samples
//Background Colour Transformations
3,100,163,162,255

[TimingPoints]
284,416.666666666667,4,1,0,45,1,0
6846,-100,4,2,0,65,0,0
7054,-100,4,1,0,45,0,0
7679,-100,4,2,0,65,0,0
7888,-100,4,1,0,45,0,0
8513,-100,4,2,0,65,0,0
8721,-100,4,1,0,45,0,0
10284,-100,4,2,0,65,0,0
10492,-100,4,1,0,45,0,0
10909,-100,4,1,0,60,0,0
11325,-200,4,1,0,55,0,0
11742,-200,4,1,0,20,0,0
11950,-100,4,2,1,40,0,0
18096,-100,4,1,1,40,0,0
18721,-100,4,2,1,50,0,0
19034,-100,4,1,1,50,0,0
19138,-100,4,2,1,50,0,0
19867,-100,4,1,1,50,0,0
20075,-100,4,2,1,50,0,0
21638,-100,4,2,1,65,0,0
21846,-100,4,2,1,50,0,0
23929,-100,4,2,1,60,0,0
24450,-100,4,1,1,50,0,0
38513,-100,4,1,0,50,0,0
43304,-100,4,1,1,50,0,0
53617,-100,4,1,1,75,0,1
76950,-100,4,1,1,50,0,0
80179,-100,4,1,1,75,0,0
80388,-100,4,1,1,45,0,0
81950,-100,4,2,1,60,0,0
82054,-100,4,1,1,50,0,0
83409,-100,4,1,1,70,0,0
83617,-100,4,2,2,35,0,0
84450,-100,4,2,2,30,0,0
85284,-100,4,2,2,25,0,0
86117,-100,4,2,2,20,0,0
86950,-100,4,2,2,15,0,0
87784,-100,4,2,2,10,0,0

[Colours]
Combo1 : 211,199,37
Combo2 : 0,227,227
Combo3 : 149,38,57

[HitObjects]
256,192,5284,2,0,B|232:128|160:112,1,90,2|0
128,192,5700,1,8
112,288,5909,2,0,B|80:320,2,45,0|0|2
192,336,6325,1,0
272,288,6534,2,0,B|384:288,1,90,8|0
384,112,6950,6,0,B|416:64|416:16,2,90,2|0|8
256,192,7575,1,0
128,272,7784,2,0,B|96:320|96:368,2,90,2|0|8
256,192,8409,1,0
176,64,8617,6,0,B|128:32|80:32,2,90,2|0|8
256,96,9242,2,0,B|352:96,1,90,0|2
416,160,9659,1,0
416,160,9763,1,0
416,160,9867,1,8
464,240,10075,2,0,B|464:288|416:320,1,90,0|2
368,240,10492,1,0
368,240,10596,1,0
368,240,10700,2,0,B|360:176|296:156,1,90,8|0
144,144,11325,6,0,B|144:240,1,90,4|0
320,350,11950,6,0,B|368:334|384:286|368:238,2,135,8|0|0
232,328,12783,1,8
292,260,12992,1,0
264,176,13200,1,8
176,176,13408,1,0
148,260,13617,6,0,B|100:260|68:196|20:212,2,135,2|0|0
176,176,14450,1,8
224,100,14658,1,0
264,176,14867,1,8
176,176,15075,1,0
176,176,15179,1,0
176,176,15283,6,0,B|128:176|64:224|64:288,2,135,8|0|0
224,336,16117,1,8
244,248,16325,1,0
160,272,16533,1,8
224,336,16742,5,0
272,160,16950,1,8
224,80,17158,1,0
224,80,17263,1,0
224,80,17367,2,0,B|128:80,2,90,2|0|8
316,76,17992,5,8
400,128,18200,1,8
448,224,18408,1,0
400,336,18617,1,4
336,272,18825,5,0
336,272,18929,1,0
336,272,19034,2,0,B|336:176,2,90,8|0|0
312,360,19659,1,0
248,296,19867,1,8
128,272,20075,5,0
128,272,20179,1,0
128,272,20284,2,0,B|192:272|224:208,2,90,0|0|8
64,208,20909,1,0
80,112,21117,1,8
144,176,21325,1,0
160,80,21534,1,8
228,140,21742,1,8
304,304,21950,6,0,B|320:304|336:272|336:272|336:176,2,135,0|0|0
304,304,22679,1,8
304,304,22784,1,8
208,304,22992,2,0,B|96:304,1,90,0|8
256,224,23409,2,0,B|352:224,1,90,8|2
208,144,23825,1,0
128,208,24034,1,2
208,144,24242,1,0
88,80,24450,5,2
424,80,24763,1,2
256,336,25075,1,2
170,306,25284,6,0,B|104:291|84:227|87:180,2,135,4|0|0
240,240,26117,1,8
320,272,26325,1,0
256,336,26534,1,8
240,240,26742,5,0
240,240,26846,1,0
240,240,26950,2,0,B|240:96,2,135,4|0|0
324,272,27784,1,8
384,336,27992,2,0,B|480:336,2,90,0|8|0
288,336,28617,6,0,B|192:336,1,90,4|0
160,320,28929,1,0
128,288,29034,2,0,B|96:240|96:176,1,90
240,80,29450,2,0,B|176:144,1,90,8|0
192,240,29867,2,0,B|256:176,1,90,8|0
336,128,30284,6,0,B|336:272,1,135,4|0
336,263,30700,1,0
400,336,30909,2,0,B|432:304|432:240,1,90,0|8
432,160,31325,2,0,B|432:96,2,45,0|0|8
336,128,31742,1,0
256,80,31950,5,4
128,128,32263,1,0
128,128,32367,2,0,B|128:224,1,90,8|0
192,288,32784,2,0,B|224:240|224:192,2,90,0|0|8
96,304,33409,2,0,B|32:304,2,45,0|0|4
64,176,33929,5,0
64,176,34034,2,0,B|80:128|128:112,1,90,8|0
208,112,34450,2,0,B|320:112,1,90
240,192,34867,2,0,B|144:192,1,90,8|0
208,304,35284,5,4
368,272,35596,1,0
368,272,35700,1,8
432,208,35909,1,0
352,176,36117,1,0
284,236,36325,1,0
368,272,36534,5,8
208,176,36742,1,0
368,96,36950,1,8
208,176,37159,1,0
368,272,37367,1,8
208,176,37575,1,0
160,96,37784,5,8
140,104,37888,1,0
120,116,37992,1,8
104,132,38096,1,0
92,152,38200,2,0,B|92:204,2,45,8|0|0
224,272,38617,6,0,B|272:320|336:320|384:272,1,180,6|8
256,144,39242,2,0,B|208:96|144:96|96:144,1,180
96,320,39867,1,8
96,320,40075,2,0,B|96:224,2,90,0|4|0
192,320,40700,2,0,B|240:320|272:256,1,90,8|0
192,224,41117,2,0,B|192:160|144:128,1,90
80,192,41533,1,8
80,192,41742,1,0
256,192,41950,12,0,43200
336,160,43408,6,0,B|336:112,2,45,0|0|4
256,272,43929,1,0
256,272,44033,1,8
160,272,44242,2,0,B|48:272,1,90
32,192,44658,2,0,B|64:144|112:144,1,90,0|8
192,112,45075,5,0
192,112,45283,2,0,B|384:112,1,180,6|8
432,176,45908,2,0,B|480:208|480:256,2,90
352,224,46533,2,0,B|256:224,1,90,8|0
262,313,46950,6,0,B|208:320|176:240|96:256,1,180,4|8
96,160,47575,2,0,B|96:112|144:80,1,90
192,160,47992,2,0,B|240:160|288:224,1,90,0|8
192,256,48408,1,0
96,160,48617,5,4
272,208,48825,1,8
80,256,49033,1,8
192,160,49242,1,0
336,256,49450,5,8
428,112,49658,1,8
428,272,49867,1,0
336,128,50075,1,0
232,252,50283,5,4
336,128,50492,1,0
192,160,50700,1,8
336,128,50908,1,0
256,80,51117,5,8
272,64,51221,1,0
292,56,51325,1,8
316,52,51429,1,0
340,52,51533,2,0,B|400:52,4,45,8|0|8|0|4
256,192,52054,12,0,53200
192,128,53408,5,0
192,128,53513,1,0
192,128,53617,2,0,B|104:160|80:240,2,135,6|0|0
192,232,54450,2,0,B|240:264|240:328,2,90,0|0|8
272,176,55075,1,0
192,128,55283,1,4
272,176,55492,1,0
360,160,55700,1,8
416,232,55908,6,0,B|504:232,2,90,0|8|0
300,92,56533,2,0,B|272:48|216:52,2,90,8|0|6
200,152,57158,1,0
88,184,57367,2,0,B|88:288,1,90,8|0
144,352,57783,2,0,B|176:312|176:256,1,90,8|0
416,304,58200,2,0,B|376:272|320:272,1,90,8|0
368,32,58617,2,0,B|336:72|336:128,1,90,4|0
96,80,59033,2,0,B|136:112|192:112,1,90
248,168,59450,6,0,B|232:216|248:264,1,90
328,216,59867,1,0
408,192,60075,1,0
464,264,60283,6,0,B|496:220|488:168,1,90,4|0
476,136,60596,1,0
460,96,60700,2,0,B|352:28,1,90,8|0
292,48,61117,1,8
232,116,61325,1,0
172,48,61533,1,8
112,116,61742,1,0
196,220,61950,5,4
112,116,62158,1,0
24,220,62367,1,0
260,300,62575,1,0
260,300,62783,2,0,B|396:300,2,135,4|0|8
180,340,63617,2,0,B|44:340,2,135,4|0|8
268,352,64450,2,0,B|316:360|352:332,1,90,8|0
396,252,64867,2,0,B|420:256|436:272,2,45,8|0|8
308,260,65283,5,2
228,228,65492,1,0
244,132,65700,1,8
324,164,65908,1,0
324,164,66117,5,2
124,344,66429,1,8
64,80,66742,1,8
64,80,66950,5,6
128,144,67158,1,0
128,144,67263,1,0
128,144,67367,2,0,B|128:240,1,90,8|0
192,304,67783,2,0,B|224:256|224:208,1,90,8|0
368,128,68200,2,0,B|320:128|256:176,1,90,8|0
208,96,68617,5,12
128,144,68825,1,0
128,240,69033,1,8
192,304,69242,1,0
224,208,69450,5,8
96,336,69658,1,0
224,208,69867,1,8
48,160,70075,1,0
128,64,70283,6,0,B|224:64,1,90,4|0
384,128,70700,2,0,B|288:128,1,90,8|0
224,208,71117,2,0,B|272:240|336:240,1,90,8|0
160,128,71533,2,0,B|192:80|192:16,1,90,8|0
96,192,71950,2,0,B|48:160|-16:160,1,90,4|0
144,272,72367,1,8
208,336,72575,5,0
208,336,72679,1,0
208,336,72783,2,0,B|304:336,1,90,8|0
336,256,73200,2,0,B|368:208|336:160,1,90,8|0
232,88,73617,6,0,B|172:84|136:152|164:224,1,180,2|0
256,192,74242,1,0
336,256,74450,1,8
416,192,74658,1,0
336,256,74867,1,8
256,192,75075,1,0
192,112,75283,6,0,B|128:112|80:160|80:240,1,180,4|8
128,304,75908,1,0
128,304,76013,1,0
128,304,76117,2,0,B|224:304,1,90,8|0
304,288,76533,2,0,B|288:240|224:208,1,90,8|0
256,192,76950,12,4,78617
360,40,79034,6,0,B|408:56|440:104,1,90,8|0
356,132,79450,2,0,B|296:132,3,45,8|0|8|0
356,168,79867,2,0,B|356:264,1,90,8|0
208,320,80284,6,0,B|144:320|112:256,2,90,4|0|8
160,192,80909,1,0
160,192,81013,1,0
160,192,81117,2,0,B|160:128|240:128,1,90,8|0
304,128,81534,1,8
304,128,81742,1,0
304,128,81950,6,0,B|384:80,1,90,2|0
384,176,82367,2,0,B|480:176,1,90
416,256,82784,2,0,B|480:336,1,90
320,240,83200,1,0
320,240,83409,1,4
256,192,83617,12,0,88617
