osu file format v9

[General]
AudioFilename: Spread Wings.mp3
AudioLeadIn: 0
PreviewTime: 52408
Countdown: 0
SampleSet: Soft
StackLeniency: 0.7
Mode: 0
LetterboxInBreaks: 0

[Editor]
Bookmarks: 65284
DistanceSpacing: 1.2
BeatDivisor: 4
GridSize: 4

[Metadata]
Title:Spread Wings. (TV Size)
Artist:Misato Aki
Creator:ertyukjh010
Version:Insane
Source:Oretachi ni Tsubasa wa Nai
Tags:Opening KayeSara Saya-honmei 12BARRY21

[Difficulty]
HPDrainRate:7
CircleSize:4
OverallDifficulty:7
ApproachRate:8
SliderMultiplier:1.6
SliderTickRate:2

[Events]
//Background and Video events
0,0,"BG.jpg"
Video,0,"Video.avi"
//Break Periods
//Storyboard Layer 0 (Background)
//Storyboard Layer 1 (Fail)
//Storyboard Layer 2 (Pass)
//Storyboard Layer 3 (Foreground)
//Storyboard Sound Samples
//Background Colour Transformations
3,100,163,162,255

[TimingPoints]
284,416.666666666667,4,1,1,60,1,0
11950,-100,4,2,1,80,0,0
13617,-100,4,2,1,50,0,0
13721,-100,4,2,1,80,0,0
20284,-100,4,2,1,50,0,0
20388,-100,4,2,1,80,0,0
38617,-133.333333333333,4,2,1,80,0,0
45179,-100,4,2,1,80,0,0
48617,-133.333333333333,4,2,1,80,0,0
50075,-100,4,2,1,80,0,0
53617,-100,4,1,1,80,0,1
76950,-100,4,1,1,60,0,0
83617,-100,4,2,1,80,0,0
84450,-100,4,2,1,70,0,0
85284,-100,4,2,1,50,0,0
86117,-100,4,2,1,40,0,0
86950,-100,4,2,1,25,0,0
87784,-100,4,2,1,10,0,0
88617,-100,4,2,2,5,0,0

[Colours]
Combo1 : 211,199,37
Combo2 : 0,227,227
Combo3 : 149,38,57

[HitObjects]
144,80,5284,2,0,B|176:112|224:96,1,80,4|0
240,88,5596,1,0
264,80,5700,1,8
368,112,5909,1,0
400,200,6117,1,0
368,288,6325,1,0
280,336,6534,6,0,B|200:336|120:312,2,160,8|4|8
320,144,7784,2,0,B|400:144|480:168,2,160,0|8|4
256,328,9034,5,8
160,312,9242,1,0
108,232,9450,1,0
136,140,9659,1,0
228,108,9867,1,8
400,192,10284,5,4
328,256,10492,1,0
328,256,10596,1,0
328,256,10700,1,8
248,208,10909,2,0,B|248:166|232:128,1,80,8|0
88,64,11325,2,0,B|88:105|104:144,1,80,8|0
248,208,11742,1,0
320,144,11950,6,0,B|368:104|440:120,2,120,4|0|0
360,232,12783,1,0
304,312,12992,1,0
208,312,13200,1,2
160,232,13408,1,0
256,152,13617,6,0,B|232:96|240:32,2,120,0|0|0
296,240,14450,1,0
384,272,14658,1,0
464,216,14867,1,2
472,120,15075,1,0
392,64,15283,6,0,B|312:48,1,80,0|0
313,48,15596,1,0
313,48,15700,1,2
232,96,15908,2,0,B|240:136,2,40,0|0|0
136,112,16325,1,0
128,136,16429,1,0
136,160,16533,1,2
128,184,16638,1,0
136,208,16742,1,0
256,264,16950,5,0
328,192,17158,1,0
256,120,17367,1,2
184,192,17575,1,0
352,288,17783,5,0
352,96,17992,1,0
160,96,18200,1,2
160,288,18408,1,0
256,192,18617,6,0,B|256:72,2,120,4|0|0
128,192,19450,5,0
192,304,19659,1,0
320,304,19867,1,2
384,192,20075,1,0
256,64,20284,5,0
256,160,20492,1,0
256,160,20596,1,0
256,160,20700,1,2
320,232,20909,2,0,B|360:240|384:280,2,80
224,248,21534,2,0,B|216:288|176:312,1,80,2|0
72,184,21950,6,0,B|16:152|4:88,2,120,0|0|0
168,208,22784,1,0
224,128,22992,1,0
224,128,23096,1,0
224,128,23200,1,2
312,176,23409,1,0
312,176,23617,1,0
384,112,23825,2,0,B|368:72|320:64,2,80,0|2|0
416,200,24450,5,4
256,336,24763,1,12
96,200,25075,1,8
160,136,25284,6,0,B|160:72|196:20,2,120,4|0|0
196,224,26117,5,0
348,272,26325,1,0
396,120,26534,1,8
244,72,26742,1,0
168,128,26950,6,0,B|112:160|48:144,2,120,0|0|0
264,132,27784,5,0
416,180,27992,1,0
368,332,28200,1,8
216,284,28409,1,0
280,224,28617,6,0,B|328:184|336:120,2,120,2|0|0
192,184,29450,1,0
112,240,29659,1,0
192,184,29867,1,8
280,224,30075,1,0
272,320,30284,6,0,B|352:360|424:312,1,160,2|8
352,88,30909,2,0,B|272:48|200:96,1,160
136,264,31534,1,8
224,296,31742,1,0
272,216,31950,6,0,B|336:192|384:232,2,120,4|0|0
200,152,32784,2,0,B|120:136,1,80
320,296,33200,2,0,B|400:312,1,80,8|0
472,252,33617,6,0,B|496:196|472:132,2,120,0|0|0
408,320,34450,2,0,B|368:248,1,80
260,56,34867,2,0,B|220:128,1,80,8|0
160,200,35284,6,0,B|184:240|224:240,1,80,0|0
224,240,35596,1,0
224,240,35700,1,8
312,272,35909,1,0
392,224,36117,1,0
408,128,36325,1,0
344,56,36534,1,8
248,72,36742,1,0
184,144,36950,6,0,B|176:192|128:232,1,80,0|0
328,144,37367,2,0,B|336:192|384:232,1,80,8|0
256,240,37784,2,0,B|256:360,2,120,8|0|8
256,112,38617,5,4
152,216,39034,1,8
184,280,39242,1,0
256,296,39450,1,0
328,280,39659,1,0
360,216,39867,1,8
440,96,40283,6,0,B|368:88|320:120,1,119.999996423721,0|8
288,180,40908,1,0
244,236,41117,1,0
176,252,41325,1,0
104,236,41533,1,8
64,96,41950,5,0
136,96,42158,2,0,B|152:32,2,59.9999982118607,0|8|0
200,128,42783,2,0,B|208:192,2,59.9999982118607,0|0|8
264,88,43408,1,0
336,88,43617,6,0,B|400:88|440:144,1,119.999996423721,2|8
448,216,44242,1,0
400,272,44450,2,0,B|432:328,2,59.9999982118607,0|0|8
256,296,45283,6,0,B|176:312|96:272,1,160,4|8
32,200,45908,1,0
84,120,46117,1,0
180,108,46325,1,0
256,164,46533,1,8
268,260,46742,1,0
348,312,46950,6,0,B|428:336,1,80
491,247,47367,2,0,B|412:240,1,80,8|0
412,144,47783,2,0,B|491:136,1,80
424,49,48200,2,0,B|348:72,1,80,8|0
256,192,48617,12,0,49867
128,176,50075,5,0
384,176,50283,1,2
172,316,50492,1,0
256,72,50700,1,8
340,316,50908,1,0
252,344,51117,5,8
260,312,51221,1,8
252,280,51325,1,0
260,248,51429,1,0
252,216,51533,1,8
260,184,51638,1,0
252,152,51742,1,0
260,120,51846,1,0
252,88,51950,1,4
256,124,53617,6,0,B|272:188|236:240,1,120,4|0
284,244,54033,2,0,B|280:288|316:312,1,80,8|0
420,312,54450,2,0,B|456:287|452:243,1,80,0|0
388,88,54867,2,0,B|351:112|355:156,1,80,8|0
344,296,55283,5,0
256,336,55492,1,0
256,336,55596,1,0
256,336,55700,1,8
168,296,55908,5,0
120,168,56117,1,0
208,72,56325,1,0
336,96,56533,1,8
376,216,56742,1,0
296,320,56950,6,0,B|344:360|408:336,2,120,0|0|0
240,240,57783,2,0,B|192:200|128:224,2,120,0|0|0
320,184,58617,5,0
328,32,58825,1,0
184,96,59033,1,8
176,256,59242,1,0
320,184,59450,1,0
464,112,59658,1,0
456,272,59867,1,8
312,336,60075,1,0
320,184,60283,6,0,B|292:120|228:120,1,120,4|0
227,119,60700,1,8
136,148,60908,1,0
108,240,61117,2,0,B|31:262,1,80
224,304,61533,2,0,B|304:280,1,80
416,240,61950,5,0
400,144,62158,1,0
324,88,62367,1,8
228,104,62575,1,0
172,188,62783,2,0,B|148:220|104:224,1,80,0|0
340,188,63200,2,0,B|364:220|408:224,1,80,8|0
412,128,63617,5,0
192,36,63825,1,0
100,256,64033,1,8
320,348,64242,1,0
300,96,64450,5,0
160,148,64658,1,0
212,288,64867,1,8
352,236,65075,1,0
220,96,65283,6,0,B|188:60|136:60|108:88,2,120,4|0|0
292,288,66117,2,0,B|324:324|376:324|404:296,2,120,4|0|0
200,256,66950,6,0,B|232:204|216:140,1,120
264,152,67367,2,0,B|256:104|284:76,1,80
428,92,67783,1,0
456,232,67992,1,8
360,340,68200,1,0
220,312,68408,1,0
152,184,68617,6,0,B|72:184,1,80
232,64,69033,2,0,B|312:64,1,80
256,208,69450,2,0,B|332:172,1,80
376,308,69867,2,0,B|420:240,1,80
424,144,70283,5,0
304,36,70492,1,0
160,108,70700,1,8
172,268,70908,1,0
324,316,71117,5,0
356,160,71325,1,0
228,64,71533,1,8
84,136,71742,1,0
96,296,71950,5,0
240,364,72158,1,0
392,316,72367,1,8
436,164,72575,1,0
356,24,72783,5,0
268,116,72992,1,0
268,116,73096,1,0
268,116,73200,1,0
148,160,73408,1,0
32,104,73617,6,0,B|80:32|176:56,1,160,4|8
184,192,74242,2,0,B|276:215|324:143,1,160
480,104,74867,2,0,B|503:196|431:244,1,160,8|0
344,272,75492,1,0
248,268,75700,6,0,B|168:252,1,80,8|0
204,164,76117,2,0,B|124:172,1,80
128,76,76533,2,0,B|52:104,1,80,8|0
32,192,76950,5,4
136,312,77158,1,0
200,168,77367,1,8
304,288,77575,1,0
388,152,77783,5,0
436,304,77992,1,0
284,352,78200,1,8
236,200,78409,1,0
100,112,78617,5,0
52,264,78825,1,0
204,312,79034,1,8
252,160,79242,1,0
392,80,79450,5,0
488,208,79659,1,0
400,336,79867,1,8
248,296,80075,1,0
248,136,80284,6,0,B|192:96|128:128,1,120,4|0
152,160,80700,2,0,B|112:168|96:216,1,80,8|0
144,296,81117,2,0,B|128:336,2,40
304,296,81534,2,0,B|320:336,2,40,8|0|0
224,248,81950,5,0
200,152,82159,1,0
256,72,82367,1,8
352,80,82575,1,0
408,160,82784,1,0
408,192,82888,1,0
400,224,82992,1,0
392,256,83096,1,0
376,280,83200,1,8
352,304,83304,1,0
328,320,83409,1,4
256,192,83617,12,0,88617
