osu file format v9

[General]
AudioFilename: Spread Wings.mp3
AudioLeadIn: 0
PreviewTime: 52408
Countdown: 0
SampleSet: Normal
StackLeniency: 0.7
Mode: 0
LetterboxInBreaks: 0

[Editor]
DistanceSpacing: 1.2
BeatDivisor: 4
GridSize: 4

[Metadata]
Title:Spread Wings. (TV Size)
Artist:Misato Aki
Creator:ertyukjh010
Version:Hard
Source:Oretachi ni Tsubasa wa Nai
Tags:Opening KayeSara Saya-honmei 12BARRY21

[Difficulty]
HPDrainRate:6
CircleSize:4
OverallDifficulty:6
ApproachRate:7
SliderMultiplier:1.4
SliderTickRate:2

[Events]
//Background and Video events
0,0,"BG.jpg"
Video,0,"Video.avi"
//Break Periods
//Storyboard Layer 0 (Background)
//Storyboard Layer 1 (Fail)
//Storyboard Layer 2 (Pass)
//Storyboard Layer 3 (Foreground)
//Storyboard Sound Samples
//Background Colour Transformations
3,100,163,162,255

[TimingPoints]
284,416.666666666667,4,1,1,60,1,0
11950,-100,4,2,1,80,0,0
13617,-100,4,2,1,50,0,0
13721,-100,4,2,1,80,0,0
20284,-100,4,2,1,50,0,0
20388,-100,4,2,1,80,0,0
38617,-133.333333333333,4,2,1,80,0,0
45179,-100,4,2,1,80,0,0
48617,-133.333333333333,4,2,1,80,0,0
50075,-100,4,2,1,80,0,0
53617,-100,4,1,1,80,0,1
76950,-100,4,1,1,60,0,0
83617,-100,4,2,1,80,0,0
84450,-100,4,2,1,70,0,0
85284,-100,4,2,1,50,0,0
86117,-100,4,2,1,40,0,0
86950,-100,4,2,1,25,0,0
87784,-100,4,2,1,10,0,0
88617,-100,4,2,2,5,0,0

[Colours]
Combo1 : 211,199,37
Combo2 : 0,227,227
Combo3 : 149,38,57

[HitObjects]
300,120,5284,2,0,B|372:92|432:136,2,140,4|8|0
212,264,6534,2,0,B|140:292|80:248,2,140,8|0|8
256,192,7575,1,0
256,108,7784,2,0,B|256:36,2,70,0|0|8
256,192,8409,1,0
300,264,8617,6,0,B|372:292|432:248,1,140,0|8
472,172,9242,1,0
444,92,9450,1,0
368,56,9659,1,0
288,84,9867,1,8
248,156,10075,1,0
200,272,10284,6,0,B|120:260|88:196,1,140,0|8
84,112,10909,1,0
32,272,11325,1,0
280,284,11950,6,0,B|344:280|372:328,2,105,4|0|0
200,264,12783,1,0
160,192,12992,1,0
196,116,13200,1,8
280,100,13408,1,0
348,152,13617,6,0,B|404:168|448:132,2,105
280,100,14450,1,0
228,32,14658,1,0
168,92,14867,1,8
92,128,15075,1,0
160,180,15283,6,0,B|176:236|152:284,2,105
236,148,16117,1,0
256,228,16325,1,0
324,276,16533,1,8
408,260,16742,1,0
448,188,16950,6,0,B|468:84,2,105
408,260,17783,1,0
368,332,17992,1,0
368,332,18096,1,0
368,332,18200,1,8
284,336,18408,1,0
232,268,18617,6,0,B|181:240|133:276,1,105,4|0
122,237,19034,2,0,B|89:261|57:241,1,70,8|0
20,168,19450,1,0
48,88,19659,1,0
128,60,19867,1,8
200,100,20075,1,0
216,184,20284,6,0,B|248:232|312:228,1,105
288,268,20700,2,0,B|324:288|360:264,1,70,8|0
428,228,21117,1,0
460,148,21325,1,0
408,80,21534,1,8
324,72,21742,1,0
268,136,21950,6,0,B|168:96,1,105
164,140,22367,2,0,B|120:132|100:164,1,70,8|0
76,240,22784,1,0
116,312,22992,1,0
200,328,23200,1,8
268,280,23409,1,0
276,196,23617,6,0,B|288:128,1,70
368,152,24034,2,0,B|408:92,1,70,8|0
456,164,24450,5,4
336,336,24763,1,12
236,152,25075,1,8
172,96,25284,6,0,B|120:72|56:84,2,105,4|0|0
236,152,26117,1,0
216,232,26325,1,0
272,296,26534,1,8
272,296,26638,1,0
272,296,26742,1,0
356,280,26950,6,0,B|416:272|456:304,2,105
272,296,27784,1,0
192,324,27992,1,0
192,324,28096,1,0
192,324,28200,1,8
120,280,28409,1,0
72,212,28617,6,0,B|36:172|40:112,2,105
120,280,29450,1,0
120,280,29554,1,0
120,280,29659,1,0
204,280,29867,1,8
236,204,30075,1,0
292,140,30284,6,0,B|352:104,1,70
364,144,30596,2,0,B|420:120|468:160,1,105
476,240,31117,5,0
444,316,31325,1,0
364,344,31534,1,8
284,316,31742,1,0
256,236,31950,6,0,B|256:96,1,140,4|8
256,96,32575,1,0
172,112,32784,2,0,B|100:112,1,70
340,112,33200,2,0,B|412:112,1,70,8|0
432,192,33617,6,0,B|440:284|372:304,1,140,0|8
256,252,34242,1,0
80,192,34450,2,0,B|72:284|140:304,1,140,0|8
256,252,35075,1,0
256,168,35284,5,0
256,84,35492,2,0,B|256:48,2,35,0|0|8
256,168,35909,1,0
300,240,36117,2,0,B|352:288,1,70
212,240,36534,2,0,B|160:288,1,70,8|0
76,288,36950,5,0
28,220,37159,1,0
36,136,37367,1,8
108,96,37575,1,0
192,96,37784,2,0,B|264:96,2,70,0|0|8
192,224,38617,6,0,B|204:288|172:340|112:340,2,157.499995306134,4|0|8
320,224,40283,2,0,B|308:288|340:340|400:340,2,157.499995306134,0|0|8
336,100,41950,2,0,B|380:60|448:80|460:144,2,157.499995306134,0|0|8
176,100,43617,2,0,B|132:60|64:80|52:144,2,157.499995306134,0|0|8
344,112,45283,5,4
336,280,45700,1,8
168,272,46117,1,0
176,104,46533,1,8
344,80,46950,5,0
368,280,47367,1,8
168,304,47783,1,0
144,104,48200,1,8
256,228,48617,6,0,B|256:72,2,157.499995306134,4|0|8
256,312,50075,1,0
172,332,50283,2,0,B|112:336|80:292,2,105,0|8|0
340,332,51117,2,0,B|400:336|432:292,2,105,0|8|0
256,312,51950,1,4
256,228,52367,5,2
256,188,52575,1,0
256,148,52783,2,0,B|256:44,2,105,0|0|0
172,144,53617,6,0,B|100:144,1,70,4|0
340,144,54033,2,0,B|412:144,1,70,8|0
456,216,54450,1,0
440,300,54658,1,0
440,300,54763,1,0
440,300,54867,1,8
360,324,55075,1,0
296,268,55283,6,0,B|252:232|192:256,1,105
204,296,55700,2,0,B|172:312|136:292,1,70,8|0
76,236,56117,1,0
68,152,56325,1,0
136,104,56533,1,8
220,112,56742,1,0
260,188,56950,6,0,B|300:228|356:220,2,105
308,116,57783,2,0,B|348:76|340:20,2,105
228,92,58617,5,0
152,128,58825,1,0
140,212,59033,1,8
188,280,59242,1,0
104,284,59450,5,0
140,212,59658,1,0
224,204,59867,1,8
272,272,60075,1,0
352,296,60283,6,0,B|456:276,1,105
432,240,60700,2,0,B|472:224|476:188,1,70,8|0
396,160,61117,2,0,B|404:92,1,70
320,108,61533,2,0,B|316:40,2,70,8|0|0
296,188,62158,5,0
296,188,62263,1,0
296,188,62367,1,8
220,224,62575,1,0
144,192,62783,1,0
116,112,62992,1,0
200,124,63200,1,8
144,192,63408,1,0
60,176,63617,6,0,B|36:228|40:280,2,105,4|0|0
200,124,64450,2,0,B|224:72|220:20,2,105
176,272,65283,5,0
248,312,65492,1,0
328,284,65700,1,8
348,204,65908,1,0
296,140,66117,1,0
260,216,66325,1,0
328,284,66533,1,8
408,264,66742,1,0
432,184,66950,6,0,B|428:124|456:80,1,105,4|0
412,80,67367,2,0,B|392:48|352:48,1,70,8|0
268,40,67783,1,0
224,112,67992,1,0
224,112,68096,1,0
224,112,68200,1,8
140,100,68408,1,0
84,164,68617,6,0,B|80:224|44:264,1,105,0|0
88,272,69033,2,0,B|88:320|120:336,1,70,8|0
200,344,69450,1,0
284,328,69658,1,0
328,256,69867,1,8
320,172,70075,1,0
256,116,70283,6,0,B|244:56|272:16,2,105
256,268,71117,2,0,B|268:328|240:368,2,105
184,152,71950,2,0,B|120:120,1,70
328,232,72367,2,0,B|392:264,1,70,8|0
184,232,72783,2,0,B|120:264,1,70
328,152,73200,2,0,B|392:120,1,70,8|0
456,172,73617,6,0,B|520:276|440:376|332:328,1,280,4|0
256,180,74867,1,8
177,328,75283,2,0,B|72:376|-8:276|56:172,1,280
176,56,76533,1,8
240,112,76742,1,0
256,196,76950,6,0,B|256:300,2,105,4|0|0
340,212,77783,2,0,B|376:312,2,105
424,200,78617,2,0,B|472:128|432:48|356:16|276:80,1,280
232,140,79659,2,0,B|216:200|252:224,2,70,0|8|0
160,96,80284,6,0,B|56:72,2,105,4|0|0
128,172,81117,2,0,B|20:180,2,105
156,252,81950,1,0
316,292,82367,1,8
356,132,82784,5,0
196,92,83200,2,0,B|124:88,1,70,8|4
256,192,83617,12,0,88617
