osu file format v9

[General]
AudioFilename: Spread Wings.mp3
AudioLeadIn: 0
PreviewTime: 52408
Countdown: 0
SampleSet: Soft
StackLeniency: 0.7
Mode: 0
LetterboxInBreaks: 0

[Editor]
DistanceSpacing: 1.2
BeatDivisor: 4
GridSize: 4

[Metadata]
Title:Spread Wings. (TV Size)
Artist:Misato Aki
Creator:ertyukjh010
Version:Easy
Source:Oretachi ni Tsubasa wa Nai
Tags:Opening KayeSara Saya-honmei 12BARRY21

[Difficulty]
HPDrainRate:2
CircleSize:3
OverallDifficulty:2
ApproachRate:2
SliderMultiplier:0.8
SliderTickRate:2

[Events]
//Background and Video events
0,0,"BG.jpg"
Video,0,"Video.avi"
//Break Periods
//Storyboard Layer 0 (Background)
//Storyboard Layer 1 (Fail)
//Storyboard Layer 2 (Pass)
//Storyboard Layer 3 (Foreground)
//Storyboard Sound Samples
//Background Colour Transformations
3,100,163,162,255

[TimingPoints]
284,416.666666666667,4,1,1,60,1,0
11950,-100,4,2,1,80,0,0
53617,-100,4,1,1,60,0,1
76950,-100,4,1,1,60,0,0
83617,-100,4,2,1,80,0,0
84450,-100,4,2,1,70,0,0
85284,-100,4,2,1,50,0,0
86117,-100,4,2,1,40,0,0
86950,-100,4,2,1,25,0,0
87784,-100,4,2,1,10,0,0
88617,-100,4,2,2,5,0,0

[Colours]
Combo1 : 211,199,37
Combo2 : 0,227,227
Combo3 : 149,38,57

[HitObjects]
72,88,5284,6,0,B|120:80|152:112,1,80,4|8
168,200,6117,2,0,B|217:207|248:176,1,80,0|8
312,112,6950,1,0
456,240,7784,1,0
272,304,8617,6,0,B|152:304,2,120,4|0|0
312,216,10284,2,0,B|400:232|432:128|352:88,1,200,4|0
216,88,11950,6,0,B|96:96,2,120,4|2|0
280,160,13617,2,0,B|400:168,2,120,0|2|0
216,232,15283,6,0,B|96:240,2,120,0|2|0
248,320,16950,1,2
344,328,17367,1,0
392,248,17783,2,0,B|432:240,2,40,0|0|2
344,160,18617,6,0,B|344:48|208:48|208:160,1,240,4|0
208,256,20284,2,0,B|208:368|344:368|344:256,1,240,2|0
352,160,21950,2,0,B|464:208,2,120,2|0|0
280,96,23617,5,2
192,136,24034,1,8
112,84,24450,1,4
176,264,25284,6,0,B|192:304|240:304,1,80,0|8
336,304,26117,2,0,B|416:304,1,80,0|8
368,224,26950,2,0,B|288:224,1,80,0|8
240,144,27784,2,0,B|320:144,1,80,0|8
280,56,28617,5,0
184,40,29034,1,8
120,112,29450,1,0
144,208,29867,1,8
240,232,30284,2,0,B|320:232,1,80,2|8
392,296,31117,2,0,B|392:336,2,40,0|0|8
464,232,31950,5,4
480,136,32367,1,8
408,72,32784,1,0
312,96,33200,1,8
280,184,33617,2,0,B|304:264,1,80,0|8
240,336,34450,2,0,B|216:256,1,80,0|8
136,304,35284,5,0
56,256,35700,1,8
136,208,36117,1,0
56,160,36534,1,8
136,112,36950,2,0,B|208:72,1,80,2|8
256,152,37784,2,0,B|256:200,2,40,0|0|8
336,104,38617,6,0,B|440:96|496:192|440:288|336:280,1,320,4|0
260,340,40700,2,0,B|108:292,1,160,10|8
48,216,41950,6,0,B|-40:176|8:44|112:76,1,240,0|8
160,156,43617,2,0,B|204:156|232:120,1,80,0|8
260,32,44450,2,0,B|308:32|332:64,1,80,0|8
328,160,45283,6,0,B|328:248|272:312,1,160,4|0
184,344,46533,1,8
88,320,46950,1,2
56,232,47367,1,8
96,144,47783,1,0
192,120,48200,1,8
280,168,48617,6,0,B|336:200|400:168,2,120,6|0|8
256,192,50283,12,4,51950
96,112,53617,6,0,B|8:200|64:352|208:304,1,320,4|0
256,224,55700,2,0,B|256:144,2,80,8|0|8
308,305,56950,6,0,B|448:352|504:200|416:112,1,320,4|0
344,48,59033,1,8
288,128,59450,1,0
208,72,59867,1,8
152,152,60283,6,0,B|64:248,2,120,4|0|8
216,224,61950,2,0,B|200:344,2,120,0|0|8
312,216,63617,6,0,B|352:328,2,120,4|0|8
392,160,65283,1,0
376,64,65700,1,8
280,48,66117,1,0
224,128,66533,1,8
272,212,66950,6,0,B|272:360|88:360|88:212,1,320,4|0
88,120,69033,2,0,B|48:104|8:128,2,80,8|0|8
176,160,70283,6,0,B|280:184|304:80|408:112,1,240,4|8
464,184,71950,1,0
448,280,72367,1,8
360,320,72783,1,0
280,272,73200,1,8
272,176,73617,6,0,B|288:56,2,120,4|0|8
176,152,75283,2,0,B|160:32,2,120,0|0|8
96,208,76950,5,4
80,304,77367,1,8
160,360,77783,1,0
256,344,78200,1,8
296,256,78617,6,0,B|416:256,1,120,4|0
448,168,79659,2,0,B|328:168,1,120,0|4
232,184,80700,2,0,B|232:104,2,80,8|0|8
216,280,81950,5,4
120,296,82367,1,8
64,216,82784,2,0,B|72:144|40:96,1,120,0|4
256,192,83617,12,0,88617
