osu file format v14

[General]
AudioFilename: videoplayback 00_00_00-00_01_38 [].mp3
AudioLeadIn: 0
PreviewTime: 53444
Countdown: 0
SampleSet: Normal
StackLeniency: 0.7
Mode: 0
LetterboxInBreaks: 1
WidescreenStoryboard: 0

[Editor]
DistanceSpacing: 0.6
BeatDivisor: 4
GridSize: 4
TimelineZoom: 0.9

[Metadata]
Title:Rainbow Blossom
TitleUnicode:Rainbow Blossom
Artist:Misato Aki
ArtistUnicode:美郷あき
Creator:Ookura Risona
Version:Insane
Source:乙女理論とその後の周辺 -Belle Époque-
Tags:navel eroge galgame opening visual novel otome riron to sonogo no shuuhen
BeatmapID:981227
BeatmapSetID:457881

[Difficulty]
HPDrainRate:4
CircleSize:4
OverallDifficulty:7.5
ApproachRate:8.8
SliderMultiplier:1.6
SliderTickRate:1

[Events]
//Background and Video events
0,0,"yande.re 321056 sample cleavage dress game_cg ookura_risona ookura_yuusei pantyhose suzuhira_hiro tsuki_ni_yorisou_otome_no_sahou wings.jpg",0,0
//Break Periods
//Storyboard Layer 0 (Background)
//Storyboard Layer 1 (Fail)
//Storyboard Layer 2 (Pass)
//Storyboard Layer 3 (Foreground)
//Storyboard Sound Samples

[TimingPoints]
1573,387.099271608204,4,1,0,100,1,0
35444,-142.857142857143,4,1,0,100,0,0
36992,-100,4,1,0,100,0,0
40282,-181.818181818182,4,1,0,100,0,0
45315,-133.333333333333,4,1,0,100,0,0
46476,-181.818181818181,4,1,0,100,0,0
49379,-100,4,1,0,100,0,0
54024,-100,4,1,0,100,0,1
78799,-100,4,1,0,100,0,0

[HitObjects]
76,256,2540,5,0,0:0:0:0:
184,296,2734,1,0,0:0:0:0:
256,192,2927,1,0,0:0:0:0:
160,108,3314,5,0,0:0:0:0:
160,108,3411,1,0,0:0:0:0:
160,108,3508,1,0,0:0:0:0:
352,276,3702,1,0,0:0:0:0:
352,276,3799,1,0,0:0:0:0:
352,276,3896,1,0,0:0:0:0:
436,128,4089,5,0,0:0:0:0:
328,88,4283,1,0,0:0:0:0:
256,192,4476,1,0,0:0:0:0:
400,328,4863,5,0,0:0:0:0:
414,307,4959,1,0,0:0:0:0:
426,285,5056,1,0,0:0:0:0:
436,262,5153,1,0,0:0:0:0:
444,239,5250,1,0,0:0:0:0:
451,215,5346,1,0,0:0:0:0:
455,190,5443,1,0,0:0:0:0:
458,165,5540,1,0,0:0:0:0:
460,140,5637,1,0,0:0:0:0:
460,115,5733,1,0,0:0:0:0:
472,128,5831,1,0,0:0:0:0:
472,128,5927,1,0,0:0:0:0:
472,128,6024,2,0,P|396:100|316:88,1,160
176,80,6605,5,0,0:0:0:0:
96,218,6798,1,0,0:0:0:0:
234,298,6992,1,0,0:0:0:0:
314,159,7185,1,0,0:0:0:0:
136,56,7379,1,0,0:0:0:0:
136,56,7476,1,0,0:0:0:0:
136,56,7573,2,0,P|68:116|48:200,1,160
48,180,8056,1,0,0:0:0:0:
48,180,8153,1,0,0:0:0:0:
160,308,8540,5,0,0:0:0:0:
160,304,8637,2,0,L|208:336,1,40
332,296,8831,1,0,0:0:0:0:
332,296,8928,2,0,L|380:268,1,40
432,176,9121,1,0,0:0:0:0:
432,176,9218,1,0,0:0:0:0:
432,176,9314,2,0,P|424:96|356:56,1,160
288,80,10089,5,0,0:0:0:0:
368,224,10282,1,0,0:0:0:0:
224,304,10476,1,0,0:0:0:0:
144,160,10669,1,0,0:0:0:0:
348,56,11250,5,0,0:0:0:0:
348,56,11444,1,0,0:0:0:0:
164,56,11831,5,0,0:0:0:0:
164,56,12025,1,0,0:0:0:0:
120,240,12411,6,0,L|88:216,1,40
162,213,12605,2,0,L|140:180,1,40
209,197,12798,2,0,L|196:160,1,40
259,192,12992,2,0,L|260:148,1,40
308,197,13185,2,0,L|316:156,1,40
356,213,13379,2,0,L|372:176,1,40
398,239,13573,2,0,B|424:208,1,40
464,112,13766,5,0,0:0:0:0:
464,112,14153,1,0,0:0:0:0:
464,112,14540,1,0,0:0:0:0:
256,124,14927,5,0,0:0:0:0:
188,191,15121,1,0,0:0:0:0:
255,259,15315,1,0,0:0:0:0:
335,203,15508,1,0,0:0:0:0:
335,203,15895,5,0,0:0:0:0:
335,203,16282,1,0,0:0:0:0:
335,203,16669,1,0,0:0:0:0:
180,96,17056,5,0,0:0:0:0:
180,96,17444,1,0,0:0:0:0:
180,96,17831,1,0,0:0:0:0:
180,96,18218,1,0,0:0:0:0:
136,264,18605,5,0,0:0:0:0:
136,264,18992,1,0,0:0:0:0:
136,264,19379,1,0,0:0:0:0:
136,264,19766,1,0,0:0:0:0:
344,288,20153,5,0,0:0:0:0:
344,288,20540,1,0,0:0:0:0:
344,288,20927,1,0,0:0:0:0:
384,244,21121,1,0,0:0:0:0:
424,200,21315,2,0,B|460:152|460:152|460:92,1,120
464,96,21702,5,0,0:0:0:0:
468,100,22089,1,0,0:0:0:0:
472,104,22476,1,0,0:0:0:0:
476,108,22863,1,0,0:0:0:0:
304,64,23250,5,0,0:0:0:0:
308,68,23637,1,0,0:0:0:0:
312,72,24024,1,0,0:0:0:0:
208,72,24218,1,0,0:0:0:0:
104,72,24411,2,0,L|64:72,2,40
356,260,26153,5,0,0:0:0:0:
208,288,26540,1,0,0:0:0:0:
208,288,26637,1,0,0:0:0:0:
208,288,26734,2,0,L|132:264,1,80
104,100,27121,1,0,0:0:0:0:
104,100,27218,1,0,0:0:0:0:
104,100,27315,2,0,L|180:76,1,80
340,44,27702,1,0,0:0:0:0:
340,44,27798,1,0,0:0:0:0:
340,44,27895,2,0,P|372:72|384:108,1,80
408,236,28282,5,0,0:0:0:0:
280,124,28476,1,0,0:0:0:0:
280,124,28573,1,0,0:0:0:0:
280,124,28669,1,0,0:0:0:0:
160,124,28863,1,0,0:0:0:0:
280,124,29057,2,0,L|280:208,1,80
280,296,29444,5,0,0:0:0:0:
164,232,29637,1,0,0:0:0:0:
284,300,29831,1,0,0:0:0:0:
164,232,30024,1,0,0:0:0:0:
164,232,30121,1,0,0:0:0:0:
164,232,30218,2,0,P|136:216|104:180,1,80
128,72,30605,1,0,0:0:0:0:
220,8,30798,1,0,0:0:0:0:
324,52,30992,6,0,P|356:72|376:112,1,80
375,108,31282,1,0,0:0:0:0:
375,108,31379,2,0,P|384:144|364:180,1,80
363,180,31669,1,0,0:0:0:0:
363,180,31766,2,0,P|340:216|308:236,1,80
304,236,32153,5,0,0:0:0:0:
304,236,32347,2,0,L|144:236,1,160
136,236,32928,1,0,0:0:0:0:
152,44,33315,5,0,0:0:0:0:
132,59,33411,1,0,0:0:0:0:
114,77,33508,1,0,0:0:0:0:
98,96,33605,1,0,0:0:0:0:
85,117,33702,1,0,0:0:0:0:
74,139,33798,1,0,0:0:0:0:
65,163,33895,1,0,0:0:0:0:
59,187,33992,1,0,0:0:0:0:
56,212,34089,2,0,P|56:256|76:288,1,80
192,340,34476,5,0,0:0:0:0:
384,296,34669,1,0,0:0:0:0:
384,296,34766,1,0,0:0:0:0:
384,296,34863,2,0,L|308:264,1,80
196,172,35250,1,0,0:0:0:0:
196,172,35444,2,0,P|256:128|328:172,1,167.999994873047
328,192,36218,5,0,0:0:0:0:
196,192,36411,1,0,0:0:0:0:
348,192,36605,1,0,0:0:0:0:
164,192,36799,1,0,0:0:0:0:
160,188,36895,1,0,0:0:0:0:
156,184,36992,2,0,P|120:116|160:48,1,160
157,49,37476,1,0,0:0:0:0:
157,49,37573,1,0,0:0:0:0:
316,40,37766,5,0,0:0:0:0:
378,92,37959,1,0,0:0:0:0:
348,166,38153,1,0,0:0:0:0:
268,160,38346,1,0,0:0:0:0:
249,83,38540,1,0,0:0:0:0:
180,228,38928,5,0,0:0:0:0:
180,228,39121,1,0,0:0:0:0:
180,228,39315,1,0,0:0:0:0:
148,272,39702,2,0,L|108:272,2,40
364,272,40089,5,0,0:0:0:0:
368,268,40186,1,0,0:0:0:0:
372,264,40282,2,0,P|400:236|412:188,1,88.000002685547
416,196,40863,1,0,0:0:0:0:
416,196,41057,2,0,L|415:105,1,88.000002685547
352,48,41831,6,0,L|308:48,3,44.0000013427735
260,48,42605,2,0,L|216:48,3,44.0000013427735
168,48,43379,6,0,P|128:72|112:108,1,88.000002685547
111,108,43960,1,0,0:0:0:0:
116,116,44153,2,0,L|116:204,1,88.000002685547
188,296,44928,5,0,0:0:0:0:
296,320,45121,1,0,0:0:0:0:
396,272,45315,2,0,P|440:236|408:192,1,120.000004577637
300,128,45895,1,0,0:0:0:0:
404,192,46089,1,0,0:0:0:0:
292,116,46283,5,0,0:0:0:0:
292,116,46380,1,0,0:0:0:0:
292,116,46476,2,0,B|352:56|380:56|440:116,1,176.000005371094
368,180,47444,1,0,0:0:0:0:
440,236,47637,1,0,0:0:0:0:
368,300,47831,5,0,0:0:0:0:
368,300,47928,1,0,0:0:0:0:
368,300,48024,2,0,B|283:300|263:280|263:195,1,176.000005371094
132,56,49186,5,0,0:0:0:0:
132,56,49379,2,0,L|212:72,1,80
360,108,50153,1,0,0:0:0:0:
360,108,50541,2,0,L|284:132,1,80
164,216,50928,1,0,0:0:0:0:
164,216,51024,1,0,0:0:0:0:
164,216,51121,6,0,L|184:251,1,40
182,249,51315,2,0,L|211:278,1,40
210,277,51508,2,0,L|242:299,1,40
244,299,51702,2,0,L|279:315,1,40
279,315,51895,2,0,L|319:327,1,40
317,326,52089,2,0,L|359:335,1,40
356,334,52283,2,0,L|396:334,1,40
396,334,52476,5,0,0:0:0:0:
452,192,52863,1,0,0:0:0:0:
396,50,53250,1,0,0:0:0:0:
152,108,53637,5,0,0:0:0:0:
256,48,53831,1,0,0:0:0:0:
360,108,54024,2,0,B|396:160|396:160|396:192|336:232,1,160
336,231,54508,1,0,0:0:0:0:
336,231,54605,1,0,0:0:0:0:
220,292,54799,5,0,0:0:0:0:
220,292,54992,1,0,0:0:0:0:
128,192,55186,1,0,0:0:0:0:
128,192,55379,1,0,0:0:0:0:
176,64,55573,2,0,B|196:52|200:32|188:8|164:0|140:12|128:32|128:52|144:72|152:92,1,160
151,90,56057,1,0,0:0:0:0:
151,90,56153,1,0,0:0:0:0:
344,120,56347,1,0,0:0:0:0:
344,120,56541,2,0,P|368:148|380:192,1,80
416,292,56928,5,0,0:0:0:0:
416,292,57024,1,0,0:0:0:0:
416,292,57121,2,0,B|392:332|392:332|336:308|336:308|316:332|316:332|288:332,1,160
294,332,57605,1,0,0:0:0:0:
294,332,57702,1,0,0:0:0:0:
176,296,57895,1,0,0:0:0:0:
96,232,58089,1,0,0:0:0:0:
176,168,58283,1,0,0:0:0:0:
96,104,58476,2,0,B|108:68|108:68|148:52,1,80
244,32,58863,5,0,0:0:0:0:
244,32,58960,1,0,0:0:0:0:
244,32,59057,2,0,L|260:76,1,40
312,96,59251,5,0,0:0:0:0:
312,96,59348,1,0,0:0:0:0:
312,96,59444,2,0,L|328:140,1,40
380,160,59637,5,0,0:0:0:0:
380,160,59734,1,0,0:0:0:0:
380,160,59831,2,0,L|396:204,1,40
448,224,60024,5,0,0:0:0:0:
448,224,60121,1,0,0:0:0:0:
448,224,60218,2,0,B|472:252|472:252|472:280|472:280|376:280,1,160
360,280,60702,1,0,0:0:0:0:
344,280,60799,1,0,0:0:0:0:
