osu file format v9

[General]
AudioFilename: Misato Aki- Life and Proud (TV size).mp3
AudioLeadIn: 0
PreviewTime: 40883
Countdown: 0
SampleSet: Soft
StackLeniency: 0.7
Mode: 0
LetterboxInBreaks: 1

[Editor]
DistanceSpacing: 1.6
BeatDivisor: 8
GridSize: 4

[Metadata]
Title:Life and proud (TV Size)
Artist:Misato Aki
Creator:Kenezz
Version:Easy
Source:Asu no Yoichi
Tags:ending kenezzedward heatkai

[Difficulty]
HPDrainRate:1
CircleSize:3
OverallDifficulty:1
ApproachRate:1
SliderMultiplier:0.6
SliderTickRate:1

[Events]
//Background and Video events
0,0,"BG.jpg"
//Break Periods
//Storyboard Layer 0 (Background)
Sprite,Background,Centre,"BGA.jpg",320,240 S,0,4386,,0.8 F,0,4386,45961,0,1 F,0,83775,,1
//Storyboard Layer 1 (Fail)
//Storyboard Layer 2 (Pass)
//Storyboard Layer 3 (Foreground)
Sprite,Foreground,Centre,"BGB.jpg",320,240 S,0,45961,,0.8 F,0,45961,83775,0,1 F,0,83775,91334,1
Sprite,Foreground,Centre,"white.jpg",320,240 C,0,83757,,0,0,0 F,0,83757,91334,0,1
//Storyboard Sound Samples
//Background Colour Transformations
3,100,163,162,255

[TimingPoints]
4405,472.366556447804,4,2,1,60,1,0
41249,-100,4,1,0,60,0,0
42194,-100,4,2,1,80,0,0
57310,-100,4,2,1,90,0,1
72366,-100,4,2,1,90,0,0
72425,-100,4,2,1,90,0,1
81873,-100,4,2,1,90,0,0
83762,-100,4,2,1,80,0,0
84234,-100,4,2,1,70,0,0
84707,-100,4,2,1,60,0,0
85179,-100,4,2,1,50,0,0
85652,-100,4,2,1,40,0,0
86124,-100,4,2,1,30,0,0
86596,-100,4,2,1,20,0,0
86951,-100,4,2,1,10,0,0

[Colours]
Combo1 : 136,0,136
Combo2 : 0,128,255
Combo3 : 254,172,1
Combo4 : 255,128,185

[HitObjects]
256,212,4404,1,4
172,164,4877,2,0,B|160:100|208:56,1,120,0|8
304,56,6294,2,0,B|352:100|340:164,1,120
256,212,7711,1,8
196,288,8183,6,0,B|204:340|256:368|308:340|316:288,1,180,2|8
256,212,10073,2,0,B|256:92,1,120
256,92,11490,1,8
352,92,11962,6,0,B|416:112|444:164,1,120,2|0
444,260,13379,1,8
392,340,13852,2,0,B|328:320|308:260,1,120,2|0
256,180,15269,1,8
324,112,15741,6,0,B|272:116|256:64|256:64|240:116|188:112,1,180,0|8
256,180,17631,1,2
203,260,18103,2,0,B|184:320|120:340,1,120,0|8
68,260,19520,5,2
67,164,19993,2,0,B|96:112|160:92,1,120,0|8
208,176,21410,2,0,B|171:190|179:226|142:241,2,90,2|2|8
304,176,23299,2,0,B|340:190|332:226|369:241,2,90,2|2|8
372,108,25189,5,0
304,40,25661,1,2
208,40,26133,1,2
140,108,26606,1,8
200,184,27078,6,0,B|256:148|312:184,1,120,4|0
256,264,28495,1,8
256,264,28968,2,0,B|256:324,2,60,2|0|0
256,168,30385,1,8
316,92,30857,6,0,B|300:48|256:28|256:28|212:48|196:92,2,180,2|8|0
392,152,34164,5,8
352,240,34636,1,2
256,256,35108,2,0,B|256:196,1,60
160,240,36053,5,8
120,152,36525,1,2
200,96,36998,2,0,B|256:72|256:72|312:96,1,120,0|8
256,192,38415,12,2,40304
256,44,41249,6,0,B|240:80|256:104|272:128|256:160,1,120,0|4
196,236,42666,2,0,B|130:221|116:156,2,120,8|8|8
256,160,45028,1,0
314,236,45500,6,0,B|379:221|393:156,2,120,8|8|8
256,312,47862,1,0
256,312,48335,1,8
256,312,48807,2,0,B|256:372,2,60,0|8|0
256,216,50224,5,8
256,120,50696,1,0
312,44,51169,2,0,B|256:20|256:20|200:44,1,120,8|8
256,120,52586,1,0
256,216,53058,1,8
196,292,53531,6,0,B|200:344|256:372|312:344|316:292,1,180,2|8
256,216,55420,1,4
256,216,55892,2,0,B|256:156,2,60,8|0|8
352,228,57310,5,4
304,312,57782,1,8
208,312,58254,1,0
160,228,58727,1,8
176,132,59199,2,0,B|228:120|256:160|256:160|284:120|336:132,1,180,0|8
336,228,61088,1,0
336,228,61561,6,0,B|372:284|336:340,1,120,8|8
256,276,62978,1,0
176,340,63450,2,0,B|140:284|176:228,1,120,8|8
112,156,64867,6,0,B|64:120,1,60,4|8
152,80,65812,2,0,B|208:104,1,60,0|8
304,104,66757,2,0,B|359:80,1,60,0|8
448,120,67702,2,0,B|400:156,1,60,0|8
340,232,68646,6,0,B|288:243|188:279|188:351|256:383|324:351|324:279|224:243|172:231,1,360,2|0
256,180,71953,2,0,B|256:120,1,60,8|4
172,72,72898,5,8
256,24,73370,1,0
340,72,73842,1,8
256,120,74315,1,2
256,120,74787,2,0,B|256:240,1,120,8|8
256,240,76204,5,2
348,216,76677,2,0,B|392:256|380:332,2,120,8|8|8
256,184,79038,1,0
256,184,79511,1,8
164,216,79983,6,0,B|120:256|132:332,2,120,4|0|0
256,184,82345,2,0,B|288:132|224:124|256:72,1,120,4|2
256,192,83762,12,0,87069
