osu file format v7

[General]
AudioFilename: beautiful flower.mp3
AudioLeadIn: 0
PreviewTime: 15516
Countdown: 1
SampleSet: Soft
StackLeniency: 0.7
Mode: 0
LetterboxInBreaks: 1

[Editor]
Bookmarks: 8016
DistanceSpacing: 0.800000011920929
BeatDivisor: 4
GridSize: 8

[Metadata]
Title:Beautiful Flower
Artist:Misato Aki
Creator:kiddly
Version:Standard
Source:D.C.II ~Da Capo II~
Tags:D.C.II.Vocal.Album.-.Songs.from.D.C.II.

[Difficulty]
HPDrainRate:4
CircleSize:4
OverallDifficulty:5
SliderMultiplier:1.2
SliderTickRate:1

[Events]
//Background and Video events
0,0,"BG.jpg"
//Break Periods
2,92591,104550
//Storyboard Layer 0 (Background)
//Storyboard Layer 1 (Fail)
//Storyboard Layer 2 (Pass)
//Storyboard Layer 3 (Foreground)
//Storyboard Sound Samples
//Background Colour Transformations
3,100,163,162,255

[TimingPoints]
516,468.75,4,2,0,61,1,0
45984,-100,4,1,0,61,0,0
49148,-100,4,2,0,61,0,0
49383,-100,4,1,0,61,0,0
52898,-100,4,2,0,61,0,0
53133,-100,4,1,0,61,0,0
58523,-100,4,2,0,61,0,0
58758,-100,4,1,0,61,0,0
73523,-100,4,2,0,61,0,0
73758,-100,4,1,0,61,0,0
89578,-100,4,2,0,0,0,0
92625,-100,4,2,0,61,0,0
120984,-100,4,1,0,61,0,0
124148,-100,4,2,0,61,0,0
124383,-100,4,1,0,61,0,0
126023,-100,4,2,0,61,0,0
126258,-100,4,1,0,61,0,0
133523,-100,4,2,0,61,0,0
133758,-100,4,1,0,61,0,0
148523,-100,4,2,0,61,0,0
148758,-100,4,1,0,61,0,0
150516,-100,4,1,0,61,0,1
151101,-100,4,2,0,61,0,1
151336,-100,4,1,0,61,0,1
152976,-100,4,2,0,61,0,1
153211,-100,4,1,0,61,0,1
154851,-100,4,1,0,61,0,1
155086,-100,4,1,0,61,0,1
156726,-100,4,1,0,61,0,1
156961,-100,4,1,0,61,0,1
163523,-100,4,2,0,61,0,1
164578,-100,4,2,0,0,0,1

[Colours]
Combo1 : 255,9,132
Combo2 : 255,128,255
SliderBorder : 255,128,255

[HitObjects]
256,64,8016,1,0
440,192,8953,1,2
256,320,9891,1,0
72,192,10828,1,2
368,288,11766,5,0
152,232,12703,1,2
368,160,13641,1,0
152,96,14578,1,2
360,128,15750,6,0,B|440:192|352:272,1,150
328,192,16687,5,0
296,232,16922,1,2
264,192,17156,1,0
232,152,17391,1,2
208,192,17625,1,0
184,232,17859,1,2
152,192,18094,2,0,B|112:192,1,30
288,192,19031,2,0,B|368:192,1,60,0|4
88,160,19969,6,0,B|253:53|429:165,1,360
256,312,23719,6,0,B|296:304|304:272,1,60,0|2
256,256,24187,2,0,B|216:248|208:216,1,60,0|0
256,200,24656,2,0,B|296:192|304:160,1,60,0|2
256,112,25125,2,0,B|216:112,1,30
256,112,25476,2,0,B|296:112,1,30
368,216,26062,5,0
416,160,26297,1,2
464,216,26531,1,0
416,272,26766,2,0,B|376:336|288:336,1,120,0|2
318,334,27469,2,0,B|241:337|145:337|89:257,1,240,2|0
96,216,28641,1,2
136,152,28992,1,0
184,136,29226,2,4,B|224:136,1,30,0|4
480,200,30750,6,0,B|416:144|408:248|336:192,1,150
280,168,31687,1,0
280,216,31922,1,2
232,216,32156,1,0
232,168,32391,1,0
184,168,32625,1,0
184,216,32859,1,2
144,192,33094,2,0,B|8:192,2,120
192,192,34266,1,4
104,80,34969,6,0,B|272:128|192:248|400:288,1,360
440,96,38719,6,0,B|376:96,1,60,0|0
440,144,39187,2,0,B|376:144,1,60,0|2
440,200,39656,2,0,B|376:200,1,60
440,256,40125,2,0,B|360:256,1,60,0|2
384,304,40594,6,0,B|304:304|280:232,1,120
264,208,41297,1,2
248,160,41531,1,0
240,112,41766,2,0,B|208:40|72:40,1,180
80,192,43406,5,0
128,192,43641,2,0,B|184:136|240:248|304:192,1,180
416,304,46219,6,0,B|432:336|472:344,4,60
392,264,47391,2,0,B|328:176|240:168,1,180
246,168,48328,2,0,B|96:151|40:39,1,240,0|4
474,130,49969,5,0
432,105,50203,2,0,B|373:99|336:153,1,90
334,205,50906,1,0
324,252,51141,2,0,B|280:344|168:352,1,180,0|0
168,304,52078,2,0,B|280:288|304:192|318:113,1,240,0|4
128,56,53484,5,0
144,104,53719,2,0,B|88:95|82:168|224:174|224:174|258:30|185:24|176:80,1,360
256,192,55594,12,4,58641
72,72,60516,6,0,B|168:24|248:80,1,180,0|0
464,136,62156,1,0
424,160,62391,2,0,B|328:200|232:136,1,180,0|0
64,200,64031,1,0
112,216,64266,2,0,B|208:264|312:208,1,180,0|0
472,264,65906,1,0
424,280,66141,2,0,B|336:320|224:272,1,180,0|0
136,120,67781,5,0
176,88,68016,2,0,B|256:32|360:96,1,180,0|0
384,128,68953,2,0,B|440:208|376:312,1,180
344,320,69891,2,0,B|264:376|160:312,1,180,0|0
136,288,70828,2,0,B|80:208|144:104,1,180,0|0
168,152,71766,6,0,B|208:248|304:280,1,180,0|0
336,224,72703,2,0,B|312:136|200:104,1,180
160,96,73641,1,4
56,160,74344,6,0,B|32:192|56:232,4,60
88,192,75516,2,0,B|144:152|208:232|272:192,1,180,0|0
456,192,77156,1,0
408,192,77391,2,0,B|352:152|288:232|224:192,1,180,0|0
256,40,79031,1,0
256,88,79266,2,0,B|216:144|296:208|256:272,1,180,0|0
256,344,80906,1,0
256,296,81141,2,0,B|216:240|296:176|256:112,1,180,0|0
432,200,82781,5,0
408,240,83016,2,2,B|312:368|200:224,1,240,2|0
80,184,84656,1,0
104,144,84891,2,2,B|200:16|312:160,1,240,2|0
256,192,86531,12,4,88641
256,192,89578,12,0,92391
456,72,105750,6,0,B|448:160|320:160,1,150
288,184,106687,1,0
264,224,106922,1,2
216,216,107156,1,0
192,256,107391,1,0
144,248,107625,1,0
120,288,107859,1,2
72,272,108094,2,0,B|64:184|152:168,2,120
72,320,109266,1,4
104,80,109969,6,0,B|272:128|192:248|400:288,1,360
440,96,113719,6,0,B|408:128|376:88,1,60
336,96,114187,2,0,B|304:80|272:104,1,60,0|2
232,96,114656,2,0,B|200:120|168:88,1,60
128,96,115125,2,0,B|88:80|56:104,1,60,0|2
24,120,115594,6,0,B|24:200|96:224,1,120
128,240,116297,1,2
176,248,116531,1,0
224,232,116766,2,0,B|301:218|416:304,1,180,0|4
432,192,118406,5,0
384,192,118641,2,0,B|328:136|272:248|208:192,1,180
312,232,121219,6,0,B|328:264|368:272,4,60
360,216,122391,2,0,B|296:128|208:120,1,180
168,136,123328,2,0,B|251:261|376:260,1,240,0|4
456,72,124969,5,0
408,72,125203,2,0,B|349:82|328:144,1,90
408,144,125906,1,0
456,144,126141,2,0,B|415:248|299:238,1,180,4|0
312,288,127078,2,0,B|203:312|137:242|100:167,1,240,0|0
200,88,128484,5,0
216,136,128719,2,0,B|160:127|154:200|296:206|296:206|330:62|257:56|248:112,1,360
256,192,130594,12,4,133641
376,96,134344,6,0,B|456:96,1,60
464,152,134812,2,0,B|392:152,1,60
352,152,135281,1,0
320,112,135516,6,0,B|232:64|144:120,1,180,0|0
128,160,137156,1,0
152,200,137391,2,0,B|248:240|344:176,1,180,0|0
384,248,139031,1,0
352,288,139266,2,0,B|256:336|152:280,1,180,0|0
144,256,140906,1,0
176,216,141141,2,0,B|264:176|376:224,1,180,0|0
56,168,142781,5,0
96,136,143016,2,0,B|190:112|264:209,1,180,0|0
280,240,143953,2,0,B|376:256|448:168,1,180
424,136,144891,2,0,B|329:112|255:209,1,180,0|0
240,240,145828,2,0,B|143:256|72:168,1,180
112,144,146766,6,0,B|206:112|310:152,1,180,0|0
288,96,147703,2,0,B|193:64|89:104,1,180
72,120,148641,1,4
216,176,149344,5,0
256,144,149578,1,0
296,176,149812,1,0
280,224,150047,1,0
232,224,150281,1,0
184,208,150516,2,0,B|88:152|88:56,1,180,0|2
280,160,152156,1,0
328,176,152391,2,0,B|424:232|424:328,1,180,0|2
232,160,154031,1,0
184,176,154266,2,0,B|88:232|88:328,1,180,0|2
280,224,155906,1,0
328,208,156141,2,0,B|424:152|424:56,1,180,0|2
392,280,157781,5,0
344,280,158016,2,2,B|248:208|208:344|88:264,1,240,2|0
120,104,159656,1,0
168,104,159891,2,2,B|264:176|304:40|424:120,1,240,2|0
256,192,161531,12,4,163641
256,192,164578,12,0,167391
