osu file format v7

[General]
AudioFilename: beautiful flower.mp3
AudioLeadIn: 0
PreviewTime: 15516
Countdown: 1
SampleSet: Soft
StackLeniency: 0.5
Mode: 0
LetterboxInBreaks: 1

[Editor]
Bookmarks: 8016
DistanceSpacing: 1
BeatDivisor: 4
GridSize: 8

[Metadata]
Title:Beautiful Flower
Artist:Misato Aki
Creator:kiddly
Version:Hard
Source:D.C.II ~Da Capo II~
Tags:D.C.II Vocal Album - Songs from D.C.II

[Difficulty]
HPDrainRate:7
CircleSize:5
OverallDifficulty:6
SliderMultiplier:1.4
SliderTickRate:1

[Events]
//Background and Video events
0,0,"BG.jpg"
//Break Periods
2,92591,104700
//Storyboard Layer 0 (Background)
//Storyboard Layer 1 (Fail)
//Storyboard Layer 2 (Pass)
//Storyboard Layer 3 (Foreground)
//Storyboard Sound Samples
//Background Colour Transformations
3,100,163,162,255

[TimingPoints]
516,468.75,4,2,0,61,1,0
14930,-100,4,1,0,71,0,0
15164,-100,4,2,0,61,0,0
15457,-100,4,1,0,71,0,0
15574,-100,4,2,0,61,0,0
15867,-100,4,1,0,40,0,0
16101,-100,4,2,0,60,0,0
16805,-100,4,1,0,40,0,0
17039,-100,4,2,0,61,0,0
17273,-100,4,1,0,41,0,0
17508,-100,4,2,0,59,0,0
17742,-100,4,1,0,40,0,0
17976,-100,4,2,0,59,0,0
18152,-100,4,1,0,42,0,0
18445,-100,4,2,0,61,0,0
19148,-100,4,1,0,41,0,0
19383,-100,4,2,0,61,0,0
20086,-100,4,1,0,41,0,0
20320,-100,4,2,0,61,0,0
20789,-100,4,1,0,42,0,0
21609,-100,4,2,0,60,0,0
23836,-100,4,1,0,41,0,0
24070,-100,4,2,0,60,0,0
24305,-100,4,1,0,40,0,0
24539,-100,4,2,0,61,0,0
24773,-100,4,1,0,41,0,0
25008,-100,4,2,0,61,0,0
25945,-100,4,1,0,41,0,0
26180,-100,4,2,0,60,0,0
26648,-100,4,1,0,41,0,0
26883,-100,4,2,0,60,0,0
27351,-100,4,1,0,41,0,0
27586,-100,4,2,0,60,0,0
28523,-100,4,1,0,41,0,0
28758,-100,4,2,0,59,0,0
29109,-100,4,1,0,41,0,0
29461,-100,4,2,0,60,0,0
30867,-100,4,1,0,41,0,0
31101,-100,4,2,0,60,0,0
31805,-100,4,1,0,40,0,0
32039,-100,4,2,0,60,0,0
32273,-100,4,1,0,39,0,0
32508,-100,4,2,0,60,0,0
32742,-100,4,1,0,39,0,0
32976,-100,4,2,0,62,0,0
34148,-100,4,1,0,51,0,0
34383,-100,4,2,0,60,0,0
34617,-100,4,1,0,41,0,0
34851,-100,4,2,0,60,0,0
35086,-100,4,1,0,40,0,0
35320,-100,4,2,0,60,0,0
36141,-100,4,1,0,41,0,0
36609,-100,4,2,0,61,0,0
38836,-100,4,1,0,40,0,0
39070,-100,4,2,0,59,0,0
39305,-100,4,1,0,39,0,0
39539,-100,4,2,0,60,0,0
39773,-100,4,1,0,41,0,0
40008,-100,4,2,0,61,0,0
40359,-100,4,1,0,39,0,0
40711,-100,4,2,0,60,0,0
41180,-100,4,1,0,40,0,0
41414,-100,4,2,0,61,0,0
43289,-100,4,1,0,41,0,0
43758,-100,4,2,0,60,0,0
44109,-100,4,1,0,41,0,0
44461,-100,4,2,0,60,0,0
45984,-100,4,1,0,60,0,0
47508,-100,4,2,0,60,0,0
48211,-200,4,2,0,61,0,0
49383,-100,4,1,0,51,0,0
51023,-100,4,2,0,61,0,0
51726,-100,4,1,0,51,0,0
58523,-100,4,2,0,81,0,0
58758,-100,4,1,0,61,0,0
61570,-100,4,2,0,100,0,0
62039,-100,4,1,0,61,0,0
63445,-100,4,2,0,100,0,0
63914,-100,4,1,0,61,0,0
65320,-100,4,2,0,100,0,0
65789,-100,4,1,0,61,0,0
67664,-100,4,2,0,80,0,0
67898,-100,4,1,0,61,0,0
68601,-100,4,2,0,81,0,0
68836,-100,4,1,0,61,0,0
69539,-100,4,2,0,81,0,0
69773,-100,4,1,0,61,0,0
70476,-100,4,2,0,79,0,0
70711,-100,4,1,0,61,0,0
76570,-100,4,2,0,100,0,0
77039,-100,4,1,0,61,0,0
78094,-200,4,1,0,61,0,0
78445,-100,4,2,0,100,0,0
78883,-100,4,1,0,61,0,0
80320,-100,4,2,0,100,0,0
80789,-100,4,1,0,60,0,0
82664,-100,4,2,0,82,0,0
82898,-100,4,1,0,60,0,0
83601,-100,4,2,0,81,0,0
83836,-100,4,1,0,60,0,0
84539,-100,4,2,0,79,0,0
84773,-100,4,1,0,60,0,0
85476,-100,4,2,0,80,0,0
85711,-100,4,1,0,60,0,0
88523,-100,4,2,0,71,0,0
89344,-100,4,2,0,0,0,1
92391,-100,4,2,0,0,0,0
105516,-100,4,2,0,60,0,0
120984,-100,4,1,0,60,0,0
122508,-100,4,2,0,69,0,0
124383,-100,4,1,0,61,0,0
128367,-100,4,2,0,61,0,0
130711,-100,4,1,0,61,0,0
133406,-100,4,2,0,61,0,0
133774,-100,4,1,0,61,0,0
136570,-100,4,2,0,100,0,0
137038,-100,4,1,0,60,0,0
138445,-100,4,2,0,100,0,0
138914,-100,4,1,0,61,0,0
140320,-100,4,2,0,100,0,0
140789,-100,4,1,0,60,0,0
142677,-100,4,2,0,81,0,0
142903,-100,4,1,0,60,0,0
143601,-100,4,2,0,79,0,0
143836,-100,4,1,0,60,0,0
144539,-100,4,2,0,79,0,0
144773,-100,4,1,0,60,0,0
145476,-100,4,2,0,79,0,0
145711,-100,4,1,0,60,0,0
150516,-100,4,1,0,60,0,1
151570,-100,4,2,0,100,0,1
152039,-100,4,1,0,60,0,1
153445,-100,4,2,0,100,0,1
153914,-100,4,1,0,60,0,1
155320,-100,4,2,0,100,0,1
155789,-100,4,1,0,62,0,1
157664,-100,4,2,0,81,0,1
157883,-100,4,1,0,60,0,1
158601,-100,4,2,0,82,0,1
158836,-100,4,1,0,60,0,1
159539,-100,4,2,0,79,0,1
159773,-100,4,1,0,60,0,1
160476,-100,4,2,0,79,0,1
160711,-100,4,1,0,60,0,1
164109,-100,4,2,0,81,0,1
165398,-200,4,2,0,100,0,1
165984,-100,4,2,0,0,0,1
167391,-100,4,2,0,0,0,0

[Colours]
Combo1 : 255,23,139
Combo2 : 255,128,255
SliderBorder : 255,128,255

[HitObjects]
24,168,8016,2,0,L|144:64,1,140,2|0
72,208,8953,2,0,L|192:312,1,140,2|0
120,168,9891,2,0,L|240:64,1,140,2|0
168,208,10828,2,0,L|288:312,1,140,2|0
472,192,11766,6,0,B|480:280|416:344,1,140,2|0
416,192,12703,2,0,B|424:104|360:40,1,140,2|0
360,192,13641,2,0,B|368:280|304:344,1,140,2|0
184,328,14578,1,0
120,296,14812,1,0
184,264,15047,1,0
248,296,15281,1,0
248,296,15398,1,0
248,296,15516,1,0
320,288,15750,5,0
376,240,15984,1,0
408,176,16219,1,0
400,144,16336,1,0
320,80,16687,5,0
248,96,16922,1,0
296,144,17156,1,0
224,160,17391,1,0
192,224,17625,1,0
120,208,17859,1,0
64,256,18094,1,0
80,288,18211,2,0,B|152:352|264:320,1,175,0|2
312,304,19031,5,0
368,264,19266,1,0
456,152,19734,1,2
400,112,19969,1,0
336,80,20203,2,0,B|264:40|192:80,1,140,0|2
136,96,20906,1,0
136,96,21023,1,0
72,128,21258,1,0
48,152,21375,1,0
96,304,23719,5,0
160,328,23953,1,0
208,280,24187,1,0
168,224,24422,1,0
104,240,24656,1,0
120,168,24891,1,0
176,120,25125,1,0
176,120,25242,1,0
240,88,25476,1,0
240,88,25594,2,0,B|320:48|384:120,1,140
424,152,26297,5,2
448,216,26531,1,0
424,280,26766,1,0
296,224,27234,1,2
240,184,27469,2,0,L|112:88,1,140
240,184,28406,1,0
296,224,28641,2,0,L|392:288,1,105,0|0
440,320,29226,1,0
440,320,29344,1,0
96,80,30750,5,0
168,72,30984,1,0
144,136,31219,1,0
144,136,31336,1,0
112,240,31687,5,0
160,296,31922,1,0
184,232,32156,1,0
232,288,32391,1,0
256,224,32625,1,0
264,152,32859,2,0,B|320:128|320:200,1,70,0|0
304,208,33211,2,0,B|280:272|400:320|424:248,1,175
448,200,34031,1,0
424,136,34266,1,0
296,160,34734,5,0
224,168,34969,1,0
152,184,35203,2,0,B|56:200|40:280,1,140,0|0
152,264,36023,2,0,B|200:264|232:224,1,70
240,216,36375,1,0
88,88,38719,5,0
120,152,38953,1,0
176,192,39187,1,0
244,200,39422,1,0
312,200,39656,2,0,B|368:208|384:256,1,70,0|0
312,272,40125,1,0
312,272,40242,1,0
376,304,40476,1,0
376,304,40594,1,0
432,104,41062,6,0,L|376:160,2,70,0|0|0
383,154,41766,2,0,B|328:192|232:192,1,140,0|2
250,192,42469,2,0,B|160:192|96:144,1,140
216,248,43406,1,0
288,248,43641,2,0,B|352:248|408:184,1,105,0|0
432,160,44226,1,0
432,160,44344,1,0
80,96,46219,5,0
88,168,46453,1,0
128,224,46687,1,0
176,280,46922,2,0,B|216:320|264:288,1,70
304,280,47391,2,0,B|408:184|312:72,1,210,0|0
256,80,48328,2,0,B|208:144|320:152|256:208,1,140,0|4
56,104,49969,5,0
80,168,50203,2,0,L|144:208,1,70
144,240,50555,2,0,L|272:264,1,105
247,259,51141,2,0,L|399:259,1,140,0|0
456,256,51844,1,0
456,256,52078,1,0
128,272,53484,5,0
104,208,53719,2,0,B|160:120|248:192,1,140
360,192,54656,2,0,B|312:280|216:208,1,140
344,128,55594,1,0
288,88,55828,2,0,B|232:48|184:112,1,105
195,98,56531,1,0
256,192,56766,12,4,58641
256,128,59344,5,0
328,192,59578,1,0
296,272,59812,1,0
218,271,60047,1,0
188,192,60281,1,0
88,120,60516,6,0,B|128:72|184:72,1,105
248,64,61101,1,0
248,64,61219,1,0
408,200,61687,1,0
408,200,61922,1,0
376,264,62156,5,0
352,296,62273,1,0
320,312,62391,2,0,L|240:304,1,70
216,296,62742,2,0,L|128:248,1,70
136,232,63094,1,0
424,64,63562,1,0
424,64,63797,1,0
408,136,64031,5,0
400,168,64148,1,0
392,200,64266,1,0
336,240,64500,1,0
304,248,64617,1,0
232,256,64851,1,0
200,240,64969,2,0,L|88:136,1,140
96,144,65672,1,0
48,240,65906,5,0
72,264,66023,1,0
104,272,66141,1,0
176,272,66375,1,0
176,272,66492,1,0
248,272,66726,1,0
280,272,66844,2,0,B|400:256|472:216|472:96,1,280
400,96,68016,6,0,L|184:130,1,210
184,200,68953,2,0,L|392:168,1,210
384,240,69891,2,0,L|168:272,1,210
168,344,70828,2,0,L|400:312,1,210
400,288,71648,5,0
400,256,71766,2,0,L|352:192,1,70
336,176,72117,2,0,L|232:136,1,105
200,192,72703,2,0,L|96:184,1,70
104,208,73055,2,0,L|8:128,1,105
24,72,73641,1,0
440,184,74344,6,0,L|360:208,1,70,0|0
280,232,74812,2,0,L|360:208,1,70,0|0
336,144,75281,1,0
272,160,75516,2,0,L|160:192,1,105
104,208,76101,1,0
72,216,76219,1,0
360,304,76687,1,0
360,304,76922,1,0
344,232,77156,5,0
360,160,77391,2,0,L|448:144,1,70
328,136,77742,2,0,L|312:40,1,70
304,168,78094,2,0,B|224:184,1,70,0|0
168,192,78797,1,0
104,208,79031,5,0
120,240,79148,1,0
144,264,79266,2,0,B|176:288|224:288,1,70
240,288,79617,2,0,L|328:288,1,70
344,288,79969,1,0
456,200,80437,1,0
456,200,80672,1,0
440,128,80906,5,0
408,120,81023,1,0
376,128,81141,1,0
312,160,81375,1,0
280,144,81492,1,0
216,120,81726,1,0
184,136,81844,2,0,L|40:136,1,140
44,137,82547,1,0
64,200,82781,5,0
120,160,83016,2,0,B|184:256|120:368,1,210
192,360,83953,2,0,B|250:257|186:161,1,210
256,160,84891,2,0,B|320:256|256:368,1,210
328,360,85828,2,0,B|386:257|322:161,1,210
304,136,86648,5,0
280,112,86766,2,0,L|136:112,1,140
184,168,87469,2,0,L|336:168,1,140
368,224,88172,2,0,L|208:224,1,140,0|4
256,192,89344,12,0,92391
64,184,105750,5,0
128,152,105984,1,2
184,200,106219,1,0
216,184,106336,1,0
320,192,106687,5,0
384,160,106922,1,2
440,200,107156,1,0
408,264,107391,1,0
336,264,107625,2,0,B|248:304,1,70
200,304,108094,1,0
200,304,108211,2,0,B|104:304|48:216,1,175,0|2
112,176,109031,1,0
184,168,109266,1,0
424,320,109734,5,2
424,320,109969,1,0
376,272,110203,2,0,L|264:144,1,140,0|2
216,88,111023,2,0,L|136:88,1,70
146,88,111375,1,0
416,80,113719,5,0
352,56,113953,1,2
304,104,114187,1,0
344,160,114422,1,2
408,144,114656,1,0
392,216,114891,1,0
336,264,115125,1,0
336,264,115242,1,0
272,296,115476,1,0
272,296,115594,2,0,B|192:336|128:264,1,140
88,232,116297,5,2
64,168,116531,1,0
88,104,116766,1,0
216,160,117234,1,2
272,200,117469,2,0,L|400:296,1,140,2|0
272,200,118406,1,0
216,160,118641,2,0,L|120:96,1,105
72,64,119226,1,0
72,64,119344,1,0
448,56,121219,5,0
384,72,121453,1,0
344,128,121687,1,0
321,191,121922,2,0,B|294:229|237:241,1,70
267,232,122391,2,0,B|170:274|49:169,1,210,0|0
72,120,123328,2,0,B|144:48|248:48|328:128,1,280,0|4
192,280,124969,5,0
264,296,125203,2,0,B|328:304|360:240,2,105
192,280,126141,2,0,B|104:240|104:160,1,140
104,112,126844,1,0
104,112,127078,1,0
136,248,128484,5,0
72,200,128719,2,0,L|224:144,1,140,0|2
344,168,129656,2,0,L|200:224,1,140,2|0
304,112,130594,1,2
232,136,130828,2,0,L|112:184,1,105,0|0
134,174,131531,1,0
256,192,131766,12,4,133641
424,88,134344,5,0
440,160,134578,1,0
408,224,134812,1,0
352,264,135047,1,0
280,264,135281,1,0
208,248,135516,6,0,L|128:216,1,70
144,223,135867,1,0
80,192,136101,1,0
80,192,136219,1,0
88,312,136687,1,0
152,336,136922,1,0
224,320,137156,5,0
256,312,137273,1,0
288,304,137391,2,0,L|360:264,1,70
376,288,137742,2,0,L|424:200,1,70
440,208,138094,1,0
104,112,138562,1,0
104,112,138797,1,0
176,112,139031,5,0
200,88,139148,1,0
232,96,139266,1,0
280,144,139500,1,0
312,128,139617,1,0
376,96,139851,1,0
400,120,139969,2,0,B|456:184|408:264,1,140
416,248,140672,1,0
384,312,140906,5,0
352,304,141023,1,0
328,280,141141,1,0
288,224,141375,1,0
280,192,141492,1,0
232,136,141726,1,0
200,120,141844,2,0,B|72:80|-8:168|56:288,1,280
112,256,143016,6,0,B|192:336|336:296,1,210
320,368,143953,2,0,B|424:323|440:175,1,210
496,248,144891,2,0,B|505:135|382:50,1,210
448,16,145828,2,0,B|360:-16|304:64,1,140
288,112,146531,1,0
256,120,146648,5,0
240,144,146766,2,0,B|240:192|216:216,1,70
200,240,147117,1,0
176,264,147234,2,0,B|152:304|96:296,1,70
80,288,147586,1,0
56,264,147703,2,0,B|32:216|72:176,1,70
72,168,148055,2,0,B|104:120|192:128,1,105
152,128,148641,1,0
368,264,149344,6,0,B|408:288|456:248,1,70
368,264,149812,2,0,B|328:240|280:280,1,70,0|0
240,304,150281,1,0
184,264,150516,6,0,B|154:235|122:291|82:259,1,105
112,200,151101,1,0
112,200,151219,1,0
440,192,151687,1,0
440,192,151922,1,0
368,192,152156,5,0
336,176,152273,1,0
304,200,152391,2,0,B|264:224|208:184,1,70
216,176,152742,2,0,B|176:144|128:192,1,70
120,192,153094,1,0
88,328,153562,1,0
88,328,153797,1,0
144,288,154031,5,0
168,264,154148,1,0
200,248,154266,2,0,B|224:216|272:240,1,70
256,272,154617,2,0,B|290:292|325:251,1,70
336,224,154969,1,0
424,96,155437,1,0
424,96,155672,1,0
360,64,155906,5,0
328,64,156023,1,0
296,72,156141,2,0,B|240:128,1,70
224,112,156492,2,0,B|184:200,1,70,0|0
168,184,156844,2,0,L|168:336,1,140
240,344,157547,1,0
312,336,157781,1,0
376,304,158016,6,0,B|424:208|368:88,1,210
312,48,158953,2,0,B|264:144|320:264,1,210
256,288,159891,2,0,B|160:344|48:288,1,210
8,232,160828,2,0,B|120:176|232:240,1,210
232,256,161648,1,0
256,288,161766,2,0,B|332:328|424:312,1,140
472,224,162469,2,0,B|420:262|336:248,1,140
256,160,163172,2,0,B|331:190|400:184,1,140
48,240,164344,5,0
56,208,164461,1,0
80,184,164578,2,0,B|133:179|136:122,1,70,2|0
160,72,165047,2,0,B|184:40|232:40,1,70,2|0
256,40,165398,6,0,B|160:152|352:224|256:320,1,297.5
