osu file format v14

[General]
AudioFilename: Watashitachi Kinenbi.mp3
AudioLeadIn: 0
PreviewTime: 72446
Countdown: 0
SampleSet: Soft
StackLeniency: 0.7
Mode: 0
LetterboxInBreaks: 1
WidescreenStoryboard: 0

[Editor]
Bookmarks: 107863
DistanceSpacing: 1.1
BeatDivisor: 4
GridSize: 32
TimelineZoom: 1

[Metadata]
Title:Watashitachi Kinenbi
TitleUnicode:わたしたち記念日
Artist:Misaki Akeno (CV. Natsukawa Shiina) , China Moeka (CV. Amamiya Sora)
ArtistUnicode:岬明乃(CV. 夏川椎菜)、 知名もえか(CV. 雨宮 天)
Creator:Rizia
Version:Insane
Source:ハイスクール・フリート
Tags:High School Fleet はいふり Hai-Furi haifuri kawaiwkyik sahuang
BeatmapID:1006332
BeatmapSetID:459700

[Difficulty]
HPDrainRate:6
CircleSize:4
OverallDifficulty:7
ApproachRate:8
SliderMultiplier:1.7
SliderTickRate:1

[Events]
//Background and Video events
0,0,"Haifuri.jpg",0,0
//Break Periods
2,96729,98446
2,158063,165113
2,182063,190446
2,212729,214279
//Storyboard Layer 0 (Background)
//Storyboard Layer 1 (Fail)
//Storyboard Layer 2 (Pass)
//Storyboard Layer 3 (Foreground)
//Storyboard Sound Samples

[TimingPoints]
530,333.333333333333,4,2,1,60,1,0
530,-133.333333333333,4,2,1,60,0,0
5863,-100,4,2,1,60,0,0
11196,-142.857142857143,4,2,1,60,0,0
16529,-100,4,2,1,60,0,0
21863,-125,4,2,1,60,0,0
24529,-125,4,2,1,50,0,0
25863,-142.857142857143,4,2,1,40,0,0
29529,-142.857142857143,4,2,1,50,0,0
29863,-100,4,2,1,60,0,0
34696,-200,4,2,1,60,0,0
35196,-100,4,2,1,60,0,0
45863,-142.857142857143,4,2,1,60,0,0
51196,-111.111111111111,4,2,1,60,0,0
56863,-125,4,2,1,60,0,0
57696,-111.111111111111,4,2,1,60,0,0
59029,-100,4,2,1,60,0,0
61863,-100,4,2,1,60,0,1
72446,-100,4,2,1,60,0,0
72529,-100,4,2,1,60,0,1
84863,-200,4,2,1,60,0,0
89696,-111.111111111111,4,2,1,60,0,0
91196,-100,4,2,1,60,0,0
99196,-100,4,2,1,40,0,0
101863,-142.857142857143,4,2,1,40,0,0
104529,-111.111111111111,4,2,1,50,0,0
107196,-100,4,2,1,60,0,0
117863,-142.857142857143,4,2,1,60,0,0
123196,-111.111111111111,4,2,1,60,0,0
128863,-125,4,2,1,60,0,0
129696,-111.111111111111,4,2,1,60,0,0
131029,-100,4,2,1,60,0,0
133863,-100,4,2,1,60,0,1
156863,-200,4,2,1,60,0,0
165863,-125,4,2,1,60,0,0
168529,-100,4,2,1,60,0,0
170029,-100,4,2,1,30,0,0
170113,-100,4,2,1,40,0,0
170196,-100,4,2,1,50,0,0
170279,-100,4,2,1,60,0,0
170863,-83.3333333333333,4,2,1,60,0,0
171196,-100,4,2,1,60,0,0
191196,-125,4,2,1,60,0,0
192529,-100,4,2,1,60,0,1
211529,-200,4,2,1,60,0,0
212529,-133.333333333333,4,2,1,60,0,0
217863,-100,4,2,1,60,0,0

[Colours]
Combo1 : 0,128,255
Combo2 : 128,64,64
Combo3 : 128,128,128

[HitObjects]
200,144,363,5,8,0:0:0:0:
200,144,446,1,8,0:0:0:0:
200,144,530,1,4,0:0:0:0:
160,224,863,6,0,P|192:232|248:68,1,255.000009727478,0|0,0:0|0:0,0:0:0:0:
257,75,2196,2,0,P|242:191|354:223,1,255.000009727478,0|0,0:0|0:0,0:0:0:0:
312,144,3029,5,8,0:0:0:0:
312,144,3112,1,8,0:0:0:0:
312,144,3196,1,4,0:0:0:0:
196,212,3529,6,0,B|140:284|208:372|208:372|276:300,1,255.000009727478,0|0,0:0|0:0,0:0:0:0:
312,144,4863,2,0,P|264:124|168:132,1,127.500004863739,0|4,0:0|0:3,0:0:0:0:
72,168,5363,2,0,L|68:120,5,31.8750012159348,0|8|8|8|8|8,0:0|0:0|0:0|0:0|0:0|0:0,0:0:0:0:
72,168,5863,6,0,P|68:228|64:360,1,170,4|8,0:0|0:0,0:0:0:0:
180,372,6363,2,0,P|176:312|172:272,1,85,0|0,0:0|0:0,0:0:0:0:
288,224,6696,2,0,P|284:266|281:308,1,85,0|8,0:0|0:0,0:0:0:0:
384,364,7029,6,0,P|424:376|520:308,1,170,4|0,0:0|0:0,0:0:0:0:
448,132,7529,1,8,0:0:0:0:
448,132,7696,2,0,B|416:172|416:172|396:236|440:300,1,170,4|0,0:0|0:0,0:0:0:0:
240,260,8196,2,0,P|284:244|340:248,1,85,8|0,0:0|0:0,0:0:0:0:
180,352,8529,6,0,P|148:316|156:196,1,170,4|8,0:0|0:0,0:0:0:0:
316,128,9029,2,0,P|260:148|212:160,1,85,0|0,0:0|0:0,0:0:0:0:
72,80,9363,2,0,P|112:91|152:106,1,85,0|8,0:0|0:0,0:0:0:0:
360,208,9696,6,0,P|270:240|193:259,1,170,4|0,0:0|0:0,0:0:0:0:
68,208,10196,1,8,0:0:0:0:
148,344,10363,2,0,P|165:250|186:174,1,170,4|0,0:0|0:0,0:0:0:0:
248,88,10863,1,8,0:0:0:0:
336,156,11029,1,0,0:0:0:0:
336,156,11113,1,0,0:0:0:0:
336,156,11196,1,4,0:0:0:0:
308,352,11529,6,0,L|376:344,1,59.4999981842042,8|0,0:0|0:0,0:0:0:0:
436,308,11863,2,0,L|317:321,1,118.999996368408,0|8,0:0|0:0,0:0:0:0:
240,328,12363,1,0,0:0:0:0:
224,236,12529,6,0,P|268:240|300:252,1,59.4999981842042,0|0,0:0|0:0,0:0:0:0:
152,296,12863,2,0,P|148:340|136:372,1,59.4999981842042,8|0,0:0|0:0,0:0:0:0:
136,208,13196,2,0,P|128:168|168:80,1,118.999996368408,0|8,0:0|0:0,0:0:0:0:
404,104,13863,6,0,L|268:120,1,118.999996368408,0|8,0:0|0:0,0:0:0:0:
216,160,14363,1,0,0:0:0:0:
216,160,14529,2,0,L|352:176,1,118.999996368408,0|8,0:0|0:0,0:0:0:0:
412,188,15029,1,0,0:0:0:0:
452,336,15196,6,0,L|444:277,1,59.4999981842042,0|0,0:0|0:0,0:0:0:0:
320,212,15529,2,0,L|312:270,1,59.4999981842042,4|0,0:0|0:0,0:0:0:0:
312,270,15779,1,8,0:0:0:0:
312,270,15863,1,8,0:0:0:0:
224,244,16029,1,8,0:0:0:0:
192,348,16196,1,8,0:0:0:0:
96,224,16363,1,8,0:0:0:0:
23,367,16529,6,0,P|106:353|191:347,1,170,4|8,0:0|0:0,0:0:0:0:
312,270,17029,2,0,P|395:283|480:289,1,170,0|0,0:0|0:0,0:0:0:0:
452,148,17529,1,8,0:0:0:0:
340,184,17696,6,0,P|332:128|400:40,1,170,4|0,0:0|0:0,0:0:0:0:
400,268,18196,2,0,P|348:284|292:276,1,85,8|0,0:0|0:0,0:0:0:0:
196,148,18529,2,0,P|235:185|256:237,1,85,0|0,0:0|0:0,0:0:0:0:
196,380,18863,2,0,P|208:326|243:282,1,85,8|0,0:0|0:0,0:0:0:0:
160,232,19196,6,0,P|124:256|-4:256,1,170,4|8,0:0|0:0,0:0:0:0:
80,96,19696,1,0,0:0:0:0:
80,96,19863,2,0,L|72:192,1,85,0|0,0:0|0:0,0:0:0:0:
200,317,20196,1,8,0:0:0:0:
200,317,20363,2,0,P|195:232|196:148,1,170,4|0,0:0|0:0,0:0:0:0:
304,116,20863,6,0,P|297:176|288:217,1,85,8|0,0:0|0:0,0:0:0:0:
203,268,21196,2,0,P|161:264|119:256,1,85,8|0,0:0|0:0,0:0:0:0:
276,352,21529,2,0,P|317:344|360:340,1,85,8|0,0:0|0:0,0:0:0:0:
460,360,21863,6,0,P|480:304|444:216,1,136,4|8,0:0|0:0,0:0:0:0:
336,136,22363,1,8,0:0:0:0:
304,244,22529,2,0,L|384:240,2,68,0|0|8,0:0|0:0|0:0,0:0:0:0:
180,164,23029,6,0,P|212:168|260:172,1,68,0|0,0:0|0:0,0:0:0:0:
140,264,23363,2,0,P|106:267|72:271,1,68,0|8,0:0|0:0,0:0:0:0:
12,180,23696,1,0,0:0:0:0:
96,64,23863,2,0,P|93:97|91:131,1,68,0|0,0:0|0:0,0:0:0:0:
91,131,24113,1,0,0:0:0:0:
91,131,24196,1,8,0:0:0:0:
272,144,24363,1,8,0:0:0:0:
187,299,24529,6,0,P|182:231|180:164,1,136,4|8,0:0|0:0,0:0:0:0:
230,60,25029,1,0,0:0:0:0:
339,133,25196,2,0,P|305:137|272:144,1,68,0|0,0:0|0:0,0:0:0:0:
316,239,25529,1,8,0:0:0:0:
316,239,25696,2,0,P|349:234|383:228,1,68,0|0,0:0|0:0,0:0:0:0:
424,322,26029,6,0,P|390:326|356:332,2,59.4999981842042,0|8|0,0:0|0:0|0:0,0:0:0:0:
477,178,26529,2,0,P|465:229|460:262,1,59.4999981842042,0|0,0:0|0:0,0:0:0:0:
365,330,26863,2,0,P|359:300|351:272,1,59.4999981842042,8|0,0:0|0:0,0:0:0:0:
244,206,27196,5,0,0:0:0:0:
244,206,27363,1,0,0:0:0:0:
169,293,27529,1,8,0:0:0:0:
169,293,27696,1,0,0:0:0:0:
81,246,27863,2,0,P|86:199|95:162,2,59.4999981842042,0|0|8,0:0|0:0|0:0,0:0:0:0:
44,347,28363,6,0,P|113:335|190:327,1,118.999996368408,0|0,0:0|0:0,0:0:0:0:
244,206,28863,1,8,0:0:0:0:
316,364,29029,2,0,P|321:323|322:277,1,59.4999981842042,0|0,0:0|0:0,0:0:0:0:
244,206,29363,1,0,0:0:0:0:
452,222,29529,2,0,P|383:210|306:202,1,118.999996368408,12|4,0:0|0:0,0:0:0:0:
91,96,30196,5,8,0:0:0:0:
202,38,30363,1,0,0:0:0:0:
202,38,30529,2,0,L|190:132,1,85,0|0,0:0|0:0,0:0:0:0:
101,180,30863,2,0,L|91:96,1,85,8|0,0:0|0:0,0:0:0:0:
32,274,31196,6,0,P|85:278|204:296,1,170,0|8,0:0|0:0,0:0:0:0:
306,263,31696,1,0,0:0:0:0:
382,338,31863,2,0,P|405:301|376:183,1,170,0|8,0:0|0:0,0:0:0:0:
274,163,32363,1,0,0:0:0:0:
348,84,32529,6,0,P|390:75|441:61,1,85,4|0,0:0|0:0,0:0:0:0:
256,20,32863,2,0,P|242:60|229:112,1,85,8|0,0:0|0:0,0:0:0:0:
156,193,33196,2,0,P|169:233|182:285,1,85,0|8,0:0|0:0,0:0:0:0:
180,274,33446,1,8,0:0:0:0:
180,274,33529,1,8,0:0:0:0:
256,351,33696,5,8,0:0:0:0:
417,161,34029,1,8,0:0:0:0:
95,161,34363,1,8,0:0:0:0:
256,351,34696,6,0,L|256:253,1,85,8|0,0:0|0:0,0:0:0:0:
256,266,35113,1,0,0:0:0:0:
256,266,35196,1,4,0:0:0:0:
49,86,35529,6,0,P|18:115|3:172,1,85,8|0,0:0|0:0,0:0:0:0:
17,250,35863,2,0,L|30:346,1,85,0|0,0:0|0:0,0:0:0:0:
128,378,36196,2,0,P|136:331|140:290,1,85,8|0,0:0|0:0,0:0:0:0:
226,163,36529,5,0,0:0:0:0:
134,208,36696,1,0,0:0:0:0:
256,266,36863,1,8,0:0:0:0:
226,163,37029,1,0,0:0:0:0:
338,89,37196,2,0,P|345:130|349:173,1,85,0|0,0:0|0:0,0:0:0:0:
256,266,37529,2,0,P|298:269|340:276,1,85,8|0,0:0|0:0,0:0:0:0:
476,353,37863,6,0,P|434:359|391:363,1,85,0|0,0:0|0:0,0:0:0:0:
250,259,38196,2,0,P|292:262|334:269,1,85,8|0,0:0|0:0,0:0:0:0:
138,363,38529,2,0,P|110:321|125:203,1,170,0|8,0:0|0:0,0:0:0:0:
69,36,39029,6,0,P|75:77|79:120,1,85,0|0,0:0|0:0,0:0:0:0:
215,179,39363,2,0,P|219:136|225:94,1,85,0|8,0:0|0:0,0:0:0:0:
393,59,39696,1,0,0:0:0:0:
393,59,39779,1,8,0:0:0:0:
393,59,39863,2,0,P|343:69|298:102,1,85,0|0,0:0|0:0,0:0:0:0:
369,241,40196,2,0,P|419:231|464:198,1,85,8|0,0:0|0:0,0:0:0:0:
382,153,40529,6,0,L|352:344,1,170,4|8,0:0|0:0,0:0:0:0:
257,364,41029,1,0,0:0:0:0:
257,364,41196,2,0,P|251:318|242:279,1,85,0|0,0:0|0:0,0:0:0:0:
140,227,41530,2,0,P|130:268|125:310,1,85,8|0,0:0|0:0,0:0:0:0:
36,148,41863,6,0,P|83:138|127:125,2,85,0|0|8,0:0|0:0|0:0,0:0:0:0:
172,38,42363,1,0,0:0:0:0:
257,103,42529,2,0,P|255:151|232:209,1,85,0|0,0:0|0:0,0:0:0:0:
212,291,42863,2,0,P|252:279|294:270,1,85,8|0,0:0|0:0,0:0:0:0:
431,273,43196,5,4,0:0:0:0:
413,369,43362,1,0,0:0:0:0:
427,243,43529,1,8,0:0:0:0:
311,338,43696,1,0,0:0:0:0:
284,190,43863,1,0,0:0:0:0:
434,167,44029,2,0,L|490:157,2,42.5,0|8|8,0:0|0:0|0:0,0:0:0:0:
363,306,44363,5,8,0:0:0:0:
103,227,44696,1,8,0:0:0:0:
301,42,45029,1,12,0:0:0:0:
363,306,45363,5,8,0:0:0:0:
283,356,45529,1,0,0:0:0:0:
193,327,45696,1,0,0:0:0:0:
193,327,45779,1,0,0:0:0:0:
193,327,45863,6,0,P|128:339|59:344,1,118.999996368408,4|2,0:0|0:0,0:0:0:0:
99,253,46363,1,0,0:0:0:0:
141,172,46529,2,0,P|170:166|199:163,1,59.4999981842042,2|0,0:0|0:0,0:0:0:0:
321,231,46863,2,0,P|291:228|262:222,1,59.4999981842042,8|0,0:0|0:0,0:0:0:0:
181,251,47196,6,0,P|190:301|197:387,1,118.999996368408,0|2,0:0|0:0,0:0:0:0:
284,303,47696,1,0,0:0:0:0:
345,368,47863,2,0,P|389:362|430:360,1,59.4999981842042,2|0,0:0|0:0,0:0:0:0:
441,276,48196,1,8,0:0:0:0:
506,344,48363,1,0,0:0:0:0:
421,260,48529,6,0,P|424:218|438:131,1,118.999996368408,0|2,0:0|0:0,0:0:0:0:
463,54,49029,1,0,0:0:0:0:
333,94,49196,2,0,P|337:123|339:153,1,59.4999981842042,2|0,0:0|0:0,0:0:0:0:
248,132,49529,1,8,0:0:0:0:
248,132,49696,1,0,0:0:0:0:
165,101,49863,6,0,P|131:92|22:100,1,118.999996368408,0|2,0:0|0:0,0:0:0:0:
96,186,50363,1,0,0:0:0:0:
34,288,50529,2,0,P|71:282|107:279,1,59.4999981842042,2|0,0:0|0:0,0:0:0:0:
244,299,50863,1,8,0:0:0:0:
244,299,51196,6,0,P|253:251|260:142,1,152.999995330811,4|8,0:0|0:0,0:0:0:0:
214,57,51696,1,0,0:0:0:0:
92,149,51863,2,0,L|184:137,2,76.4999976654053,0|0|0,0:0|0:0|0:0,0:0:0:0:
7,223,52363,6,0,P|44:229|167:255,1,152.999995330811,8|0,0:0|0:0,0:0:0:0:
243,374,52863,2,0,P|238:333|231:291,1,76.4999976654053,8|0,0:0|0:0,0:0:0:0:
232,298,53113,1,0,0:0:0:0:
232,298,53196,2,0,P|269:304|307:308,1,76.4999976654053,8|0,0:0|0:0,0:0:0:0:
402,350,53529,1,8,0:0:0:0:
485,278,53696,6,0,P|489:233|463:124,1,152.999995330811,4|0,0:0|0:0,0:0:0:0:
304,66,54196,1,8,0:0:0:0:
304,66,54363,1,8,0:0:0:0:
391,50,54529,2,0,P|382:100|372:148,1,76.4999976654053,0|0,0:0|0:0,0:0:0:0:
290,152,54863,2,0,P|252:144|214:137,1,76.4999976654053,8|0,0:0|0:0,0:0:0:0:
361,219,55196,6,0,P|398:212|436:204,1,76.4999976654053,0|0,0:0|0:0,0:0:0:0:
311,302,55529,1,8,0:0:0:0:
311,302,55696,1,8,0:0:0:0:
232,252,55863,2,0,P|237:204|249:167,2,76.4999976654053,0|0|8,0:0|0:0|0:0,0:0:0:0:
185,347,56363,6,0,P|145:360|37:316,1,152.999995330811,4|0,0:0|0:0,0:0:0:0:
20,199,56863,1,8,0:0:0:0:
127,249,57029,1,0,0:0:0:0:
127,249,57113,1,0,0:0:0:0:
127,249,57196,2,0,L|214:238,1,68,0|0,0:0|0:0,0:0:0:0:
342,140,57529,1,8,0:0:0:0:
233,20,57696,6,0,P|240:85|257:189,1,152.999995330811,0|0,0:0|0:0,0:0:0:0:
319,310,58196,1,8,0:0:0:0:
427,238,58363,1,0,0:0:0:0:
427,238,58446,1,0,0:0:0:0:
427,238,58529,2,0,P|383:226|329:228,1,76.4999976654053,0|0,0:0|0:0,0:0:0:0:
136,292,58863,1,8,0:0:0:0:
217,373,59029,6,0,P|235:322|211:196,1,170,4|0,0:0|0:0,0:0:0:0:
32,184,59529,2,0,P|77:210|124:217,1,85,8|0,0:0|0:0,0:0:0:0:
243,106,59863,2,0,P|191:105|146:123,1,85,8|0,0:0|0:0,0:0:0:0:
148,332,60196,1,8,0:0:0:0:
148,332,60363,2,0,P|193:306|222:268,1,85,12|0,0:0|0:0,0:0:0:0:
344,163,60696,6,0,L|335:230,1,42.5,8|0,0:0|0:0,0:0:0:0:
306,286,60863,2,0,L|315:353,1,42.5,8|0,0:0|0:0,0:0:0:0:
397,369,61029,1,0,0:0:0:0:
397,369,61113,1,0,0:0:0:0:
397,369,61196,6,0,L|457:360,3,42.5,0|0|0|0,0:0|0:0|0:0|0:0,0:0:0:0:
496,291,61529,1,8,0:0:0:0:
492,265,61613,1,8,0:0:0:0:
488,239,61696,1,8,0:0:0:0:
484,213,61779,1,8,0:0:0:0:
481,187,61863,6,0,P|463:157|341:168,1,170,4|10,0:0|0:0,0:0:0:0:
206,231,62363,1,0,0:0:0:0:
262,141,62530,2,0,P|221:127|179:128,1,85,2|0,0:0|0:1,0:0:0:0:
112,298,62863,1,8,0:0:0:0:
112,298,63029,6,0,P|152:322|304:318,1,170,4|0,0:0|0:0,0:0:0:0:
449,248,63529,1,10,0:0:0:0:
327,207,63696,1,0,0:0:0:0:
327,207,63779,1,0,0:0:0:0:
327,207,63863,1,2,0:0:0:0:
374,344,64029,1,0,0:0:0:0:
474,239,64196,2,0,P|471:191|460:143,1,85,8|0,0:0|0:0,0:0:0:0:
327,39,64529,6,0,P|330:87|341:135,1,85,6|0,0:0|0:0,0:0:0:0:
190,204,64863,2,0,P|230:177|266:143,1,85,10|0,0:0|0:0,0:0:0:0:
387,316,65196,2,0,P|326:300|195:286,1,170,2|8,0:0|0:0,0:0:0:0:
0,240,65696,6,0,P|52:259|163:179,1,170,4|0,0:0|0:0,0:0:0:0:
92,35,66196,1,10,0:0:0:0:
63,154,66363,1,0,0:0:0:0:
63,154,66446,1,0,0:0:0:0:
63,154,66529,1,2,0:0:0:0:
200,103,66696,1,0,0:0:0:0:
269,261,66863,2,0,P|276:215|287:159,1,85,8|0,0:0|0:0,0:0:0:0:
400,32,67196,6,0,P|414:98|429:213,1,170,4|8,0:0|0:0,0:0:0:0:
390,343,67696,1,0,0:0:0:0:
269,261,67863,2,0,P|322:248|377:251,1,85,2|0,0:0|0:0,0:0:0:0:
236,361,68196,2,0,P|193:359|152:347,1,85,8|0,0:0|0:0,0:0:0:0:
24,360,68529,6,0,P|11:309|52:186,1,170,2|8,0:0|0:0,0:0:0:0:
129,90,69029,1,0,0:0:0:0:
242,171,69196,2,0,P|192:183|138:190,1,85,2|0,0:0|0:0,0:0:0:0:
48,282,69529,2,0,P|89:288|131:299,1,85,10|0,0:0|0:0,0:0:0:0:
251,371,69863,6,0,P|293:361|437:354,1,170,6|8,0:0|0:0,0:0:0:0:
499,269,70363,1,0,0:0:0:0:
426,178,70529,2,0,P|384:188|240:195,1,170,2|8,0:0|0:0,0:0:0:0:
102,148,71029,1,0,0:0:0:0:
206,36,71196,6,0,L|193:145,1,85,8|0,0:0|0:0,0:0:0:0:
125,329,71529,2,0,L|114:244,1,85,8|0,0:0|0:0,0:0:0:0:
244,231,71863,2,0,P|286:248|426:247,1,170,8|0,0:0|0:0,0:0:0:0:
439,57,72529,6,0,P|397:40|257:41,1,170,4|10,0:0|0:0,0:0:0:0:
165,137,73029,1,0,0:0:0:0:
71,78,73196,2,0,P|81:24|101:-21,1,85,2|0,0:0|0:0,0:0:0:0:
165,137,73529,1,8,0:0:0:0:
164,244,73696,6,0,P|96:276|-11:210,1,170,4|0,0:0|0:0,0:0:0:0:
176,336,74196,1,10,0:0:0:0:
275,355,74363,1,0,0:0:0:0:
275,355,74446,1,0,0:0:0:0:
275,355,74529,2,0,P|324:348|365:346,1,85,2|0,0:0|0:0,0:0:0:0:
441,263,74863,2,0,P|392:256|351:254,1,85,8|0,0:0|0:0,0:0:0:0:
268,178,75196,6,0,P|297:141|444:146,2,170,4|10|2,0:0|0:0|0:0,0:0:0:0:
163,234,76029,2,0,P|149:183|161:133,1,85,0|8,0:0|0:0,0:0:0:0:
261,297,76363,6,0,P|221:334|89:325,1,170,4|0,0:0|0:0,0:0:0:0:
0,218,76863,2,0,L|87:225,1,85,10|0,0:0|0:0,0:0:0:0:
84,224,77113,1,0,0:0:0:0:
84,224,77196,1,2,0:0:0:0:
234,131,77363,1,0,0:0:0:0:
127,62,77529,2,0,L|40:69,1,85,8|0,0:0|0:0,0:0:0:0:
160,179,77863,6,0,P|203:180|333:140,2,170,4|8|2,0:0|0:0|0:0,0:0:0:0:
207,88,78696,1,0,0:0:0:0:
248,212,78863,2,0,P|242:264|222:324,1,85,8|2,0:0|0:0,0:0:0:0:
142,333,79196,6,0,P|188:318|292:383,1,170,0|8,0:0|0:0,0:0:0:0:
442,301,79696,1,0,0:0:0:0:
442,301,79863,2,0,P|374:312|336:320,1,85,2|0,0:0|0:0,0:0:0:0:
248,212,80196,2,0,P|316:201|354:193,1,85,10|0,0:0|0:0,0:0:0:0:
512,260,80529,6,0,P|428:276|344:289,1,170,4|10,0:0|0:0,0:0:0:0:
178,272,81029,1,0,0:0:0:0:
253,368,81196,2,0,P|222:291|248:212,1,170,2|8,0:0|0:0,0:0:0:0:
322,67,81696,1,0,0:0:0:0:
421,155,81863,6,0,P|365:173|305:182,1,85,2|0,0:0|0:0,0:0:0:0:
208,96,82196,1,8,0:0:0:0:
208,96,82363,1,8,0:0:0:0:
178,272,82529,1,0,0:0:0:0:
251,181,82696,1,0,0:0:0:0:
297,330,82863,1,8,0:0:0:0:
415,267,83029,5,0,0:0:0:0:
415,267,83113,1,0,0:0:0:0:
415,267,83196,2,0,P|403:331|399:369,1,85,12|0,0:0|0:0,0:0:0:0:
313,147,83529,2,0,P|312:212|314:250,1,85,8|0,0:0|0:0,0:0:0:0:
198,147,83863,2,0,P|200:189|198:231,1,85,8|0,0:0|0:0,0:0:0:0:
97,267,84196,2,0,P|105:308|111:350,1,85,8|0,0:0|0:0,0:0:0:0:
14,208,84529,1,8,0:0:0:0:
155,56,84863,6,0,P|204:60|255:66,2,85,0|0|0,0:0|0:0|0:0,0:0:0:0:
180,206,85863,5,8,0:0:0:0:
180,206,86029,1,8,0:0:0:0:
321,368,87363,5,8,0:0:0:0:
321,368,87529,2,0,P|338:315|337:225,1,127.5,12|0,0:0|0:0,0:0:0:0:
302,167,88196,1,0,0:0:0:0:
103,298,88529,5,8,0:0:0:0:
103,298,88696,1,8,0:0:0:0:
321,368,89529,5,8,0:0:0:0:
232,290,89696,2,0,P|278:282|408:269,1,152.999995330811,4|0,0:0|0:0,0:0:0:0:
380,92,90196,2,8,L|333:98,1,38.2499988327027,8|8,0:0|0:0,0:0:0:0:
264,203,90446,2,0,L|311:197,1,38.2499988327027,8|8,0:0|0:0,0:0:0:0:
435,192,90696,2,0,L|474:196,5,38.2499988327027,0|0|0|0|0|0,0:0|0:0|0:0|0:0|0:0|0:0,0:0:0:0:
473,195,91196,6,0,P|484:249|429:359,1,170,4|8,0:0|0:0,0:0:0:0:
299,243,91696,2,0,P|344:239|401:268,1,85,0|0,0:0|0:0,0:0:0:0:
238,331,92029,2,0,P|193:335|136:306,1,85,0|8,0:0|0:0,0:0:0:0:
40,340,92363,6,0,P|22:289|72:172,1,170,4|0,0:0|0:0,0:0:0:0:
169,103,92863,1,8,0:0:0:0:
157,226,93029,2,0,P|200:218|258:211,1,85,4|0,0:0|0:0,0:0:0:0:
321,344,93363,1,0,0:0:0:0:
321,344,93529,2,0,P|279:338|238:331,1,85,8|0,0:0|0:0,0:0:0:0:
391,191,93863,6,0,P|407:266|420:379,1,170,4|8,0:0|0:0,0:0:0:0:
238,331,94363,2,0,P|280:325|321:317,1,85,0|0,0:0|0:0,0:0:0:0:
391,191,94696,2,0,P|348:185|307:177,1,85,0|8,0:0|0:0,0:0:0:0:
199,78,95029,6,0,P|210:153|220:255,1,170,4|0,0:0|0:0,0:0:0:0:
152,332,95529,1,8,0:0:0:0:
93,169,95696,2,0,P|101:84|113:0,1,170,4|8,0:0|0:3,0:0:0:0:
304,41,96196,5,4,0:3:0:0:
199,78,96363,1,0,0:0:0:0:
331,152,96529,5,4,0:0:0:0:
256,192,99196,12,8,101529,0:0:0:0:
412,144,101863,6,0,P|346:134|270:132,1,118.999996368408,4|0,0:0|0:0,0:0:0:0:
195,89,102363,1,0,0:0:0:0:
151,185,102529,2,0,P|156:231|158:271,1,59.4999981842042,0|0,0:0|0:0,0:0:0:0:
98,111,102863,1,0,0:0:0:0:
238,202,103029,6,0,P|304:192|380:190,1,118.999996368408,8|0,0:0|0:0,0:0:0:0:
445,228,103529,1,0,0:0:0:0:
364,336,103696,2,0,P|366:306|369:276,1,59.4999981842042,8|0,0:0|0:0,0:0:0:0:
432,136,104029,1,8,0:0:0:0:
432,136,104196,2,0,P|461:139|491:141,1,59.4999981842042,8|0,0:0|0:0,0:0:0:0:
314,194,104529,6,0,L|276:198|238:202,1,76.4999976654053,4|0,0:0|0:0,0:0:0:0:
142,99,104863,2,0,P|180:102|218:106,1,76.4999976654053,8|0,0:0|0:0,0:0:0:0:
150,269,105196,2,0,P|145:231|142:192,1,76.4999976654053,0|0,0:0|0:0,0:0:0:0:
142,192,105446,1,0,0:0:0:0:
142,192,105529,1,8,0:0:0:0:
256,20,105696,5,8,0:0:0:0:
256,192,106029,1,8,0:0:0:0:
256,364,106363,1,8,0:0:0:0:
256,192,106696,1,8,0:0:0:0:
435,308,107029,5,8,0:0:0:0:
435,308,107113,1,8,0:0:0:0:
435,308,107196,6,0,P|369:319|264:341,1,170,4|8,0:0|0:0,0:0:0:0:
108,252,107696,1,0,0:0:0:0:
207,249,107863,2,0,P|248:241|290:232,1,85,0|0,0:0|0:0,0:0:0:0:
401,118,108196,2,0,P|359:125|317:134,1,85,8|0,0:0|0:0,0:0:0:0:
199,50,108529,6,0,P|191:91|182:133,1,85,0|0,0:0|0:0,0:0:0:0:
190,332,108863,2,0,P|198:290|207:249,1,85,8|0,0:0|0:0,0:0:0:0:
24,243,109196,2,0,P|65:254|108:252,1,85,0|0,0:0|0:0,0:0:0:0:
256,192,109529,1,8,0:0:0:0:
315,291,109696,1,0,0:0:0:0:
405,233,109863,6,0,L|493:239,2,85,0|0|8,0:0|0:0|0:0,0:0:0:0:
353,128,110363,1,0,0:0:0:0:
353,128,110446,1,0,0:0:0:0:
353,128,110529,2,0,P|355:83|394:24,1,85,0|0,0:0|0:0,0:0:0:0:
405,233,110863,1,8,0:0:0:0:
315,291,111029,6,0,P|267:303|151:246,1,170,0|0,0:0|0:0,0:0:0:0:
54,192,111529,2,0,P|62:250|66:308,1,85,8|0,0:0|0:0,0:0:0:0:
64,276,111779,1,8,0:0:0:0:
64,276,111863,1,0,0:0:0:0:
176,341,112029,1,0,0:0:0:0:
256,192,112196,1,12,0:0:0:0:
256,192,112529,6,0,P|242:139|218:-1,1,170,4|8,0:0|0:0,0:0:0:0:
321,25,113029,1,0,0:0:0:0:
201,115,113196,2,0,P|150:109|91:99,1,85,0|0,0:0|0:0,0:0:0:0:
44,228,113529,2,0,P|86:221|128:216,1,85,8|0,0:0|0:0,0:0:0:0:
214,297,113863,6,0,P|298:287|382:274,1,170,0|8,0:0|0:0,0:0:0:0:
460,192,114363,1,0,0:0:0:0:
386,29,114529,2,0,P|340:72|356:184,1,170,0|8,0:0|0:0,0:0:0:0:
426,119,115029,1,0,0:0:0:0:
253,209,115196,6,0,P|239:164|234:111,1,85,4|0,0:0|0:0,0:0:0:0:
328,274,115529,2,0,P|322:316|309:356,1,85,8|0,0:0|0:0,0:0:0:0:
309,356,115779,1,0,0:0:0:0:
309,356,115863,1,0,0:0:0:0:
185,295,116029,2,0,L|179:246,2,42.5,0|8|8,0:0|0:0|0:0,0:0:0:0:
90,384,116363,5,8,0:0:0:0:
19,157,116696,1,8,0:0:0:0:
244,82,117029,1,8,0:0:0:0:
315,309,117362,1,8,0:0:0:0:
390,253,117529,1,8,0:0:0:0:
473,295,117696,1,0,0:0:0:0:
473,295,117779,1,0,0:0:0:0:
473,295,117863,6,0,P|487:246|481:161,1,118.999996368408,4|8,0:0|0:3,0:0:0:0:
365,88,118363,1,4,0:3:0:0:
328,174,118529,2,0,P|360:179|411:179,1,59.4999981842042,0|2,0:0|0:0,0:0:0:0:
275,98,118863,1,8,0:0:0:0:
275,98,119029,1,0,0:0:0:0:
234,181,119196,6,0,P|204:182|174:187,2,59.4999981842042,4|0|8,0:3|0:0|0:3,0:0:0:0:
328,174,119696,1,0,0:0:0:0:
306,266,119863,2,0,P|298:294|293:324,2,59.4999981842042,0|2|8,0:0|0:0|0:0,0:0:0:0:
328,174,120363,1,0,0:0:0:0:
409,224,120529,6,0,P|433:240|460:253,2,59.4999981842042,4|0|8,0:3|0:0|0:3,0:0:0:0:
328,174,121029,1,0,0:0:0:0:
401,113,121196,2,0,P|424:94|445:73,2,59.4999981842042,4|2|8,0:3|0:0|0:0,0:0:0:0:
328,174,121696,1,0,0:0:0:0:
293,86,121863,6,0,P|282:58|268:31,2,59.4999981842042,4|0|0,0:3|0:0|0:0,0:0:0:0:
328,174,122363,1,8,0:3:0:0:
306,266,122529,2,0,L|235:261,1,59.4999981842042,0|0,0:0|0:0,0:0:0:0:
246,261,122779,1,0,0:0:0:0:
246,261,122863,1,12,0:0:0:0:
13,321,123196,6,0,P|60:299|174:303,1,152.999995330811,4|8,0:0|0:0,0:0:0:0:
244,345,123696,1,0,0:0:0:0:
306,266,123863,2,0,P|330:194|321:118,1,152.999995330811,0|0,0:0|0:0,0:0:0:0:
152,60,124363,6,0,P|127:131|136:207,1,152.999995330811,8|0,0:0|0:0,0:0:0:0:
306,266,124863,1,8,0:0:0:0:
300,169,125029,1,0,0:0:0:0:
300,169,125113,1,0,0:0:0:0:
300,169,125196,2,0,P|249:158|197:168,1,76.4999976654053,8|0,0:0|0:0,0:0:0:0:
167,318,125529,1,8,0:0:0:0:
167,318,125696,6,0,P|255:308|331:304,1,152.999995330811,4|0,0:0|0:0,0:0:0:0:
153,224,126196,1,8,0:0:0:0:
153,224,126363,1,8,0:0:0:0:
225,159,126529,2,0,P|232:112|227:64,1,76.4999976654053,0|0,0:0|0:0,0:0:0:0:
67,179,126863,2,0,P|60:226|65:274,1,76.4999976654053,8|0,0:0|0:0,0:0:0:0:
164,348,127196,6,0,L|249:338,1,76.4999976654053,0|0,0:0|0:0,0:0:0:0:
153,224,127529,1,8,0:0:0:0:
153,224,127696,1,8,0:0:0:0:
269,338,127863,1,0,0:0:0:0:
244,239,128029,1,0,0:0:0:0:
331,157,128196,1,8,0:0:0:0:
430,262,128363,6,0,P|352:258|277:244,1,152.999995330811,4|0,0:0|0:0,0:0:0:0:
181,118,128863,1,8,0:0:0:0:
263,165,129029,1,0,0:0:0:0:
263,165,129113,1,0,0:0:0:0:
263,165,129196,2,0,P|303:161|354:152,1,68,0|0,0:0|0:0,0:0:0:0:
431,58,129529,1,8,0:0:0:0:
279,72,129696,6,0,P|201:68|126:54,1,152.999995330811,0|0,0:0|0:0,0:0:0:0:
30,196,130196,2,0,P|42:146|57:105,1,76.4999976654053,8|0,0:0|0:0,0:0:0:0:
50,122,130446,1,0,0:0:0:0:
50,122,130529,1,0,0:0:0:0:
141,197,130696,2,0,P|152:233|161:270,1,76.4999976654053,0|8,0:0|0:0,0:0:0:0:
91,343,131029,6,0,P|144:313|263:335,1,170,4|0,0:0|0:0,0:0:0:0:
438,321,131529,1,8,0:0:0:0:
340,359,131696,1,0,0:0:0:0:
433,218,131863,1,8,0:0:0:0:
301,251,132029,1,0,0:0:0:0:
435,118,132196,1,8,0:0:0:0:
276,133,132363,6,0,L|86:124,1,170,4|8,0:0|0:0,0:0:0:0:
65,265,132863,2,0,L|76:334,3,42.5,8|0|8|8,0:0|0:0|0:0|0:0,0:0:0:0:
170,363,133196,2,0,L|176:321,3,42.5,8|8|8|8,0:0|0:0|0:0|0:0,0:0:0:0:
272,274,133529,1,0,0:0:0:0:
296,267,133613,1,8,0:0:0:0:
321,267,133696,1,8,0:0:0:0:
345,273,133779,1,8,0:0:0:0:
367,286,133863,6,0,P|410:301|524:244,2,170,4|10|2,0:0|0:0|0:0,0:0:0:0:
385,89,134696,1,0,0:0:0:0:
425,194,134863,1,8,0:0:0:0:
286,146,135029,6,0,P|272:81|329:-10,1,170,4|0,0:0|0:0,0:0:0:0:
339,239,135529,2,0,P|290:253|237:241,1,85,10|0,0:0|0:0,0:0:0:0:
256,248,135779,1,0,0:0:0:0:
256,248,135863,1,2,0:0:0:0:
107,170,136029,1,0,0:0:0:0:
107,170,136196,2,0,L|198:183,1,85,10|0,0:0|0:0,0:0:0:0:
201,329,136529,6,0,L|110:342,1,85,4|0,0:0|0:0,0:0:0:0:
339,239,136863,2,0,L|352:330,1,85,10|0,0:0|0:0,0:0:0:0:
192,162,137196,2,0,P|186:104|239:-4,1,170,2|8,0:0|0:0,0:0:0:0:
377,81,137696,6,0,P|383:139|330:247,1,170,4|0,0:0|0:0,0:0:0:0:
201,329,138196,2,0,P|240:320|294:317,1,85,10|0,0:0|0:0,0:0:0:0:
284,316,138446,1,0,0:0:0:0:
284,316,138529,1,2,0:0:0:0:
413,357,138696,1,0,0:0:0:0:
501,253,138863,2,0,P|509:205|505:164,1,85,12|0,0:0|0:0,0:0:0:0:
256,171,139196,6,0,P|297:200|434:196,1,170,4|8,0:0|0:0,0:0:0:0:
357,83,139696,1,0,0:0:0:0:
256,171,139863,2,0,P|242:220|250:274,1,85,2|0,0:0|0:0,0:0:0:0:
370,371,140196,2,0,P|384:322|376:268,1,85,8|0,0:0|0:0,0:0:0:0:
219,245,140529,6,0,P|150:251|38:266,1,170,2|8,0:0|0:0,0:0:0:0:
205,365,141029,1,0,0:0:0:0:
312,324,141196,2,0,P|317:281|320:239,1,85,2|0,0:0|0:0,0:0:0:0:
210,160,141529,2,0,P|213:202|219:245,1,85,10|0,0:0|0:0,0:0:0:0:
315,80,141863,6,0,P|278:41|144:46,1,170,4|10,0:0|0:0,0:0:0:0:
35,131,142363,1,0,0:0:0:0:
96,241,142529,2,0,B|165:231|165:231|191:244|191:244|286:231,1,170,2|8,0:0|0:0,0:0:0:0:
378,172,143029,1,0,0:0:0:0:
446,314,143196,6,0,L|361:303,1,85,12|0,0:0|0:0,0:0:0:0:
261,234,143529,1,8,0:0:0:0:
285,362,143696,1,0,0:0:0:0:
141,265,143863,1,8,0:0:0:0:
237,123,144029,1,0,0:0:0:0:
262,120,144113,1,0,0:0:0:0:
287,117,144196,1,0,0:0:0:0:
312,114,144279,1,0,0:0:0:0:
337,111,144363,1,0,0:0:0:0:
362,108,144446,1,0,0:0:0:0:
387,105,144529,6,0,P|420:150|403:272,1,170,4|10,0:0|0:0,0:0:0:0:
285,362,145029,1,0,0:0:0:0:
229,277,145196,2,0,L|324:269,1,85,2|0,0:0|0:0,0:0:0:0:
383,343,145529,1,8,0:0:0:0:
161,367,145696,6,0,P|128:322|145:200,1,170,4|0,0:0|0:0,0:0:0:0:
247,51,146196,1,10,0:0:0:0:
211,135,146363,1,0,0:0:0:0:
211,135,146446,1,0,0:0:0:0:
211,135,146529,2,0,P|162:132|103:122,1,85,2|0,0:0|0:0,0:0:0:0:
256,36,146863,2,0,P|305:39|364:49,1,85,10|0,0:0|0:0,0:0:0:0:
435,200,147196,6,0,P|419:160|425:107,1,85,4|0,0:0|0:0,0:0:0:0:
274,272,147529,2,0,P|314:256|367:262,1,85,10|0,0:0|0:0,0:0:0:0:
490,353,147863,2,0,P|447:354|408:339,1,85,2|0,0:0|0:0,0:0:0:0:
295,171,148196,1,8,0:0:0:0:
295,171,148363,6,0,P|241:178|102:211,1,170,4|0,0:0|0:0,0:0:0:0:
37,290,148863,2,0,P|46:343|53:381,1,85,10|0,0:0|0:0,0:0:0:0:
51,373,149113,1,8,0:0:0:0:
51,373,149196,1,2,0:0:0:0:
169,336,149363,1,0,0:0:0:0:
222,224,149529,2,0,P|213:171|206:133,1,85,12|0,0:0|0:0,0:0:0:0:
123,67,149863,6,0,P|154:94|285:83,1,170,4|8,0:0|0:0,0:0:0:0:
373,19,150363,1,0,0:0:0:0:
460,113,150529,2,0,L|370:102,2,85,2|0|8,0:0|0:0|0:0,0:0:0:0:
493,209,151029,1,0,0:0:0:0:
419,280,151196,6,0,P|406:340|413:378,2,85,2|0|8,0:0|0:0|0:0,0:0:0:0:
493,209,151696,1,0,0:0:0:0:
493,209,151779,1,0,0:0:0:0:
493,209,151863,1,2,0:0:0:0:
329,253,152029,1,0,0:0:0:0:
294,86,152196,2,0,P|279:155|275:189,1,85,10|0,0:0|0:0,0:0:0:0:
184,283,152529,6,0,P|169:219|160:95,1,170,4|10,0:0|0:0,0:0:0:0:
303,213,153029,1,0,0:0:0:0:
303,213,153196,2,0,P|296:297|278:380,1,170,2|8,0:0|0:0,0:0:0:0:
123,211,153696,1,0,0:0:0:0:
123,211,153863,6,0,P|129:126|147:43,1,170,2|8,0:0|0:0,0:0:0:0:
147,43,154363,1,0,0:0:0:0:
315,28,154529,1,2,0:0:0:0:
219,104,154696,1,0,0:0:0:0:
367,145,154863,1,8,0:0:0:0:
216,211,155029,1,0,0:0:0:0:
216,211,155113,1,0,0:0:0:0:
216,211,155196,6,0,P|271:199|305:195,1,85,12|0,0:0|0:0,0:0:0:0:
367,145,155529,2,0,P|348:106|326:70,1,85,8|0,0:0|0:0,0:0:0:0:
306,283,155863,2,0,P|284:319|265:357,1,85,8|0,0:0|0:0,0:0:0:0:
452,265,156196,1,8,0:0:0:0:
367,145,156363,1,0,0:0:0:0:
367,145,156446,1,0,0:0:0:0:
367,145,156529,1,8,0:0:0:0:
180,285,156863,6,0,P|174:239|171:193,2,85,0|0|0,0:0|0:0|0:0,0:0:0:0:
278,218,157863,5,4,0:0:0:0:
97,111,165863,6,0,L|178:102,2,68,4|0|8,0:0|0:0|0:0,0:0:0:0:
71,210,166363,1,0,0:0:0:0:
71,210,166446,1,0,0:0:0:0:
71,210,166529,2,0,L|152:201,1,68,0|0,0:0|0:0,0:0:0:0:
240,188,166863,1,8,0:0:0:0:
265,286,167029,1,0,0:0:0:0:
265,286,167113,1,0,0:0:0:0:
265,286,167196,6,0,P|214:284|170:268,1,68,0|0,0:0|0:0,0:0:0:0:
164,103,167529,1,8,0:0:0:0:
240,188,167696,1,0,0:0:0:0:
328,113,167863,2,0,L|321:27,1,68,0|0,0:0|0:0,0:0:0:0:
164,103,168196,2,0,L|158:170,1,68,8|0,0:0|0:0,0:0:0:0:
140,338,168529,6,0,P|245:326|318:322,1,170,4|8,0:0|0:0,0:0:0:0:
430,360,169029,1,8,0:0:0:0:
477,241,169196,1,8,0:0:0:0:
477,241,169363,1,8,0:0:0:0:
359,192,169529,1,8,0:0:0:0:
359,192,169696,1,8,0:0:0:0:
231,238,169863,5,4,0:0:0:0:
187,109,170029,1,8,0:0:0:0:
187,109,170113,1,8,0:0:0:0:
187,109,170196,1,8,0:0:0:0:
202,88,170279,1,8,0:0:0:0:
221,71,170362,1,8,0:0:0:0:
242,58,170446,1,8,0:0:0:0:
266,48,170529,1,8,0:0:0:0:
291,42,170612,1,8,0:0:0:0:
316,41,170696,1,8,0:0:0:0:
342,45,170779,1,8,0:0:0:0:
366,52,170863,6,0,P|375:117|378:184,1,101.999996887207,12|0,0:0|0:0,0:0:0:0:
313,311,171196,6,0,P|316:268|322:226,1,85,4|0,0:0|0:0,0:0:0:0:
459,181,171529,1,8,0:0:0:0:
405,342,171696,2,0,P|352:353|232:357,1,170,0|0,0:0|0:0,0:0:0:0:
51,267,172196,1,8,0:0:0:0:
51,267,172363,6,0,P|104:256|224:252,1,170,4|0,0:0|0:0,0:0:0:0:
314,294,172863,1,8,0:0:0:0:
314,294,173029,1,8,0:0:0:0:
365,202,173196,2,0,P|360:139|350:97,1,85,0|0,0:0|0:0,0:0:0:0:
195,88,173529,1,8,0:0:0:0:
282,168,173696,1,0,0:0:0:0:
202,256,173863,5,12,0:0:0:0:
202,256,174029,2,0,L|108:245,1,85,0|0,0:0|0:0,0:0:0:0:
295,196,174363,2,0,P|312:252|306:294,1,85,12|0,0:0|0:0,0:0:0:0:
194,143,174696,1,0,0:0:0:0:
194,143,174863,1,8,0:0:0:0:
298,69,175029,6,0,P|336:83|454:28,1,170,4|0,0:0|0:0,0:0:0:0:
512,160,175529,2,0,L|419:151,1,85,8|0,0:0|0:0,0:0:0:0:
282,237,175863,2,0,L|375:228,1,85,8|8,0:0|0:0,0:0:0:0:
374,253,176113,1,8,0:0:0:0:
381,277,176196,1,8,0:0:0:0:
389,301,176279,1,8,0:0:0:0:
396,325,176363,1,8,0:0:0:0:
404,349,176446,1,8,0:0:0:0:
411,373,176529,6,0,L|504:364,1,85,4|0,0:0|0:0,0:0:0:0:
301,331,176863,2,0,L|226:323,2,42.5,8|0|0,0:0|0:0|0:0,0:0:0:0:
461,271,177196,1,0,0:0:0:0:
342,177,177363,1,0,0:0:0:0:
454,128,177529,1,8,0:0:0:0:
381,277,177696,6,0,P|330:288|216:242,1,170,4|0,0:0|0:0,0:0:0:0:
201,129,178196,1,8,0:0:0:0:
201,129,178363,1,8,0:0:0:0:
323,101,178529,2,0,P|326:143|314:184,1,85,0|0,0:0|0:0,0:0:0:0:
222,248,178863,2,0,L|117:232,1,85,12|0,0:0|0:0,0:0:0:0:
39,348,179196,5,8,0:0:0:0:
65,156,179363,1,0,0:0:0:0:
65,156,179529,1,0,0:0:0:0:
169,341,179696,5,8,0:0:0:0:
195,149,179863,1,0,0:0:0:0:
195,149,180029,1,0,0:0:0:0:
288,333,180196,5,8,0:0:0:0:
288,333,180363,2,0,P|340:357|467:343,1,170,4|4,0:0|0:3,0:0:0:0:
493,231,180863,1,0,0:0:0:0:
493,231,181029,2,0,L|400:237,1,85,8|0,0:3|0:0,0:0:0:0:
335,126,181363,2,0,L|419:120,2,85,8|0|0,0:3|0:0|0:0,0:0:0:0:
229,83,181863,5,4,0:0:0:0:
118,100,191196,6,0,L|193:93,1,68,4|0,1:0|0:0,0:0:0:0:
396,172,191529,2,0,L|321:179,1,68,8|8,0:0|0:0,0:0:0:0:
230,266,191863,1,8,0:0:0:0:
248,170,192029,1,8,0:0:0:0:
251,149,192112,1,8,0:0:0:0:
255,129,192195,1,8,0:0:0:0:
259,109,192279,1,8,0:0:0:0:
263,89,192362,1,8,0:0:0:0:
266,69,192445,1,0,0:0:0:0:
269,48,192529,6,0,P|321:32|417:88,2,170,4|10|2,0:0|0:0|0:0,0:0:0:0:
57,171,193529,1,8,0:0:0:0:
120,250,193696,6,0,P|154:186|101:79,1,170,4|0,0:0|0:0,0:0:0:0:
22,265,194196,2,0,P|27:311|34:367,1,85,10|0,0:0|0:0,0:0:0:0:
164,362,194529,1,2,0:0:0:0:
205,259,194696,1,0,0:0:0:0:
331,299,194863,2,0,P|336:345|343:401,1,85,10|0,0:0|0:0,0:0:0:0:
446,243,195196,6,0,P|464:198|415:81,2,170,4|10|2,0:0|0:0|0:0,0:0:0:0:
251,155,196196,1,8,0:0:0:0:
205,259,196363,6,0,P|115:250|25:245,1,170,4|0,0:0|0:0,0:0:0:0:
75,118,196863,1,10,0:0:0:0:
126,221,197029,1,0,0:0:0:0:
126,221,197113,1,0,0:0:0:0:
126,221,197196,1,8,0:0:0:0:
221,165,197363,2,0,L|215:87,5,42.5,8|8|8|8|8|8,0:0|0:0|0:0|0:0|0:0|0:0,0:0:0:0:
221,165,197863,6,0,P|271:174|367:97,2,170,4|8|2,0:0|0:0|0:0,0:0:0:0:
124,53,198696,1,0,0:0:0:0:
252,85,198863,2,0,P|250:39|239:-9,1,85,8|0,0:0|0:0,0:0:0:0:
112,170,199196,6,0,P|114:216|125:264,1,85,2|0,0:0|0:0,0:0:0:0:
234,336,199529,2,0,P|280:334|328:323,1,85,8|0,0:0|0:0,0:0:0:0:
400,214,199863,2,0,P|398:168|387:120,1,85,2|0,0:0|0:0,0:0:0:0:
278,48,200196,2,0,P|232:50|184:61,1,85,8|0,0:0|0:0,0:0:0:0:
256,192,200529,6,0,P|346:177|434:173,1,170,4|8,0:0|0:0,0:0:0:0:
480,320,201029,1,0,0:0:0:0:
367,370,201196,2,0,P|339:326|368:204,1,170,2|8,0:0|0:0,0:0:0:0:
448,40,201696,1,0,0:0:0:0:
398,125,201863,6,0,P|355:127|302:106,1,85,2|0,0:0|0:0,0:0:0:0:
200,34,202196,1,8,0:0:0:0:
134,151,202363,1,0,0:0:0:0:
246,264,202529,2,0,P|250:221|251:179,1,85,2|0,0:0|0:0,0:0:0:0:
251,179,202779,1,0,0:0:0:0:
251,179,202863,1,12,0:0:0:0:
200,34,203029,1,0,0:0:0:0:
308,104,203196,21,12,0:0:0:0:
152,200,203363,1,0,0:0:0:0:
348,268,203529,1,8,0:0:0:0:
240,148,203696,1,0,0:0:0:0:
184,344,203863,2,0,P|228:340|292:332,1,85,8|0,0:0|0:0,0:0:0:0:
408,188,204196,2,0,P|363:182|318:178,1,85,8|0,0:0|0:0,0:0:0:0:
323,178,204446,1,0,0:0:0:0:
323,178,204529,21,8,0:0:0:0:
424,304,204696,1,0,0:0:0:0:
380,104,204863,1,8,0:0:0:0:
252,240,205029,1,0,0:0:0:0:
472,120,205196,2,0,P|468:72|444:28,1,85,8|0,0:0|0:0,0:0:0:0:
232,159,205529,2,0,P|234:201|252:240,1,85,8|0,0:0|0:0,0:0:0:0:
251,239,205779,1,0,0:0:0:0:
251,239,205863,21,12,0:0:0:0:
368,196,206029,1,0,0:0:0:0:
272,360,206196,1,8,0:0:0:0:
124,248,206363,1,0,0:0:0:0:
357,280,206529,2,0,P|364:238|368:195,1,85,8|0,0:0|0:0,0:0:0:0:
224,74,206863,2,0,P|225:117|232:159,1,85,8|0,0:0|0:0,0:0:0:0:
232,159,207113,1,0,0:0:0:0:
232,159,207196,5,8,0:0:0:0:
264,324,207363,1,0,0:0:0:0:
368,196,207529,1,8,0:0:0:0:
160,264,207696,1,0,0:0:0:0:
352,376,207863,2,0,P|400:372|448:360,1,85,8|0,0:0|0:0,0:0:0:0:
451,183,208196,2,0,P|409:186|368:196,1,85,8|0,0:0|0:0,0:0:0:0:
160,264,208529,5,8,0:0:0:0:
136,236,208613,1,0,0:0:0:0:
132,200,208696,1,0,0:0:0:0:
144,168,208779,1,0,0:0:0:0:
172,144,208863,2,0,P|208:136|228:140,3,42.5,0|0|0|0,0:0|0:0|0:0|0:0,0:0:0:0:
292,176,209196,5,0,0:0:0:0:
304,144,209279,1,0,0:0:0:0:
300,108,209363,1,0,0:0:0:0:
284,76,209446,1,0,0:0:0:0:
252,56,209529,2,0,L|208:40,1,42.5,0|0,0:0|0:0,0:0:0:0:
124,16,209696,2,0,L|81:31,1,42.5,0|0,0:0|0:0,0:0:0:0:
12,120,209863,6,0,P|8:160|28:216,1,85,4|0,0:0|0:0,0:0:0:0:
180,312,210196,1,8,0:0:0:0:
264,172,210363,1,0,0:0:0:0:
116,240,210529,5,8,0:0:0:0:
116,240,210696,1,8,0:0:0:0:
328,336,210863,1,8,0:0:0:0:
328,336,211029,1,8,0:0:0:0:
312,104,211196,1,8,0:0:0:0:
116,240,211529,6,0,P|160:240|205:245,1,85,0|0,0:0|0:0,0:0:0:0:
200,244,212029,1,0,0:0:0:0:
200,244,212196,1,0,0:0:0:0:
397,148,212529,5,4,0:0:0:0:
125,188,215029,6,0,L|118:128,2,31.8750012159348,8|8|12,0:0|0:0|0:0,0:0:0:0:
65,291,215529,2,0,B|196:348|177:225|326:309,1,255.000009727478,0|0,0:0|0:0,0:0:0:0:
459,380,216863,2,0,P|475:330|467:251,1,127.500004863739,0|4,0:0|0:3,0:0:0:0:
394,179,217363,2,0,L|441:170,5,31.8750012159348,8|8|8|8|8|8,0:0|0:0|0:0|0:0|0:0|0:0,0:0:0:0:
394,179,217863,6,0,P|334:174|220:168,1,170,4|8,0:0|0:0,0:0:0:0:
144,40,218363,2,0,P|154:103|162:163,1,85,0|0,0:0|0:0,0:0:0:0:
86,256,218696,2,0,P|135:215|183:178,1,85,0|8,0:0|0:0,0:0:0:0:
154,340,219029,6,0,P|111:360|-12:302,1,170,4|0,0:0|0:0,0:0:0:0:
233,268,219529,1,8,0:0:0:0:
233,268,219696,2,0,L|428:260,1,170,4|0,0:0|0:0,0:0:0:0:
454,120,220196,2,0,L|337:115,1,85,8|0,0:0|0:0,0:0:0:0:
258,28,220529,6,0,P|227:68|249:193,1,170,4|8,0:0|0:0,0:0:0:0:
314,279,221029,2,0,P|275:264|233:268,1,85,0|0,0:0|0:0,0:0:0:0:
85,340,221363,2,0,P|127:343|166:328,1,85,0|8,0:0|0:0,0:0:0:0:
315,364,221696,6,0,P|325:313|336:190,1,170,4|0,0:0|0:0,0:0:0:0:
192,98,222196,1,8,0:0:0:0:
192,98,222363,2,0,P|198:182|212:266,1,170,4|0,0:0|0:0,0:0:0:0:
437,226,222863,1,8,0:0:0:0:
335,195,223029,1,0,0:0:0:0:
416,120,223196,5,8,0:0:0:0:
416,120,223363,1,0,0:0:0:0:
367,275,223529,1,8,0:0:0:0:
367,275,223696,1,0,0:0:0:0:
222,230,223863,5,8,0:0:0:0:
222,230,224030,1,8,0:0:0:0:
271,75,224196,1,8,0:0:0:0:
271,75,224363,1,0,0:0:0:0:
322,178,224529,5,12,0:0:0:0:
322,178,224696,2,0,P|276:185|198:192,1,85,12|0,0:0|0:0,0:0:0:0:
237,189,224946,1,0,0:0:0:0:
237,189,225029,1,0,0:0:0:0:
134,145,225196,5,12,0:0:0:0:
211,321,225363,1,12,0:0:0:0:
