osu file format v5

[General]
AudioFilename: 02 - Leave It All to Me (Theme from iCarly).mp3
AudioLeadIn: 507
PreviewTime: 33864
Countdown: 0
SampleSet: Normal
StackLeniency: 0.7
Mode: 0
LetterboxInBreaks: 1

[Editor]
DistanceSpacing: 0.899999976158142
BeatDivisor: 4
GridSize: 8

[Metadata]
Title:Leave It All To Me
Artist:Miranda Cosgrove feat. Drake Bell
Creator:Larto
Version:Normal
Source:iCarly
Tags:

[Difficulty]
HPDrainRate:3
CircleSize:3
OverallDifficulty:3
SliderMultiplier:2.6
SliderTickRate:2

[Events]
//Background and Video events
0,0,"tv_icarly01.jpg"
//Break Periods
2,52921,56281
//Storyboard Layer 0 (Background)
//Storyboard Layer 1 (Fail)
//Storyboard Layer 2 (Pass)
//Storyboard Layer 3 (Foreground)
//Storyboard Sound Samples
//Background Colour Transformations
3,100,163,162,255

[TimingPoints]
2580,285.714285714286,4,1,0,100,1,0
2864,-200,4,1,0,100,0,0
33716,-200,4,2,0,100,0,0
33787,-200,4,1,0,29,0,0
34181,-200,4,1,0,51,0,0
34323,-200,4,1,0,76,0,0
34465,-200,4,1,0,100,0,0
34573,-200,4,1,0,100,0,1
52721,-200,4,1,0,100,0,0
88578,-200,4,2,0,100,0,0
88649,-200,4,1,0,32,0,0
89078,-200,4,1,0,51,0,0
89220,-200,4,1,0,73,0,0
89327,-200,4,1,0,100,0,0
89436,-200,4,1,0,100,0,1

[HitObjects]
120,256,2865,2,0,B|72:200|112:120,1,130,8|0
192,224,3437,2,0,B|240:168|200:88,1,130,8|0
305,102,4008,2,0,B|272:168|320:232,1,130,8|0
406,134,4580,2,0,B|440:200|392:256,1,130,8|0
458,336,5151,6,0,B|320:336,3,130,8|0|8|0
184,336,6294,2,0,B|32:336,3,130,8|0|8|0
64,232,7437,5,8
144,168,7722,1,2
64,96,8008,1,8
166,75,8294,2,2,B|310:43|358:163|318:299|134:243,1,390,6|6
64,56,10579,5,2
256,88,11151,1,2
448,56,11722,1,2
448,160,12008,6,0,B|392:200|304:200,1,130,8|0
186,199,12579,2,0,B|120:200|56:160,1,130,8|0
128,72,13151,6,8,B|208:40|352:120|408:64,1,260
384,78,14008,1,0
432,184,14294,6,0,B|472:248|432:312,1,130,8|0
328,304,14865,2,0,B|288:240|328:176,1,130,8|0
190,179,15437,2,0,B|227:238|184:304,1,130,8|0
79,304,16008,2,0,B|43:246|80:176,1,130,8|0
128,96,16579,6,8,B|264:48|408:104,1,260
352,192,17437,2,6,B|256:144|136:200,2,195
368,312,18579,5,0
368,312,18865,2,0,B|232:312,1,130,8|0
144,232,19437,2,0,B|280:232,1,130,8|0
368,152,20008,2,0,B|232:152,1,130,12|4
144,80,20579,1,12
256,80,20865,6,4,B|335:51|414:113|519:88,4,260
256,288,23722,5,2
160,328,24008,1,2
16,192,24580,2,8,B|8:120|88:88,1,130
256,304,25437,6,4,B|177:333|98:271|-7:296,4,260
256,96,28294,5,2
352,56,28580,1,2
496,192,29151,2,4,B|504:264|424:296,2,130
256,192,30294,12,0,31722
96,312,32294,5,0
200,312,32580,1,0
304,312,32865,1,0
408,312,33151,1,0
408,312,33294,2,0,B|440:256|424:176|352:136,1,195,0|4
280,72,34008,6,0,B|216:72,8,32.5,0|0|0|0|0|0|0|0|8
128,72,35008,5,0
200,208,35437,1,8
312,208,35722,5,8
384,312,36151,1,0
256,312,36580,1,8
256,312,36865,2,10,B|136:408|16:312,1,260
144,144,38008,5,4
200,56,38294,1,0
312,56,38580,1,4
368,144,38865,1,0
368,144,39008,1,2
256,344,39722,6,0,B|256:200,1,130,8|0
168,272,40294,2,0,B|168:128,1,130,8|0
80,200,40865,2,0,B|80:56,1,130,8|0
176,40,41437,2,4,B|248:16|336:48,2,130,12|4|12
368,240,42580,5,2
312,328,42865,1,0
200,328,43151,1,2
144,240,43437,1,0
256,240,43722,1,6
256,136,44008,6,0,B|256:0,2,130,0|8|0
347,184,44865,2,0,B|337:256|258:291|166:263|164:168,2,260,8|8|12
352,80,46294,1,0
256,80,46580,1,8
160,80,46865,1,0
165,184,47151,2,0,B|175:256|254:291|346:263|348:168,2,260,8|8|12
80,240,48580,6,0,B|104:312|176:344,1,130,0|8
256,360,49151,1,0
351,336,49437,2,0,B|448:288|456:160,1,195,8|0
256,192,50580,12,4,52722
72,112,57722,6,0,B|128:144|208:112,1,130,8|0
288,72,58294,2,0,B|360:48|448:88,1,130,8|0
448,152,58865,5,8
360,200,59151,1,0
256,176,59437,1,8
160,216,59722,1,0
256,320,60294,5,4
384,192,60865,1,4
256,64,61437,1,4
128,192,62008,1,4
320,264,62580,6,0,B|184:264,2,130,0|8|6
256,64,63722,1,6
192,264,64294,1,6
256,64,64865,1,0
456,112,65437,6,2,C|364:190|256:118|142:188|20:68,1,520
152,72,66865,6,0,B|216:24|296:32,3,130,8|0|8|0
360,80,68008,2,0,B|296:128|216:120,3,130,12|0|12|0
152,192,69151,5,8
152,296,69437,1,0
256,296,69722,1,8
256,192,70008,1,0
256,88,70294,1,8
360,88,70580,1,0
360,192,70865,1,8
168,264,71437,6,0,B|168:120,1,130,8|0
264,176,72008,2,0,B|296:112|240:24,4,130,0|6|0|6|6
288,280,73722,6,0,B|128:280,1,130,8|0
224,200,74294,2,0,B|384:200,1,130,8|0
288,120,74865,2,0,B|128:120,1,130,12|4
224,40,75437,1,12
352,40,75722,5,4
456,192,76294,1,4
351,359,76865,1,4
167,357,77437,1,4
56,192,78008,1,4
256,144,78579,5,2
372,184,78865,2,2,B|244:296|124:168,1,260,2|8
140,184,79722,1,8
160,40,80294,5,4
56,192,80865,1,4
160,359,81437,1,4
344,357,82008,1,4
456,192,82579,1,4
256,144,83151,5,2
140,184,83437,2,2,B|268:296|388:168,1,260,2|8
372,184,84294,1,8
256,192,85151,12,4,86579
257,198,87151,6,0,B|259:221|299:173|219:93|155:173|155:245|155:285|219:269|283:285|315:285|323:237|347:213|347:141|347:77|227:53|171:53|107:165|107:237|160:282,1,650,0|4
264,336,88865,2,0,B|320:336,8,32.5,0|0|0|0|0|0|0|0|8
479,243,90008,5,8
354,243,90294,1,0
234,243,90579,1,8
33,141,91151,5,8
158,141,91437,1,0
278,141,91722,2,4,B|348:179|468:178|540:145,1,260,12|12
320,40,92865,6,0,B|176:40,4,130,2|0|2|0|6
112,144,94579,6,0,B|40:200|80:272,1,130,8|0
184,208,95151,2,0,B|144:280|200:336,1,130,8|0
272,248,95722,2,0,B|296:312|392:312,1,130,8|0
360,192,96294,2,4,B|432:232|504:192,2,130,12|4|12
256,40,97437,5,2
256,40,97722,1,0
256,40,98008,1,2
256,40,98294,1,0
256,40,98579,6,0,B|72:40,1,130,4|0
48,128,99151,2,0,B|208:128,1,130,8|0
256,216,99722,2,0,B|104:216,2,130,4|0|4
256,344,100865,6,0,B|440:344,1,130,8|0
464,256,101437,2,0,B|304:256,1,130,8|0
256,168,102008,2,0,B|408:168,2,130,4|0|4
80,184,103437,5,0
160,264,103722,1,8
256,328,104008,1,0
352,264,104294,1,8
432,184,104579,1,0
432,184,104722,2,0,B|472:104|416:48,1,130,8|4
256,192,105437,12,4,107579
