osu file format v5

[General]
AudioFilename: 02 - Leave It All to Me (Theme from iCarly).mp3
AudioLeadIn: 507
PreviewTime: 33864
Countdown: 0
SampleSet: Normal
StackLeniency: 0.7
Mode: 0
LetterboxInBreaks: 1

[Editor]
DistanceSpacing: 1.10000002384186
BeatDivisor: 8
GridSize: 8

[Metadata]
Title:Leave It All To Me
Artist:Miranda Cosgrove feat. Drake Bell
Creator:Larto
Version:Hard
Source:iCarly
Tags:

[Difficulty]
HPDrainRate:6
CircleSize:4
OverallDifficulty:7
SliderMultiplier:1.6
SliderTickRate:1

[Events]
//Background and Video events
0,0,"tv_icarly01.jpg"
//Break Periods
2,52921,56821
2,109492,115676
//Storyboard Layer 0 (Background)
//Storyboard Layer 1 (Fail)
//Storyboard Layer 2 (Pass)
//Storyboard Layer 3 (Foreground)
//Storyboard Sound Samples
//Background Colour Transformations
3,100,163,162,255

[TimingPoints]
2580,285.714285714286,4,1,0,100,1,0
33716,-100,4,2,0,100,0,0
33787,-100,4,1,0,29,0,0
34181,-100,4,1,0,51,0,0
34323,-100,4,1,0,76,0,0
34465,-100,4,1,0,100,0,0
34573,-100,4,1,0,100,0,1
52721,-100,4,1,0,100,0,0
88578,-100,4,2,0,100,0,0
88649,-100,4,1,0,32,0,0
89078,-100,4,1,0,51,0,0
89220,-100,4,1,0,73,0,0
89327,-100,4,1,0,100,0,0
89436,-100,4,1,0,100,0,1
105439,1142.85714285714,4,1,0,100,1,0
107505,-100,4,1,0,0,0,0
110008,285.714285714286,4,1,0,75,1,0
126005,-100,4,1,0,100,0,1
149916,-100,4,1,0,100,0,0
150005,355.029585798817,4,1,0,100,1,0
150715,355.029585798817,4,1,0,100,1,0
151679,-100,4,1,0,0,0,0

[HitObjects]
80,312,2865,6,0,B|-16:256|40:144,1,160,8|0
104,224,3294,1,0
184,192,3437,2,0,B|216:120|280:200|336:96,1,160,8|4
432,312,4008,6,0,B|528:256|472:144,1,160,8|0
408,224,4437,1,0
328,192,4580,2,0,B|296:120|232:200|176:96,1,160,8|4
112,264,5151,6,8,B|168:336|368:336|424:240,1,320
472,200,5865,2,0,B|512:104|432:32,1,160
384,96,6294,1,8
256,248,6580,1,4
128,96,6865,1,8
128,96,7008,1,0
128,96,7151,1,0
336,184,7437,6,0,B|256:152|152:192,2,160,8|0|8
368,304,8294,2,6,B|302:346|138:336|114:280,2,240
464,160,9437,1,0
336,64,9722,1,8
200,152,10008,1,0
128,112,10151,1,0
56,72,10294,1,8
28,191,10579,6,2,B|4:303|204:375|276:215,2,320
184,216,12008,6,8,B|200:160|296:144|328:216,2,160,8|0|8
256,248,12722,2,0,B|280:304|376:312|408:224,1,160,0|0
328,216,13151,6,0,B|232:200|216:144|248:80,2,160,8|0|8
256,248,13865,2,0,B|232:304|136:312|104:224,1,160,0|0
104,176,14294,6,0,B|88:112|176:8|272:32,1,240,8|0
216,112,14865,2,0,B|192:144|192:216|256:216|320:216|328:136|296:104,1,240,8|0
255,29,15437,2,8,B|336:8|424:112|408:176,1,240,8|0
408,256,16008,1,8
256,320,16294,1,4
104,256,16579,6,0,B|40:192|48:88,2,160,8|0|8
124,77,17437,2,6,B|113:144|146:217|220:251|281:248,2,240
256,8,18579,5,0
256,168,18865,1,10
176,88,19151,1,2
256,88,19294,1,0
336,88,19437,1,10
400,128,19579,1,0
432,200,19722,2,6,B|488:232|448:272|448:272|408:304|464:344,3,160,2|14|2|14
144,327,20865,6,4,B|48:279|46:86|164:47,1,320,4|4
256,192,21722,1,0
368,327,22008,2,0,B|464:279|466:86|348:47,1,320,4|4
256,192,22865,1,0
169,259,23151,2,2,B|134:201|130:80|259:84|259:84|350:90|397:191|331:272,2,480
304,344,25151,5,8
256,280,25294,1,0
208,344,25437,2,0,B|136:344|72:288|96:216,1,160,4|0
80,135,26008,2,0,B|104:64|152:32|224:16,1,160,0|0
323,25,26580,2,0,B|360:32|408:64|431:135,1,160,4|0
420,255,27151,2,0,B|416:312|368:344|304:344,1,160,0|0
336,184,27722,5,6
296,256,27865,1,0
216,256,28008,1,2
176,184,28151,1,0
176,104,28294,2,6,B|368:104,2,160
256,328,29151,5,0
136,192,29437,1,8
376,192,29722,1,0
256,192,30294,12,4,31722
40,280,32294,5,0
112,296,32437,1,0
184,280,32580,1,0
256,264,32722,1,0
328,280,32865,1,0
400,296,33008,1,0
472,280,33151,2,0,B|504:176|360:80|254:160,1,320,0|4
256,264,34008,6,0,B|256:328,7,40
256,264,34580,6,4,B|184:200|240:104,1,160,12|0
288,176,35008,2,0,B|328:88|264:24,1,160,0|0
192,56,35437,1,8
80,176,35722,6,0,B|72:232|128:288|200:264,1,160,8|0
168,184,36151,2,0,B|264:176|272:264|272:304,1,160,0|0
216,336,36580,1,8
303,103,36865,6,2,B|255:39|255:39|197:119,2,160
160,304,38008,5,2
352,80,38294,1,0
160,80,38580,1,2
352,304,38865,1,6
256,304,39008,1,6
112,312,39722,6,0,B|64:224|112:144,1,160,8|0
407,158,40294,2,0,B|448:224|400:312,1,160,8|0
255,224,40865,2,2,B|201:155|321:155|256:83,1,160,10|2
120,48,41437,1,14
256,16,41722,1,0
392,48,42008,1,14
360,312,42580,5,2
152,72,42865,1,0
360,72,43151,1,2
152,312,43437,1,0
256,72,43722,1,14
168,224,44008,5,0
64,80,44294,1,8
232,96,44580,1,0
400,48,44865,2,8,C|440:120|400:184|440:248|400:328,2,320,8|8|12
296,192,46294,5,0
400,48,46580,1,8
232,64,46865,1,0
64,15,47151,2,12,C|24:80|64:144|24:216|60:288,2,320
280,96,48580,6,0,B|352:136|448:96,1,160,0|8
224,152,49151,2,0,B|152:192|56:152,1,160,0|8
152,312,49722,1,0
152,312,49865,1,0
360,312,50151,1,0
256,272,50437,5,0
256,272,50580,1,4
344,184,50865,1,0
184,112,51151,1,0
328,112,51437,1,0
184,264,51722,1,6
256,112,52008,1,4
328,264,52294,1,6
160,184,52580,1,4
256,192,52722,1,6
104,160,57722,5,8
104,320,58008,2,0,B|200:320|216:208,1,160,0|8
224,144,58437,1,0
352,256,58722,1,0
288,200,58865,1,8
440,200,59151,6,0,B|344:200|328:88,1,160,0|8
320,24,59580,1,0
192,136,59865,1,0
256,80,60008,6,0,B|288:112|376:112|400:56,2,160,8|0|8
336,152,60722,2,0,B|304:184|216:184|192:128,1,160
128,48,61151,5,8
128,208,61437,1,4
384,208,61722,1,8
384,48,62008,1,4
256,128,62294,6,0,B|352:160|320:88|416:136,2,160,8|0|8
312,288,63151,2,6,B|168:320|216:208|64:280,2,240
384,200,64294,5,8
336,136,64437,1,0
256,120,64580,1,0
128,184,64865,1,8
176,248,65008,1,0
256,264,65151,1,0
416,280,65437,6,2,B|488:240|464:56|304:48,2,320
256,336,66865,6,0,B|160:312|160:208,1,160,8|0
160,144,67294,1,0
176,64,67437,2,0,B|240:32|272:104|336:64,1,160,8|0
256,336,68008,6,0,B|352:312|352:208,1,160,8|0
352,144,68437,1,0
336,64,68580,2,0,B|272:32|240:104|176:64,1,160,8|0
32,120,69151,6,0,B|0:200|72:280,1,160,8|0
112,208,69580,1,0
184,160,69722,2,0,B|256:224|336:152,1,160,8|0
400,208,70151,1,0
449,268,70294,2,4,B|512:200|480:120,2,160,12|4|12
256,328,71151,1,0
208,176,71437,6,0,B|210:117|258:117|314:117|304:200,2,160,8|0|8
176,328,72294,2,6,B|184:264|229:232|296:240|344:272|336:352,2,240
96,192,73437,5,0
160,48,73722,1,8
224,192,74008,1,0
256,120,74151,1,0
288,48,74294,1,8
352,192,74579,1,0
416,48,74865,1,8
416,288,75151,6,4,B|80:288,1,320
16,152,76008,5,0
88,8,76294,1,4
256,16,76579,1,0
432,8,76865,1,4
496,152,77151,1,0
440,304,77437,1,4
256,304,77722,1,0
96,304,78008,2,6,C|48:240|72:168|16:96,2,240,2|2|2
144,160,79151,2,0,C|192:224|168:296|224:368,2,240,0|0|0
256,304,80294,5,4
440,304,80579,1,0
496,152,80865,1,4
432,8,81151,1,0
256,16,81437,1,4
80,8,81722,1,0
16,152,82008,1,4
72,304,82294,1,0
176,184,82579,6,2,C|344:184,1,160
336,264,83008,1,0
336,344,83151,1,2
256,344,83294,1,0
176,344,83437,1,2
176,264,83579,1,0
256,264,83722,1,4
328,80,84008,5,0
168,80,84294,1,8
256,192,84579,1,0
256,192,85151,12,4,86579
293,41,87151,5,0
217,80,87294,1,0
293,121,87437,1,0
217,160,87579,1,0
292,208,87722,2,0,C|213:241,1,80
293,284,88008,1,0
224,320,88151,2,0,B|192:344|192:344|152:320|152:320|104:344|104:344|56:320|56:320|8:344|8:344,1,240,0|4
96,208,88865,6,0,B|40:232,7,40
96,208,89437,6,0,B|64:128|144:56,1,160,8|0
176,128,89865,2,0,B|224:80|320:64|344:72,1,160
400,80,90294,1,8
416,240,90579,6,0,B|344:200|320:280|240:232,1,160,8|0
288,320,91008,2,0,B|200:320|168:256|208:192,1,160
256,168,91437,1,8
160,40,91722,1,6
352,40,92008,1,6
256,168,92294,1,2
360,272,92865,6,0,B|360:112,1,160,2|0
152,112,93437,2,0,B|152:272,1,160,2|0
256,192,93865,1,4
64,112,94579,6,0,B|32:184|64:272,1,160,8|0
184,256,95151,2,0,B|256:312|352:248,1,160,8|0
449,268,95722,2,0,B|480:184|448:112,1,160,8|0
320,16,96294,1,14
256,160,96579,1,4
192,16,96865,1,14
176,336,97437,6,0,B|352:336,1,160,2|0
336,192,98008,2,0,B|160:192,1,160,2|0
256,56,98579,5,12
96,56,98865,1,0
256,200,99151,1,8
96,200,99437,1,0
256,328,99722,2,0,B|88:328,2,160,8|0|8
256,56,100865,5,12
416,56,101151,1,0
256,200,101437,1,8
416,200,101722,1,0
256,328,102008,2,0,B|424:328,2,160,8|0|8
144,200,103437,6,0,B|96:120|176:56,1,160,0|8
368,200,104008,2,0,B|416:120|336:56,1,160,0|8
256,216,104579,1,0
256,304,104722,1,0
256,136,105008,1,0
160,248,105294,5,0
160,248,105439,1,4
320,136,105724,5,0
256,304,106010,1,0
200,136,106296,1,4
352,248,106581,1,6
256,64,106867,5,4
152,184,107153,1,6
360,184,107438,1,4
256,192,107581,6,0,B|120:256|416:296|248:360,1,240,2|2
256,192,116579,5,0
129,307,116865,2,0,B|64:192|133:71,1,240
383,307,117722,1,0
383,307,118007,2,8,B|448:192|379:71,1,240,8|0
382,78,118579,1,8
256,192,118865,5,0
129,307,119150,2,0,B|64:192|133:71,1,240
383,307,120007,1,0
383,307,120293,2,0,B|448:192|379:71,1,240,8|0
382,78,120865,1,8
256,80,121150,5,0
320,160,121436,1,4
168,192,122007,1,8
376,224,122579,1,4
88,272,123150,1,8
424,288,123722,1,4
24,344,124293,1,8
512,368,124865,1,6
344,368,125150,1,2
168,368,125436,1,6
0,368,125722,1,2
88,232,126007,6,0,B|56:128|120:48|200:40,2,240,8|0|8
184,360,127150,1,8
256,216,127436,1,0
328,360,127722,1,8
256,216,128007,1,0
424,232,128293,2,6,B|456:128|392:8|240:24,1,320,14|6
256,256,129436,6,0,B|256:80,2,160,2|0|2
296,368,130293,1,0
216,368,130436,1,6
136,368,130579,6,4,B|40:288|32:128|104:64,1,320,8|8
256,112,131436,1,0
421,78,131722,2,0,B|480:128|472:288|376:368,1,320,8|8
256,264,132579,1,0
96,192,132865,2,10,B|424:192,1,320
352,40,134007,5,2
320,112,134150,1,0
256,160,134293,1,2
192,112,134436,1,0
160,40,134579,1,2
160,200,134865,1,2
352,200,135150,6,6,B|408:280|344:352,1,160,6|2
163,346,135722,2,8,B|104:280|160:200,1,160
258,330,136293,2,6,B|130:242|394:130|242:42,2,320,6|6|2
344,240,137722,1,0
168,144,138007,1,8
344,144,138293,1,0
168,240,138579,2,12,B|168:288|168:360|256:384|352:360|344:288|344:216,1,320
216,184,139436,5,8
296,184,139579,1,8
256,120,139722,1,8
112,24,140007,5,0
400,24,140293,1,8
112,136,140579,5,0
400,136,140865,1,8
120,248,141150,5,0
208,248,141293,1,0
304,248,141436,1,8
400,248,141579,1,0
256,144,141865,6,0,B|200:120|328:40|248:0,1,160
184,48,142293,1,0
344,120,142579,1,0
184,192,142865,1,0
344,264,143150,1,2
256,368,143436,5,0
256,192,143722,1,2
256,16,144007,1,0
328,64,144150,2,2,C|408:120|368:168|448:232,1,240,2|10
256,272,144865,5,0
96,216,145150,1,10
256,192,145436,5,0
256,368,145722,1,10
256,192,146007,1,0
256,16,146293,1,10
184,64,146436,2,2,C|104:120|144:168|64:232,1,240,2|10
256,272,147150,5,0
425,215,147436,1,10
256,192,147722,5,0
256,368,148008,1,10
256,192,148293,1,0
256,16,148579,1,10
328,64,148722,2,10,C|408:120|368:168|448:232,1,240,2|10
256,272,149436,5,0
87,215,149722,1,10
256,192,149936,12,4,150718
256,192,150759,12,4,151593
256,192,151646,12,0,156572
