osu file format v8

[General]
AudioFilename: El profe.mp3
AudioLeadIn: 0
PreviewTime: 27342
Countdown: 0
SampleSet: Normal
StackLeniency: 0.5
Mode: 0
LetterboxInBreaks: 1

[Editor]
DistanceSpacing: 0.85
BeatDivisor: 2
GridSize: 8

[Metadata]
Title:El Profe
Artist:Miranda!
Creator:Krisom
Version:Easy
Source:
Tags:lepidopodus

[Difficulty]
HPDrainRate:2
CircleSize:3
OverallDifficulty:1
ApproachRate:2
SliderMultiplier:0.9
SliderTickRate:2

[Events]
//Background and Video events
0,0,"BG.png"
//Break Periods
2,50946,57607
2,118314,124975
//Storyboard Layer 0 (Background)
//Storyboard Layer 1 (Fail)
//Storyboard Layer 2 (Pass)
//Storyboard Layer 3 (Foreground)
//Storyboard Sound Samples
//Background Colour Transformations
3,100,163,162,255

[TimingPoints]
220,350.877192982456,4,1,1,90,1,0
14956,-100,4,1,1,50,0,0
16535,-100,4,1,1,90,0,0
25834,-100,4,1,1,51,0,0
28290,-100,4,1,1,90,0,1
50746,-100,4,1,1,90,0,0
59167,-100,4,1,1,50,0,0
61272,-100,4,1,1,90,0,0
70746,-100,4,1,1,50,0,0
73202,-100,4,1,1,90,0,1
95570,-100,4,1,1,90,0,0
95658,-100,4,1,1,90,0,1
106886,-100,4,1,1,90,0,0
126184,-100,4,1,1,50,0,0
128641,-100,4,1,1,90,0,0
138114,-100,4,1,1,50,0,0
140570,-100,4,1,1,91,0,1
151711,-100,4,1,1,91,0,0
151798,-100,4,1,1,91,0,1
173377,-100,4,1,1,91,0,0

[Colours]
Combo1 : 193,34,234
Combo2 : 84,234,77
Combo3 : 6,131,255
Combo4 : 255,62,34
Combo5 : 255,204,0

[HitObjects]
32,192,5834,1,4
112,320,6535,1,0
192,192,7237,2,0,B|336:192,2,135,0|0|8
112,192,8641,5,0
192,64,9342,1,0
272,192,10044,2,0,B|416:192,2,135,0|0|8
240,264,11448,6,0,B|176:304|112:264,2,135,0|0|8
272,336,12851,2,0,B|336:296|400:336,2,135,0|0|8
256,264,14255,1,0
176,128,14956,5,8
336,128,15658,1,8
256,216,16184,1,8
256,40,17062,5,0
256,192,17763,1,0
216,336,18465,2,0,B|152:360|80:336,2,135,0|0|8
296,336,19869,5,0
256,192,20570,1,0
296,48,21272,2,0,B|360:24|432:48,2,135,0|0|8
216,48,22676,6,0,B|152:24|80:48,2,135,0|0|8
256,112,24079,2,0,B|256:264,2,135,0|0|8
296,48,25483,1,0
256,192,25834,12,4,28290
184,288,28991,5,0
328,288,29693,1,0
346,174,30219,2,2,B|162:174,1,180,2|0
328,288,31798,5,0
184,288,32500,1,0
168,176,33027,2,2,B|256:144|344:176,1,180,2|0
256,344,34605,5,0
168,264,35132,2,2,B|256:232|344:264,2,180
80,192,37062,5,8
176,72,37763,1,8
336,72,38465,1,8
432,192,39167,1,8
400,264,39518,5,4
256,216,40219,1,0
112,264,40921,1,0
168,160,41448,2,2,B|256:124|344:160,1,180,2|0
256,344,43027,5,0
168,264,43553,2,2,B|256:227|344:264,2,180,2|2|0
256,80,45834,5,0
176,168,46360,1,2
336,168,47062,1,4
336,168,47412,1,4
256,192,47939,12,4,50746
144,224,59167,5,0
256,328,59869,1,8
368,224,60570,1,8
256,192,61097,1,8
128,48,61974,5,0
256,136,62676,1,0
384,48,63377,2,0,B|464:72|480:144,2,135,0|0|8
344,112,64781,6,0,B|400:184|336:248,2,135,0|0|8
280,152,66184,2,0,B|264:224|176:224,1,135
296,376,67588,6,0,L|352:336|432:336,2,135,0|0|8
216,376,68991,2,0,L|160:336|80:336,2,135,0|0|8
256,312,70395,1,0
256,192,70746,12,4,73202
184,104,73904,5,0
328,104,74605,1,0
256,192,75132,2,0,B|224:264|256:280|288:296|256:368,1,180
344,192,76711,5,0
336,80,77237,2,2,L|288:112|224:112|176:80,2,180,2|2|0
256,256,79518,5,0
176,336,80044,2,2,C|256:376|336:336,2,180,2|2|2
256,256,81974,5,8
392,184,82676,1,8
256,120,83377,1,8
120,184,84079,1,8
112,264,84430,5,4
256,216,85131,1,0
400,264,85833,1,0
336,360,86360,2,2,B|256:288|176:360,1,180,2|0
256,184,87939,5,0
184,96,88465,2,2,L|240:56|256:69|272:56|328:96,2,180,2|2|0
256,272,90746,5,0
256,120,91448,1,0
168,48,91974,2,2,C|256:32|344:48,1,180,2|0
256,192,93027,12,0,94781
64,304,95658,6,0,B|64:352|129:372|192:352|192:304,1,180,4|0
192,224,96711,1,8
192,144,97062,2,0,B|192:96|257:76|320:96|320:144,1,180,0|0
320,224,98114,1,8
320,304,98465,2,0,B|320:352|385:372|448:352|448:304,2,180,0|0|2
256,208,100395,1,2
88,264,101272,6,0,B|88:200|136:144|192:128,1,180
256,88,102325,1,8
320,128,102676,2,0,B|373:143|421:199|421:263,1,180
398,339,103728,1,8
344,280,104079,2,0,B|256:248|168:280,1,180
114,339,105132,1,8
192,354,105483,2,2,B|256:392|320:354,1,135,2|0
296,168,106886,6,0,B|472:168,2,135,4|0|8
216,168,108290,2,0,B|56:168,2,135,0|0|8
192,96,109693,2,0,B|192:56|256:14|320:56|320:96,2,180,0|0|2
256,192,111623,1,2
256,304,112149,1,8
296,368,112500,6,0,B|440:368,2,135,0|0|8
216,368,113904,2,0,B|72:368,2,135,0|0|8
256,192,115307,12,4,118114
144,160,126535,5,0
256,56,127237,1,8
368,160,127938,1,8
256,192,128465,1,8
144,160,128991,1,8
144,240,129342,5,0
256,344,130044,1,0
368,240,130746,2,0,B|512:240,2,135,0|0|8
336,304,132149,5,0
176,304,132851,1,0
168,192,133377,2,2,C|256:176|344:192,1,180,2|0
256,264,134605,1,8
216,328,134956,6,0,B|144:344|88:296,2,135,0|0|8
296,328,136360,2,0,B|368:344|424:296,2,135,0|0|8
256,264,137763,1,0
256,192,138114,12,4,140570
336,160,141272,5,0
176,160,141974,1,0
184,48,142500,2,2,C|256:101|328:48,1,180,2|0
296,200,143904,5,0
216,200,144255,1,0
216,280,144605,2,2,B|184:328|256:376|328:328|296:280,2,180,2|2|0
256,160,146535,1,8
200,104,146886,2,0,B|256:38|312:104,1,135
256,248,148114,1,4
256,248,148465,1,4
256,192,148991,12,0,150921
72,192,151798,6,0,B|167:191|208:88,1,180,4|0
256,32,152851,1,8
305,91,153202,2,0,B|344:191|440:192,1,180,0|0
424,272,154255,1,8
346,278,154605,2,0,B|146:278,1,180
88,272,155658,1,8
136,208,156009,5,2
256,208,156535,1,2
376,208,157062,1,8
432,152,157412,6,0,B|392:64|296:40,1,180,4|0
256,104,158465,1,8
213,40,158816,2,0,B|120:64|80:152,1,180,0|0
112,224,159869,1,8
176,272,160219,2,0,B|256:344|336:272,1,180
400,224,161272,1,8
352,160,161623,5,2
256,96,162149,1,2
160,160,162676,1,8
112,224,163027,6,0,B|112:336|208:360,1,180,4|0
256,296,164079,1,8
305,359,164430,2,0,B|400:336|400:224,1,180
368,152,165483,1,8
336,80,165834,2,0,B|272:80|256:112|256:112|240:80|176:80,1,180
144,152,166886,1,8
188,214,167237,6,2,B|332:214,2,135,2|2|8
120,248,168641,6,0,C|128:336|216:328,1,180,4|0
256,264,169693,1,8
296,328,170044,2,0,C|384:336|392:248,1,180,0|0
336,192,171097,1,8
344,112,171448,2,0,B|256:78|168:112,1,180
176,192,172500,1,8
256,208,172851,6,2,B|256:352,1,135,2|0
