osu file format v12

[General]
AudioFilename: Emergence.mp3
AudioLeadIn: 0
PreviewTime: 83684
Countdown: 0
SampleSet: Soft
StackLeniency: 0.7
Mode: 3
LetterboxInBreaks: 0
SpecialStyle: 0
WidescreenStoryboard: 1

[Editor]
Bookmarks: 6315,18947,31578,44210,56842,69473,83684,102631,115263
DistanceSpacing: 1.9
BeatDivisor: 4
GridSize: 4

[Metadata]
Title:Emergence
TitleUnicode:Emergence
Artist:Mirage
ArtistUnicode:Mirage
Creator:Mirage
Version:Lv. 10
Source:
Tags:Maddy Hard Trance Alumetorz Irreversible Leader ExPew
BeatmapID:354378
BeatmapSetID:140609

[Difficulty]
HPDrainRate:7
CircleSize:7
OverallDifficulty:7
ApproachRate:9
SliderMultiplier:1.8
SliderTickRate:1

[Events]
//Background and Video events
0,0,"wallpaper-996797.jpg",0,0
//Break Periods
//Storyboard Layer 0 (Background)
//Storyboard Layer 1 (Fail)
//Storyboard Layer 2 (Pass)
//Storyboard Layer 3 (Foreground)
//Storyboard Sound Samples
//Background Colour Transformations
3,100,0,0,0

[TimingPoints]
15,394.736842105263,4,2,0,50,1,0
83699,-100,4,2,0,50,0,1
102646,-100,4,2,0,50,0,0

[Colours]
Combo1 : 83,100,253
Combo2 : 66,251,140
Combo3 : 119,226,249

[HitObjects]
182,192,6330,1,4,0:2:0:0:
475,192,6330,1,0,1:0:0:0:
329,192,6528,1,0,0:0:0:0:
36,192,6725,1,0,1:0:0:0:
256,192,6725,1,8,0:2:0:0:
109,192,6922,1,0,0:0:0:0:
329,192,7120,1,0,1:0:0:0:
182,192,7317,1,0,0:0:0:0:
256,192,7514,1,8,0:0:0:0:
475,192,7514,1,0,1:0:0:0:
402,192,7712,1,0,0:0:0:0:
182,192,7909,1,0,1:0:0:0:
329,192,8107,1,0,0:0:0:0:
256,192,8304,1,8,0:0:0:0:
36,192,8304,1,0,1:0:0:0:
109,192,8501,1,0,0:0:0:0:
329,192,8699,1,0,1:0:0:0:
182,192,8896,1,0,0:0:0:0:
475,192,9093,1,0,1:0:0:0:
256,192,9093,1,8,0:0:0:0:
402,192,9291,1,0,0:0:0:0:
109,192,9488,1,0,1:0:0:0:
402,192,9686,1,0,0:0:0:0:
329,192,9883,1,8,0:0:0:0:
182,192,9883,1,0,1:0:0:0:
256,192,10080,1,0,0:0:0:0:
402,192,10278,1,0,1:0:0:0:
109,192,10475,1,0,0:0:0:0:
182,192,10672,1,0,1:0:0:0:
329,192,10672,1,8,0:0:0:0:
256,192,10870,1,0,0:0:0:0:
109,192,11067,1,0,1:0:0:0:
402,192,11264,1,0,0:0:0:0:
182,192,11462,1,0,1:0:0:0:
329,192,11462,1,8,0:0:0:0:
256,192,11659,1,0,0:0:0:0:
402,192,11857,1,0,1:0:0:0:
109,192,12054,1,0,0:0:0:0:
182,192,12251,1,0,1:0:0:0:
329,192,12251,1,8,0:0:0:0:
182,192,12449,1,0,1:0:0:0:
402,192,12449,1,0,0:0:0:0:
182,192,12646,1,0,1:0:0:0:
475,192,12646,1,4,0:2:0:0:
329,192,12843,1,0,0:0:0:0:
256,192,13041,1,8,0:0:0:0:
36,192,13041,1,0,1:0:0:0:
109,192,13238,1,0,0:0:0:0:
329,192,13436,1,0,1:0:0:0:
182,192,13633,1,0,0:0:0:0:
475,192,13830,1,0,1:0:0:0:
256,192,13830,1,8,0:0:0:0:
402,192,14028,1,0,0:0:0:0:
182,192,14225,1,0,1:0:0:0:
329,192,14422,1,0,0:0:0:0:
256,192,14620,1,8,0:0:0:0:
36,192,14620,1,0,1:0:0:0:
109,192,14817,1,0,0:0:0:0:
329,192,15014,1,0,1:0:0:0:
182,192,15212,1,0,0:0:0:0:
475,192,15409,1,0,1:0:0:0:
256,192,15409,1,8,0:0:0:0:
402,192,15607,1,0,0:0:0:0:
109,192,15804,1,0,1:0:0:0:
402,192,16001,1,0,0:0:0:0:
329,192,16199,1,8,0:0:0:0:
182,192,16199,1,0,1:0:0:0:
256,192,16396,1,0,0:0:0:0:
402,192,16593,1,0,1:0:0:0:
109,192,16791,1,0,0:0:0:0:
182,192,16988,1,0,1:0:0:0:
329,192,16988,1,8,0:0:0:0:
256,192,17186,1,0,0:0:0:0:
109,192,17383,1,0,1:0:0:0:
402,192,17580,1,0,0:0:0:0:
329,192,17778,1,8,0:0:0:0:
182,192,17778,1,0,1:0:0:0:
256,192,17975,1,0,0:0:0:0:
402,192,18172,1,0,1:0:0:0:
109,192,18370,1,0,0:0:0:0:
182,192,18567,1,8,0:0:0:0:
329,192,18567,1,0,1:0:0:0:
109,192,18764,1,0,0:0:0:0:
329,192,18764,1,0,1:0:0:0:
36,192,18962,1,4,2:0:0:0:
329,192,18962,1,0,1:0:0:0:
109,192,19159,1,0,0:0:0:0:
256,192,19159,1,0,0:0:0:0:
109,192,19357,1,8,0:0:0:0:
256,192,19357,1,0,1:0:0:0:
329,192,19554,128,0,20146:0:0:0:0:
36,192,19554,128,0,20146:0:0:0:0:
182,192,20146,1,8,1:2:0:0:
475,192,20541,1,0,0:0:0:0:
182,192,20541,1,0,1:0:0:0:
256,192,20738,1,0,0:0:0:0:
402,192,20738,1,0,0:0:0:0:
402,192,20936,1,8,0:0:0:0:
256,192,20936,1,0,1:0:0:0:
475,192,21133,128,0,21725:0:0:0:0:
182,192,21133,128,0,21725:0:0:0:0:
329,192,21725,1,8,1:2:0:0:
109,192,22120,1,0,0:0:0:0:
402,192,22120,1,0,1:0:0:0:
329,192,22317,1,0,0:0:0:0:
182,192,22317,1,0,0:0:0:0:
182,192,22514,1,8,0:0:0:0:
329,192,22514,1,0,1:0:0:0:
109,192,22712,128,0,23304:0:0:0:0:
402,192,22712,128,0,23304:0:0:0:0:
256,192,23304,1,8,1:2:0:0:
329,192,23699,1,0,0:0:0:0:
36,192,23699,1,0,1:0:0:0:
182,192,23896,1,0,0:0:0:0:
475,192,23896,1,0,0:0:0:0:
109,192,24093,1,0,1:0:0:0:
402,192,24093,1,8,0:0:0:0:
256,192,24291,128,0,24883:0:0:0:0:
36,192,24291,128,0,24883:0:0:0:0:
475,192,24883,1,8,1:2:0:0:
475,192,25080,1,0,0:0:0:0:
329,192,25278,1,0,1:0:0:0:
36,192,25278,1,0,0:0:0:0:
109,192,25475,1,0,0:0:0:0:
256,192,25475,1,0,0:0:0:0:
256,192,25672,1,0,1:0:0:0:
109,192,25672,1,8,0:0:0:0:
329,192,25870,128,0,26462:0:0:0:0:
36,192,25870,128,0,26462:0:0:0:0:
182,192,26462,1,8,1:2:0:0:
182,192,26857,1,0,1:0:0:0:
475,192,26857,1,0,0:0:0:0:
402,192,27054,1,0,0:0:0:0:
256,192,27054,1,0,0:0:0:0:
402,192,27251,1,8,0:0:0:0:
256,192,27251,1,0,1:0:0:0:
475,192,27449,128,0,28041:0:0:0:0:
182,192,27449,128,0,28041:0:0:0:0:
329,192,28041,1,8,1:2:0:0:
109,192,28436,1,0,0:0:0:0:
402,192,28436,1,0,1:0:0:0:
182,192,28633,1,0,0:0:0:0:
329,192,28633,1,0,0:0:0:0:
182,192,28830,1,8,0:0:0:0:
329,192,28830,1,0,1:0:0:0:
109,192,29028,128,0,29620:0:0:0:0:
402,192,29028,128,0,29620:0:0:0:0:
256,192,29620,1,8,1:2:0:0:
182,192,30014,1,0,1:0:0:0:
475,192,30014,1,0,0:0:0:0:
36,192,30212,1,0,0:0:0:0:
329,192,30212,1,0,0:0:0:0:
109,192,30409,1,0,1:0:0:0:
402,192,30409,1,8,0:0:0:0:
256,192,30607,128,0,31199:0:0:0:0:
475,192,30607,128,0,31199:0:0:0:0:
36,192,31199,1,8,1:2:0:0:
36,192,31396,1,0,1:0:0:0:
36,192,31593,1,0,1:0:0:0:
182,192,31593,1,4,0:2:0:0:
329,192,31791,1,0,0:0:0:0:
475,192,31791,1,0,0:0:0:0:
329,192,31988,1,8,0:0:0:0:
475,192,31988,1,0,1:0:0:0:
36,192,32186,128,0,32778:0:0:0:0:
182,192,32186,128,0,32778:0:0:0:0:
256,192,32778,1,8,1:2:0:0:
329,192,33172,1,0,1:0:0:0:
475,192,33172,1,0,0:0:0:0:
36,192,33370,1,0,0:0:0:0:
182,192,33370,1,0,0:0:0:0:
36,192,33567,1,0,0:0:0:0:
182,192,33567,1,0,1:0:0:0:
329,192,33764,128,0,34357:0:0:0:0:
475,192,33764,128,0,34357:0:0:0:0:
256,192,34357,1,0,1:0:0:0:
402,192,34751,1,0,1:0:0:0:
109,192,34751,1,0,0:0:0:0:
182,192,34949,1,0,0:0:0:0:
329,192,34949,1,0,0:0:0:0:
329,192,35146,1,0,0:0:0:0:
182,192,35146,1,0,1:0:0:0:
402,192,35343,128,0,35936:0:0:0:0:
256,192,35343,128,0,35936:0:0:0:0:
109,192,35936,1,0,1:0:0:0:
109,192,36330,1,0,1:0:0:0:
402,192,36330,1,0,0:0:0:0:
182,192,36528,1,0,0:0:0:0:
329,192,36528,1,0,0:0:0:0:
329,192,36725,1,0,0:0:0:0:
182,192,36725,1,0,1:0:0:0:
256,192,36922,128,0,37514:0:0:0:0:
109,192,36922,128,0,37514:0:0:0:0:
402,192,37514,1,0,1:0:0:0:
109,192,37909,1,0,1:0:0:0:
256,192,38008,1,0,0:0:0:0:
402,192,38107,1,0,0:0:0:0:
36,192,38304,1,0,1:0:0:0:
256,192,38403,1,0,0:0:0:0:
475,192,38501,1,0,0:0:0:0:
109,192,38699,1,0,1:0:0:0:
256,192,38797,1,0,0:0:0:0:
402,192,38896,1,0,0:0:0:0:
36,192,39093,1,0,1:0:0:0:
256,192,39192,1,0,0:0:0:0:
475,192,39291,1,0,0:0:0:0:
109,192,39488,1,0,1:0:0:0:
256,192,39587,1,0,0:0:0:0:
402,192,39686,1,0,0:0:0:0:
36,192,39883,1,0,1:0:0:0:
256,192,39982,1,0,0:0:0:0:
475,192,40080,1,0,0:0:0:0:
109,192,40278,1,0,1:0:0:0:
256,192,40376,1,0,0:0:0:0:
402,192,40475,1,0,0:0:0:0:
36,192,40672,1,0,1:0:0:0:
256,192,40771,1,0,0:0:0:0:
475,192,40870,1,0,0:0:0:0:
329,192,41067,1,0,1:0:0:0:
182,192,41166,1,0,0:0:0:0:
36,192,41264,1,0,0:0:0:0:
475,192,41462,1,0,1:0:0:0:
329,192,41561,1,0,0:0:0:0:
182,192,41659,1,0,0:0:0:0:
329,192,41857,1,0,1:0:0:0:
182,192,41955,1,0,0:0:0:0:
36,192,42054,1,0,0:0:0:0:
475,192,42251,1,0,1:0:0:0:
329,192,42350,1,0,0:0:0:0:
182,192,42449,1,0,0:0:0:0:
329,192,42646,1,0,1:0:0:0:
182,192,42745,1,0,0:0:0:0:
36,192,42843,1,0,0:0:0:0:
475,192,43041,1,0,1:0:0:0:
329,192,43139,1,0,0:0:0:0:
182,192,43238,1,0,0:0:0:0:
36,192,43436,1,0,1:0:0:0:
109,192,43534,1,0,0:0:0:0:
182,192,43633,1,0,0:0:0:0:
475,192,43830,1,0,1:0:0:0:
402,192,43929,1,0,0:0:0:0:
329,192,44028,1,0,0:0:0:0:
256,192,44225,1,0,0:0:0:0:
36,192,44225,1,0,1:0:0:0:
475,192,44225,1,4,0:2:0:0:
182,192,44422,1,0,0:0:0:0:
329,192,44620,1,0,0:0:0:0:
475,192,44817,1,0,0:0:0:0:
329,192,45212,1,0,0:0:0:0:
256,192,45409,1,0,0:0:0:0:
36,192,45804,1,0,0:0:0:0:
182,192,46001,1,0,0:0:0:0:
329,192,46199,1,0,0:0:0:0:
475,192,46396,1,0,0:0:0:0:
329,192,46791,1,0,0:0:0:0:
256,192,46988,1,0,0:0:0:0:
329,192,47383,1,0,0:0:0:0:
329,192,47580,1,0,0:0:0:0:
182,192,47778,1,0,0:0:0:0:
329,192,47975,1,0,0:0:0:0:
182,192,48370,1,0,0:0:0:0:
256,192,48567,1,0,0:0:0:0:
329,192,48962,1,0,0:0:0:0:
329,192,49159,1,0,0:0:0:0:
182,192,49357,1,0,0:0:0:0:
329,192,49554,1,0,0:0:0:0:
182,192,49949,1,0,0:0:0:0:
256,192,50146,1,0,0:0:0:0:
475,192,50541,1,0,0:0:0:0:
475,192,50738,1,0,0:0:0:0:
329,192,50936,1,0,0:0:0:0:
475,192,51133,1,0,0:0:0:0:
256,192,51725,1,0,0:0:0:0:
475,192,52120,1,0,0:0:0:0:
475,192,52317,1,0,0:0:0:0:
329,192,52514,1,0,0:0:0:0:
475,192,52712,1,0,0:0:0:0:
36,192,53699,1,0,0:0:0:0:
36,192,53896,1,0,0:0:0:0:
329,192,54093,1,0,0:0:0:0:
36,192,54291,1,0,0:0:0:0:
36,192,55278,1,0,0:0:0:0:
36,192,55475,1,0,0:0:0:0:
329,192,55672,1,0,0:0:0:0:
36,192,55870,1,0,0:0:0:0:
475,192,56857,1,4,0:2:0:0:
182,192,56857,1,0,0:0:0:0:
256,192,57054,1,0,0:0:0:0:
182,192,57350,1,0,0:0:0:0:
182,192,57646,1,0,0:0:0:0:
182,192,57942,1,0,0:0:0:0:
402,192,58238,1,0,0:0:0:0:
329,192,58633,1,0,0:0:0:0:
256,192,58929,1,0,0:0:0:0:
329,192,59225,1,0,0:0:0:0:
256,192,59521,1,0,0:0:0:0:
402,192,59817,1,0,0:0:0:0:
475,192,60212,1,0,0:0:0:0:
402,192,60508,1,0,0:0:0:0:
329,192,60804,1,0,0:0:0:0:
402,192,61100,1,0,0:0:0:0:
402,192,61396,1,0,0:0:0:0:
109,192,61791,1,0,0:0:0:0:
36,192,62087,1,0,0:0:0:0:
329,192,62383,1,0,0:0:0:0:
256,192,62679,1,0,0:0:0:0:
109,192,62975,1,0,0:0:0:0:
256,192,63370,1,0,0:0:0:0:
182,192,63666,1,0,0:0:0:0:
182,192,63962,1,0,0:0:0:0:
182,192,64258,1,0,0:0:0:0:
402,192,64554,1,0,0:0:0:0:
329,192,64949,1,0,0:0:0:0:
256,192,65245,1,0,0:0:0:0:
329,192,65541,1,0,0:0:0:0:
256,192,65837,1,0,0:0:0:0:
402,192,66133,1,0,0:0:0:0:
475,192,66528,1,0,0:0:0:0:
402,192,66824,1,0,0:0:0:0:
329,192,67120,1,0,0:0:0:0:
402,192,67416,1,0,0:0:0:0:
402,192,67712,1,0,0:0:0:0:
36,192,67909,1,0,0:0:0:0:
182,192,68107,1,0,0:0:0:0:
256,192,68205,1,0,0:0:0:0:
329,192,68304,1,0,0:0:0:0:
182,192,68501,1,0,0:0:0:0:
329,192,68600,1,0,0:0:0:0:
475,192,68699,1,0,0:0:0:0:
256,192,68896,1,0,0:0:0:0:
402,192,68995,1,0,0:0:0:0:
256,192,69192,1,0,0:0:0:0:
182,192,69291,1,0,0:0:0:0:
109,192,69389,1,0,0:0:0:0:
36,192,69488,1,0,0:0:0:0:
329,192,69488,1,4,1:2:0:0:
109,192,69686,1,0,0:0:0:0:
256,192,69784,1,0,0:0:0:0:
402,192,69883,1,0,0:0:0:0:
329,192,70080,1,0,0:0:0:0:
182,192,70179,1,0,0:0:0:0:
36,192,70278,1,0,0:0:0:0:
256,192,70475,1,0,0:0:0:0:
475,192,70574,1,0,0:0:0:0:
256,192,70771,1,0,0:0:0:0:
329,192,70870,1,0,0:0:0:0:
402,192,70968,1,0,0:0:0:0:
475,192,71067,1,0,0:0:0:0:
109,192,71264,1,0,0:0:0:0:
256,192,71363,1,0,0:0:0:0:
402,192,71462,1,0,0:0:0:0:
36,192,71659,1,0,0:0:0:0:
256,192,71758,1,0,0:0:0:0:
475,192,71857,1,0,0:0:0:0:
109,192,72054,1,0,0:0:0:0:
402,192,72153,1,0,0:0:0:0:
182,192,72350,1,0,0:0:0:0:
256,192,72449,1,0,0:0:0:0:
329,192,72547,1,0,0:0:0:0:
402,192,72646,1,0,0:0:0:0:
182,192,72843,1,0,0:0:0:0:
109,192,72942,1,0,0:0:0:0:
36,192,73041,1,0,0:0:0:0:
402,192,73238,1,0,0:0:0:0:
256,192,73337,1,0,0:0:0:0:
109,192,73436,1,0,0:0:0:0:
182,192,73633,1,0,0:0:0:0:
329,192,73732,1,0,0:0:0:0:
402,192,73929,1,0,0:0:0:0:
256,192,74028,1,0,0:0:0:0:
109,192,74126,1,0,0:0:0:0:
36,192,74225,1,0,0:0:0:0:
182,192,74422,1,0,0:0:0:0:
329,192,74521,1,0,0:0:0:0:
475,192,74620,1,0,0:0:0:0:
109,192,74817,1,0,0:0:0:0:
256,192,74916,1,0,0:0:0:0:
402,192,75014,1,0,0:0:0:0:
36,192,75212,1,0,0:0:0:0:
182,192,75311,1,0,0:0:0:0:
329,192,75409,1,4,1:2:0:0:
329,192,75607,1,4,1:2:0:0:
182,192,75607,1,0,0:0:0:0:
109,192,75705,1,0,0:0:0:0:
36,192,75804,1,0,0:0:0:0:
329,192,75804,1,4,1:2:0:0:
109,192,76002,1,0,0:0:0:0:
256,192,76100,1,0,0:0:0:0:
402,192,76199,1,0,0:0:0:0:
329,192,76396,1,0,0:0:0:0:
182,192,76495,1,0,0:0:0:0:
36,192,76594,1,0,0:0:0:0:
256,192,76791,1,0,0:0:0:0:
475,192,76890,1,0,0:0:0:0:
256,192,77087,1,0,0:0:0:0:
329,192,77186,1,0,0:0:0:0:
402,192,77284,1,0,0:0:0:0:
475,192,77383,1,0,0:0:0:0:
182,192,77383,1,4,0:2:0:0:
109,192,77580,1,0,0:0:0:0:
256,192,77679,1,0,0:0:0:0:
402,192,77778,1,0,0:0:0:0:
36,192,77975,1,0,0:0:0:0:
256,192,78074,1,0,0:0:0:0:
475,192,78173,1,0,0:0:0:0:
109,192,78370,1,0,0:0:0:0:
402,192,78469,1,0,0:0:0:0:
182,192,78666,1,0,0:0:0:0:
256,192,78765,1,0,0:0:0:0:
329,192,78863,1,0,0:0:0:0:
402,192,78962,1,0,0:2:0:0:
109,192,78962,1,4,1:2:0:0:
182,192,79159,1,0,0:0:0:0:
109,192,79258,1,0,0:0:0:0:
36,192,79357,1,0,0:0:0:0:
402,192,79554,1,0,0:0:0:0:
256,192,79653,1,0,0:0:0:0:
402,192,79751,1,0,0:0:0:0:
109,192,79752,1,4,1:2:0:0:
182,192,79949,1,0,0:0:0:0:
329,192,80048,1,0,0:0:0:0:
402,192,80245,1,0,0:0:0:0:
256,192,80344,1,0,0:0:0:0:
109,192,80442,1,0,0:0:0:0:
36,192,80541,1,0,0:0:0:0:
329,192,80541,1,4,1:2:0:0:
182,192,80738,1,0,0:0:0:0:
329,192,80837,1,0,0:0:0:0:
475,192,80936,1,4,1:2:0:0:
36,192,80936,1,0,0:0:0:0:
109,192,81133,1,0,0:0:0:0:
256,192,81232,1,0,0:0:0:0:
402,192,81330,1,4,1:2:0:0:
36,192,81330,1,0,0:0:0:0:
36,192,81528,1,0,0:0:0:0:
329,192,81528,1,4,1:2:0:0:
182,192,81627,1,0,0:0:0:0:
329,192,81725,1,4,1:2:0:0:
182,192,81923,1,0,0:0:0:0:
329,192,81923,1,4,1:2:0:0:
109,192,82021,1,0,0:0:0:0:
329,192,82120,128,0,83699:0:0:0:0:
36,192,82120,128,0,83699:0:0:0:0:
475,192,83699,1,0,0:0:0:0:
182,192,83896,1,0,0:0:0:0:
36,192,84093,1,0,0:0:0:0:
329,192,84093,1,0,0:0:0:0:
182,192,84291,1,0,0:0:0:0:
402,192,84488,1,0,0:0:0:0:
109,192,84488,1,0,0:0:0:0:
329,192,84686,1,0,0:0:0:0:
475,192,84883,1,0,0:0:0:0:
182,192,84883,1,0,0:0:0:0:
36,192,85080,1,0,0:0:0:0:
109,192,85179,1,0,0:0:0:0:
475,192,85278,1,0,0:0:0:0:
182,192,85278,1,0,0:0:0:0:
36,192,85475,1,0,0:0:0:0:
182,192,85672,1,0,0:0:0:0:
329,192,85672,1,0,0:0:0:0:
109,192,85870,1,0,0:0:0:0:
475,192,86067,1,0,0:0:0:0:
182,192,86067,1,0,0:0:0:0:
256,192,86264,1,0,0:0:0:0:
475,192,86462,1,0,0:0:0:0:
36,192,86462,1,0,0:0:0:0:
329,192,86659,1,0,0:0:0:0:
402,192,86758,1,0,0:0:0:0:
475,192,86857,1,0,0:0:0:0:
182,192,86857,1,0,0:0:0:0:
402,192,87054,1,0,0:0:0:0:
256,192,87251,1,0,0:0:0:0:
109,192,87251,1,0,0:0:0:0:
475,192,87449,1,0,0:0:0:0:
109,192,87646,1,0,0:0:0:0:
402,192,87646,1,0,0:0:0:0:
182,192,87843,1,0,0:0:0:0:
475,192,88041,1,0,0:0:0:0:
256,192,88041,1,0,0:0:0:0:
329,192,88238,1,0,0:0:0:0:
256,192,88337,1,0,0:0:0:0:
182,192,88436,1,0,0:0:0:0:
36,192,88436,1,0,0:0:0:0:
329,192,88633,1,0,0:0:0:0:
109,192,88830,1,0,0:0:0:0:
329,192,88830,1,0,0:0:0:0:
182,192,89028,1,0,0:0:0:0:
329,192,89126,1,0,0:0:0:0:
475,192,89225,1,0,0:0:0:0:
36,192,89225,1,0,0:0:0:0:
256,192,89422,1,0,0:0:0:0:
402,192,89521,1,0,0:0:0:0:
475,192,89620,1,0,0:0:0:0:
402,192,89718,1,0,0:0:0:0:
329,192,89817,1,0,0:0:0:0:
182,192,89817,1,0,0:0:0:0:
109,192,89916,1,0,0:0:0:0:
36,192,90014,1,0,0:0:0:0:
475,192,90014,1,0,0:0:0:0:
182,192,90212,1,0,0:0:0:0:
36,192,90409,1,0,0:0:0:0:
329,192,90409,1,0,0:0:0:0:
182,192,90607,1,0,0:0:0:0:
402,192,90804,1,0,0:0:0:0:
109,192,90804,1,0,0:0:0:0:
329,192,91002,1,0,0:0:0:0:
475,192,91199,1,0,0:0:0:0:
182,192,91199,1,0,0:0:0:0:
36,192,91396,1,0,0:0:0:0:
109,192,91495,1,0,0:0:0:0:
475,192,91594,1,0,0:0:0:0:
182,192,91594,1,0,0:0:0:0:
36,192,91791,1,0,0:0:0:0:
182,192,91988,1,0,0:0:0:0:
329,192,91988,1,0,0:0:0:0:
109,192,92186,1,0,0:0:0:0:
475,192,92383,1,0,0:0:0:0:
182,192,92383,1,0,0:0:0:0:
256,192,92580,1,0,0:0:0:0:
475,192,92778,1,0,0:0:0:0:
36,192,92778,1,0,0:0:0:0:
329,192,92975,1,0,0:0:0:0:
402,192,93074,1,0,0:0:0:0:
475,192,93173,1,0,0:0:0:0:
182,192,93173,1,0,0:0:0:0:
402,192,93370,1,0,0:0:0:0:
109,192,93567,1,0,0:0:0:0:
256,192,93567,1,0,0:0:0:0:
475,192,93765,1,0,0:0:0:0:
109,192,93962,1,0,0:0:0:0:
402,192,93962,1,0,0:0:0:0:
182,192,94159,1,0,0:0:0:0:
475,192,94357,1,0,0:0:0:0:
256,192,94357,1,0,0:0:0:0:
329,192,94554,1,0,0:0:0:0:
256,192,94653,1,0,0:0:0:0:
36,192,94752,1,0,0:0:0:0:
182,192,94752,1,0,0:0:0:0:
329,192,94949,1,0,0:0:0:0:
329,192,95146,1,0,0:0:0:0:
109,192,95146,1,0,0:0:0:0:
182,192,95344,1,0,0:0:0:0:
329,192,95442,1,0,0:0:0:0:
475,192,95541,1,0,0:0:0:0:
36,192,95541,1,0,0:0:0:0:
256,192,95738,1,0,0:0:0:0:
475,192,95936,1,0,0:0:0:0:
402,192,96034,1,0,0:0:0:0:
182,192,96133,1,0,0:0:0:0:
329,192,96133,1,0,0:0:0:0:
109,192,96232,1,0,0:0:0:0:
36,192,96330,1,0,0:0:0:0:
475,192,96330,1,0,0:0:0:0:
182,192,96528,1,0,0:0:0:0:
329,192,96725,1,0,0:0:0:0:
36,192,96725,1,0,0:0:0:0:
182,192,96923,1,0,0:0:0:0:
109,192,97120,1,0,0:0:0:0:
402,192,97120,1,0,0:0:0:0:
329,192,97318,1,0,0:0:0:0:
182,192,97515,1,0,0:0:0:0:
475,192,97515,1,0,0:0:0:0:
36,192,97712,1,0,0:0:0:0:
109,192,97811,1,0,0:0:0:0:
182,192,97910,1,0,0:0:0:0:
475,192,97910,1,0,0:0:0:0:
36,192,98107,1,0,0:0:0:0:
329,192,98304,1,0,0:0:0:0:
182,192,98304,1,0,0:0:0:0:
109,192,98502,1,0,0:0:0:0:
182,192,98699,1,0,0:0:0:0:
475,192,98699,1,0,0:0:0:0:
256,192,98896,1,0,0:0:0:0:
36,192,99094,1,0,0:0:0:0:
475,192,99094,1,0,0:0:0:0:
329,192,99291,1,0,0:0:0:0:
402,192,99390,1,0,0:0:0:0:
182,192,99489,1,0,0:0:0:0:
475,192,99489,1,0,0:0:0:0:
402,192,99686,1,0,0:0:0:0:
256,192,99883,1,0,0:0:0:0:
109,192,99883,1,0,0:0:0:0:
475,192,100081,1,0,0:0:0:0:
402,192,100278,1,0,0:0:0:0:
109,192,100278,1,0,0:0:0:0:
182,192,100475,1,0,0:0:0:0:
475,192,100673,1,0,0:0:0:0:
329,192,100870,1,0,0:0:0:0:
256,192,100969,1,0,0:0:0:0:
182,192,101068,1,0,0:0:0:0:
36,192,101068,1,0,0:0:0:0:
329,192,101265,1,0,0:0:0:0:
109,192,101462,1,0,0:0:0:0:
329,192,101462,1,0,0:0:0:0:
329,192,101659,1,0,0:0:0:0:
402,192,101758,1,0,0:0:0:0:
36,192,101857,1,0,0:0:0:0:
475,192,101857,1,0,0:0:0:0:
109,192,102054,1,0,0:0:0:0:
402,192,102153,1,0,0:0:0:0:
475,192,102252,1,0,0:0:0:0:
475,192,102449,1,0,0:0:0:0:
182,192,102449,1,0,0:0:0:0:
109,192,102548,1,0,0:0:0:0:
475,192,102646,1,0,0:0:0:0:
36,192,102646,1,0,0:0:0:0:
109,192,102843,1,0,0:0:0:0:
402,192,103040,1,0,0:0:0:0:
182,192,103041,1,0,0:0:0:0:
329,192,103237,1,0,0:0:0:0:
36,192,103435,1,0,0:0:0:0:
475,192,103436,1,0,0:0:0:0:
256,192,103632,1,0,0:0:0:0:
402,192,103732,1,0,0:0:0:0:
475,192,103830,1,0,0:0:0:0:
256,192,103928,1,0,0:0:0:0:
329,192,104027,1,0,0:0:0:0:
402,192,104125,1,0,0:0:0:0:
475,192,104224,1,0,0:0:0:0:
182,192,104225,1,0,0:0:0:0:
109,192,104421,1,0,0:0:0:0:
402,192,104619,1,0,0:0:0:0:
182,192,104620,1,0,0:0:0:0:
36,192,104816,1,0,0:0:0:0:
475,192,105014,1,0,0:0:0:0:
182,192,105014,1,0,0:0:0:0:
109,192,105211,1,0,0:0:0:0:
402,192,105310,1,0,0:0:0:0:
475,192,105409,1,0,0:0:0:0:
182,192,105507,1,0,0:0:0:0:
256,192,105606,1,0,0:0:0:0:
329,192,105704,1,0,0:0:0:0:
402,192,105803,1,0,0:0:0:0:
109,192,105804,1,0,0:0:0:0:
182,192,106000,1,0,0:0:0:0:
36,192,106198,1,0,0:0:0:0:
329,192,106199,1,0,0:0:0:0:
402,192,106395,1,0,0:0:0:0:
109,192,106593,1,0,0:0:0:0:
329,192,106593,1,0,0:0:0:0:
182,192,106790,1,0,0:0:0:0:
329,192,106889,1,0,0:0:0:0:
475,192,106988,1,0,0:0:0:0:
402,192,107086,1,0,0:0:0:0:
256,192,107185,1,0,0:0:0:0:
109,192,107283,1,0,0:0:0:0:
36,192,107382,1,0,0:0:0:0:
329,192,107383,1,0,0:0:0:0:
182,192,107579,1,0,0:0:0:0:
475,192,107777,1,0,0:0:0:0:
256,192,107778,1,0,0:0:0:0:
36,192,107975,1,0,0:0:0:0:
109,192,108074,1,0,0:0:0:0:
402,192,108171,1,0,0:0:0:0:
182,192,108172,1,0,0:0:0:0:
36,192,108369,1,0,0:0:0:0:
182,192,108468,1,0,0:0:0:0:
329,192,108566,1,0,0:0:0:0:
475,192,108567,1,0,0:0:0:0:
182,192,108764,1,0,0:0:0:0:
402,192,108764,1,0,0:0:0:0:
109,192,108862,1,0,0:0:0:0:
329,192,108961,1,0,0:0:0:0:
36,192,108961,1,0,0:0:0:0:
109,192,109159,1,0,0:0:0:0:
402,192,109356,1,0,0:0:0:0:
182,192,109357,1,0,0:0:0:0:
329,192,109553,1,0,0:0:0:0:
36,192,109751,1,0,0:0:0:0:
475,192,109751,1,0,0:0:0:0:
256,192,109948,1,0,0:0:0:0:
402,192,110047,1,0,0:0:0:0:
475,192,110146,1,0,0:0:0:0:
256,192,110244,1,0,0:0:0:0:
329,192,110343,1,0,0:0:0:0:
402,192,110441,1,0,0:0:0:0:
475,192,110540,1,0,0:0:0:0:
182,192,110541,1,0,0:0:0:0:
109,192,110737,1,0,0:0:0:0:
402,192,110935,1,0,0:0:0:0:
182,192,110936,1,0,0:0:0:0:
36,192,111132,1,0,0:0:0:0:
475,192,111330,1,0,0:0:0:0:
182,192,111330,1,0,0:0:0:0:
109,192,111527,1,0,0:0:0:0:
402,192,111626,1,0,0:0:0:0:
475,192,111725,1,0,0:0:0:0:
182,192,111823,1,0,0:0:0:0:
256,192,111922,1,0,0:0:0:0:
329,192,112020,1,0,0:0:0:0:
402,192,112119,1,0,0:0:0:0:
109,192,112120,1,0,0:0:0:0:
182,192,112316,1,0,0:0:0:0:
36,192,112514,1,0,0:0:0:0:
329,192,112514,1,0,0:0:0:0:
402,192,112711,1,0,0:0:0:0:
109,192,112909,1,0,0:0:0:0:
329,192,112909,1,0,0:0:0:0:
182,192,113106,1,0,0:0:0:0:
329,192,113205,1,0,0:0:0:0:
475,192,113304,1,0,0:0:0:0:
402,192,113402,1,0,0:0:0:0:
256,192,113501,1,0,0:0:0:0:
109,192,113599,1,0,0:0:0:0:
36,192,113698,1,0,0:0:0:0:
329,192,113699,1,0,0:0:0:0:
182,192,113895,1,0,0:0:0:0:
475,192,114093,1,0,0:0:0:0:
256,192,114093,1,0,0:0:0:0:
36,192,114291,1,0,0:0:0:0:
109,192,114389,1,0,0:0:0:0:
402,192,114487,1,0,0:0:0:0:
182,192,114488,1,0,0:0:0:0:
36,192,114685,1,0,0:0:0:0:
182,192,114784,1,0,0:0:0:0:
329,192,114882,1,0,0:0:0:0:
475,192,114883,1,0,0:0:0:0:
182,192,115080,1,0,0:0:0:0:
402,192,115080,1,0,0:0:0:0:
109,192,115178,1,0,0:0:0:0:
36,192,115277,1,0,0:0:0:0:
329,192,115277,1,0,0:0:0:0:
109,192,115475,1,0,0:0:0:0:
182,192,115870,1,0,0:0:0:0:
256,192,116264,1,0,0:0:0:0:
182,192,116659,1,0,0:0:0:0:
109,192,117054,1,0,0:0:0:0:
36,192,117449,1,0,0:0:0:0:
109,192,117843,1,0,0:0:0:0:
182,192,118238,1,0,0:0:0:0:
475,192,118633,1,0,0:0:0:0:
402,192,119028,1,0,0:0:0:0:
329,192,119422,1,0,0:0:0:0:
256,192,119817,1,0,0:0:0:0:
329,192,120212,1,0,0:0:0:0:
402,192,120607,1,0,0:0:0:0:
475,192,121001,1,0,0:0:0:0:
402,192,121396,1,0,0:0:0:0:
256,192,121791,1,0,0:0:0:0:
182,192,122087,1,0,0:0:0:0:
182,192,122383,1,0,0:0:0:0:
182,192,122679,1,0,0:0:0:0:
402,192,122975,1,0,0:0:0:0:
329,192,123370,1,0,0:0:0:0:
256,192,123666,1,0,0:0:0:0:
329,192,123962,1,0,0:0:0:0:
256,192,124258,1,0,0:0:0:0:
402,192,124554,1,0,0:0:0:0:
475,192,124949,1,0,0:0:0:0:
402,192,125245,1,0,0:0:0:0:
329,192,125541,1,0,0:0:0:0:
402,192,125837,1,0,0:0:0:0:
402,192,126133,1,0,0:0:0:0:
109,192,126528,1,0,0:0:0:0:
36,192,126824,1,0,0:0:0:0:
329,192,127120,1,0,0:0:0:0:
256,192,127416,1,0,0:0:0:0:
109,192,127712,1,0,0:0:0:0:
256,192,128107,1,0,0:0:0:0:
182,192,128403,1,0,0:0:0:0:
182,192,128699,1,0,0:0:0:0:
182,192,128995,1,0,0:0:0:0:
402,192,129291,1,0,0:0:0:0:
329,192,129686,1,0,0:0:0:0:
256,192,129982,1,0,0:0:0:0:
329,192,130278,1,0,0:0:0:0:
256,192,130574,1,0,0:0:0:0:
402,192,130870,1,0,0:0:0:0:
475,192,131265,1,0,0:0:0:0:
402,192,131561,1,0,0:0:0:0:
329,192,131857,1,0,0:0:0:0:
402,192,132153,1,0,0:0:0:0:
402,192,132449,1,0,0:0:0:0:
109,192,132844,1,0,0:0:0:0:
36,192,133140,1,0,0:0:0:0:
329,192,133436,1,0,0:0:0:0:
256,192,133732,1,0,0:0:0:0:
109,192,134028,1,0,0:0:0:0:
