osu file format v12

[General]
AudioFilename: 1.mp3
AudioLeadIn: 2500
PreviewTime: 57778
Countdown: 0
SampleSet: Normal
StackLeniency: 0.7
Mode: 0
LetterboxInBreaks: 0

[Editor]
Bookmarks: 48203,57808,67403,77003,89903,105803,115408,125008,143908,158608,163408
DistanceSpacing: 1.2
BeatDivisor: 4
GridSize: 4

[Metadata]
Title:Shura no Niwa
TitleUnicode:修羅ノ庭
Artist:MinusP
ArtistUnicode:マイナスP
Creator:wantuole
Version:Insane
Source:
Tags:vocaloid vocaloid2 Kagamine Rin Len Left_4_Dead wonderful opportunity! vol.2
BeatmapID:262126
BeatmapSetID:98233

[Difficulty]
HPDrainRate:6
CircleSize:4
OverallDifficulty:7
ApproachRate:9
SliderMultiplier:1.92
SliderTickRate:2

[Events]
//Background and Video events
0,0,"bg.jpg",0,0
//Break Periods
//Storyboard Layer 0 (Background)
//Storyboard Layer 1 (Fail)
//Storyboard Layer 2 (Pass)
//Storyboard Layer 3 (Foreground)
//Storyboard Sound Samples
//Background Colour Transformations
3,100,163,162,255

[TimingPoints]
178,300,4,1,2,38,1,0
6178,-200,4,1,2,38,0,0
6253,-200,4,1,2,5,0,0
6703,-200,4,1,2,39,0,0
9628,-100,4,1,1,55,0,0
19378,-100,4,1,0,55,0,0
19453,-100,4,1,1,55,0,0
28978,-100,4,1,0,55,0,0
29053,-100,4,1,1,55,0,0
38578,-100,4,1,0,55,0,0
38653,-100,4,1,1,55,0,0
48178,-100,4,1,0,55,0,0
48253,-100,4,1,1,55,0,0
62578,-100,4,1,0,55,0,0
62653,-100,4,1,1,55,0,0
76978,-100,4,1,0,55,0,1
77053,-100,4,1,1,55,0,0
81778,-100,4,1,0,55,0,0
81853,-100,4,1,1,55,0,0
86578,-100,4,1,0,55,0,0
86653,-100,4,1,1,55,0,0
91528,-100,4,1,0,55,0,0
91603,-100,4,1,1,55,0,0
96178,-100,4,1,0,55,0,1
96253,-100,4,1,1,55,0,0
100978,-100,4,1,0,55,0,0
101053,-100,4,1,1,55,0,0
105778,-100,4,1,0,55,0,0
105853,-100,4,1,1,55,0,0
110578,-100,4,1,0,55,0,0
110653,-100,4,1,1,55,0,0

[Colours]
Combo1 : 101,84,197
Combo2 : 243,54,33
Combo3 : 241,138,35

[HitObjects]
88,104,178,1,0,0:0:0:0:
88,104,778,1,2,0:0:0:0:
80,232,1078,1,0,2:0:0:0:
196,176,1378,1,0,0:0:0:0:
440,176,1978,1,0,2:0:0:0:
321,125,2278,1,0,0:0:0:0:
352,336,2878,5,0,0:0:0:0:
304,248,3178,1,2,0:0:0:0:
208,248,3478,1,0,2:0:0:0:
160,336,3778,1,0,0:0:0:0:
456,344,4378,1,0,0:0:0:0:
56,344,4978,5,2,0:0:0:0:
56,344,5578,1,0,0:0:0:0:
168,192,5878,1,0,0:0:0:0:
346,191,6178,2,0,B|256:156|256:156|168:192,1,192
456,40,7378,5,0,0:0:0:0:
456,40,7978,1,2,2:0:0:0:
425,76,8128,1,0,2:0:0:0:
419,123,8278,1,2,2:0:0:0:
440,165,8428,1,0,2:0:0:0:
481,189,8578,1,0,0:0:0:0:
96,288,9628,5,0,0:0:0:0:
96,288,9703,1,0,0:0:0:0:
96,288,9778,2,0,P|184:272|248:296,1,144,2|0,0:0|0:0,0:0:0:0:
320,340,10078,2,0,P|336:292|327:244,1,96,8|0,0:0|0:0,0:0:0:0:
316,148,10378,1,0,0:0:0:0:
40,160,10678,6,0,L|48:56,1,96,8|0,0:0|0:0,0:0:0:0:
160,8,10978,1,2,0:0:0:0:
248,104,11128,1,0,0:0:0:0:
376,48,11278,2,0,L|496:32,1,96,8|0,0:0|0:0,0:0:0:0:
488,300,11578,2,0,L|392:312,1,96
264,208,11878,2,0,P|302:185|454:206,1,192,8|2,0:0|0:0,0:0:0:0:
180,284,12328,5,0,0:0:0:0:
180,284,12403,1,0,0:0:0:0:
180,284,12478,2,0,L|164:184,1,96,8|0,0:0|0:0,0:0:0:0:
248,104,12778,1,0,0:0:0:0:
96,352,13078,6,0,P|16:352|-32:384,1,96,8|0,0:0|0:0,0:0:0:0:
264,208,13378,2,0,P|344:208|392:176,1,96,2|0,0:0|0:0,0:0:0:0:
408,108,13678,1,8,0:0:0:0:
396,4,13828,1,0,0:0:0:0:
312,64,13978,2,0,P|296:160|360:248,1,192,0|8,0:0|0:0,0:0:0:0:
128,248,14578,6,0,P|144:152|80:64,1,192,2|8,0:0|0:0,0:0:0:0:
36,244,15028,1,0,0:0:0:0:
196,324,15178,1,0,0:0:0:0:
328,96,15478,6,0,P|364:61|422:45,1,96,8|0,0:0|0:0,0:0:0:0:
476,216,15778,2,0,P|434:222|382:212,1,96,2|0,0:0|0:0,0:0:0:0:
236,99,16078,2,0,P|284:87|342:102,1,96,8|0,0:0|0:0,0:0:0:0:
264,272,16378,2,0,P|224:257|184:221,1,96
20,184,16678,2,0,P|84:241|109:342,1,192,8|2,0:0|0:0,0:0:0:0:
72,80,17278,5,8,0:0:0:0:
188,48,17428,1,0,0:0:0:0:
288,108,17578,2,0,P|328:124|412:108,1,96
408,108,17803,1,0,0:0:0:0:
416,140,17878,2,0,L|436:248,1,96,8|0,0:0|0:0,0:0:0:0:
264,272,18178,5,2,0:0:0:0:
160,224,18328,1,8,0:0:0:0:
249,151,18478,1,8,0:0:0:0:
320,280,18628,2,0,P|280:336|232:352,1,96,0|0,0:0|0:0,0:0:0:0:
35,338,18928,2,0,B|67:346|67:346|91:250|160:224,1,192,8|0,0:0|0:0,0:0:0:0:
256,192,19303,1,0,0:0:0:0:
256,192,19378,6,0,P|304:184|376:200,1,96,4|0,0:0|0:0,0:0:0:0:
448,232,19678,1,8,0:0:0:0:
360,296,19828,1,0,0:0:0:0:
120,336,19978,2,0,P|104:296|112:224,1,96
168,176,20278,1,8,0:0:0:0:
208,260,20428,1,0,0:0:0:0:
256,344,20578,5,2,0:0:0:0:
296,216,20728,1,0,0:0:0:0:
256,344,20878,1,8,0:0:0:0:
296,216,21028,1,0,0:0:0:0:
408,232,21178,2,0,P|385:277|380:336,1,96
137,265,21478,2,0,P|159:219|168:176,1,96,8|0,0:0|0:0,0:0:0:0:
164,92,21703,1,0,0:0:0:0:
164,92,21778,6,0,P|230:191|311:219,1,192,2|8,0:0|0:0,0:0:0:0:
380,168,22228,1,0,0:0:0:0:
380,64,22378,2,0,P|340:72|284:112,1,96
128,160,22678,2,0,P|111:97|81:56,1,96,8|0,0:0|0:0,0:0:0:0:
80,240,22978,5,2,0:0:0:0:
160,288,23128,1,0,0:0:0:0:
232,240,23278,2,0,P|304:232|344:256,1,96,8|0,0:0|0:0,0:0:0:0:
160,376,23578,1,0,0:0:0:0:
232,240,23728,1,0,0:0:0:0:
352,320,23878,2,0,P|423:309|456:275,1,96,8|0,0:0|0:0,0:0:0:0:
448,216,24103,1,0,0:0:0:0:
448,216,24178,6,0,P|374:142|363:18,1,192,2|8,0:0|0:0,0:0:0:0:
184,96,24628,2,0,L|48:84,1,96,0|0,0:0|0:0,0:0:0:0:
24,312,25078,1,8,0:0:0:0:
120,324,25228,1,0,0:0:0:0:
159,230,25378,6,0,L|64:224,1,96,2|0,0:0|0:0,0:0:0:0:
244,206,25678,2,0,P|292:190|339:212,1,96,8|0,0:0|0:0,0:0:0:0:
160,319,25978,1,0,0:0:0:0:
285,276,26128,1,0,0:0:0:0:
240,344,26278,1,8,0:0:0:0:
376,264,26428,1,0,0:0:0:0:
240,344,26578,6,0,P|232:240|232:120,1,192,2|8,0:0|0:0,0:0:0:0:
160,204,26953,1,0,0:0:0:0:
160,204,27028,2,0,P|104:212|40:208,1,96,0|0,0:0|0:0,0:0:0:0:
352,32,27478,2,0,P|392:28|456:32,1,96,8|0,0:0|0:0,0:0:0:0:
264,64,27778,5,2,0:0:0:0:
396,184,27928,2,0,P|444:188|500:188,1,96,8|8,0:0|0:0,0:0:0:0:
304,144,28228,2,0,B|256:168|208:136|208:136|152:104|84:140,1,192,0|8,0:0|0:0,0:0:0:0:
8,296,28978,6,0,P|76:272|172:292,1,144,4|0,0:0|0:0,0:0:0:0:
166,299,29278,2,0,L|160:204,1,96,8|0,0:0|0:0,0:0:0:0:
288,248,29578,2,0,L|280:364,1,96
416,248,29878,1,8,0:0:0:0:
484,160,30028,1,0,0:0:0:0:
484,160,30103,1,0,0:0:0:0:
484,160,30178,6,0,L|360:172,1,96,2|0,0:0|0:0,0:0:0:0:
216,44,30478,2,0,L|340:72,1,96,8|0,0:0|0:0,0:0:0:0:
324,176,30778,1,0,0:0:0:0:
204,188,30928,1,0,0:0:0:0:
176,176,31003,1,0,0:0:0:0:
160,152,31078,1,8,0:0:0:0:
92,56,31228,1,0,0:0:0:0:
104,232,31378,6,0,P|92:299|64:351,1,96,2|0,0:0|0:0,0:0:0:0:
284,252,31678,2,0,P|248:194|200:157,1,96,8|0,0:0|0:0,0:0:0:0:
340,344,31978,2,0,P|407:341|452:295,1,96,0|0,0:0|0:0,0:0:0:0:
456,308,32203,1,0,0:0:0:0:
452,276,32278,2,0,L|436:180,1,96,8|0,0:0|0:0,0:0:0:0:
424,56,32578,6,0,P|368:76|292:68,1,96,2|0,0:0|0:0,0:0:0:0:
204,48,32878,2,0,L|208:156,1,96,8|0,0:0|0:0,0:0:0:0:
124,208,33178,2,0,P|180:180|288:184,1,144
380,244,33478,2,0,P|318:256|249:237,1,96,8|0,0:0|0:0,0:0:0:0:
28,320,33778,5,2,0:0:0:0:
232,208,33928,1,0,0:0:0:0:
232,208,34003,1,0,0:0:0:0:
232,208,34078,2,0,P|232:156|213:93,1,96,8|0,0:0|0:0,0:0:0:0:
28,320,34378,1,0,0:0:0:0:
124,208,34528,2,0,P|124:252|132:303,1,96,0|8,0:0|0:0,0:0:0:0:
320,348,34828,1,0,0:0:0:0:
320,348,34903,1,0,0:0:0:0:
320,348,34978,6,0,P|316:288|300:232,1,96,2|0,0:0|0:0,0:0:0:0:
296,160,35278,2,0,L|420:168,1,96,8|0,0:0|0:0,0:0:0:0:
228,304,35578,2,0,P|156:312|80:304,1,144
56,320,35878,2,0,L|48:200,1,96,8|0,0:0|0:0,0:0:0:0:
152,192,36178,5,2,0:0:0:0:
152,192,36328,2,0,P|140:140|136:84,1,96,0|8,0:0|0:0,0:0:0:0:
240,20,36628,1,0,0:0:0:0:
272,220,36778,2,0,P|272:272|268:324,1,96,0|0,0:0|0:0,0:0:0:0:
352,144,37078,2,0,P|388:136|452:128,1,96,8|0,0:0|0:0,0:0:0:0:
105,112,37378,6,0,L|200:115,1,96,2|8,0:0|0:0,0:0:0:0:
248,116,37603,1,0,0:0:0:0:
248,116,37678,2,0,P|245:60|237:-12,1,96,8|0,0:0|0:0,0:0:0:0:
32,312,38128,2,0,B|96:320|150:300|150:300|212:280|292:296,1,240,8|0,0:0|0:0,0:0:0:0:
304,316,38578,6,0,P|304:264|312:208,1,96,4|0,0:0|0:0,0:0:0:0:
396,172,38878,1,8,0:0:0:0:
460,24,39028,1,0,0:0:0:0:
460,24,39103,1,0,0:0:0:0:
460,24,39178,2,0,L|476:132,1,96
288,168,39478,2,0,P|276:120|272:60,1,96,8|0,0:0|0:0,0:0:0:0:
400,248,39778,6,0,P|360:276|260:288,1,144,2|0,0:0|0:0,0:0:0:0:
220,272,40078,2,0,P|206:217|208:164,1,96,8|0,0:0|0:0,0:0:0:0:
104,128,40378,2,0,P|48:128|-20:136,1,96,0|0,0:0|0:0,0:0:0:0:
156,32,40678,2,0,P|212:32|280:24,1,96,8|0,0:0|0:0,0:0:0:0:
452,128,40978,6,0,P|396:128|328:136,1,96,2|0,0:0|0:0,0:0:0:0:
288,168,41203,1,0,0:0:0:0:
288,168,41278,2,0,L|304:280,1,96,8|0,0:0|0:0,0:0:0:0:
156,136,41578,2,0,P|168:216|168:292,1,144
144,348,41878,2,0,L|44:360,1,96,8|0,0:0|0:0,0:0:0:0:
276,184,42178,6,0,L|272:292,1,96,2|0,0:0|0:0,0:0:0:0:
120,240,42478,2,0,L|20:256,1,96,8|0,0:0|0:0,0:0:0:0:
380,180,42778,2,0,L|352:80,1,96
180,144,43078,2,0,L|80:160,1,96,8|0,0:0|0:0,0:0:0:0:
216,268,43378,6,0,P|311:269|381:299,1,144,2|0,0:0|0:0,0:0:0:0:
388,264,43678,2,0,L|380:364,1,96,8|0,0:0|0:0,0:0:0:0:
436,132,43978,2,0,L|425:36,1,96
328,112,44278,1,8,0:0:0:0:
208,64,44428,1,0,0:0:0:0:
56,64,44578,6,0,P|68:112|52:184,1,96,2|0,0:0|0:0,0:0:0:0:
24,192,44803,1,0,0:0:0:0:
24,192,44878,2,0,L|120:212,1,96,8|0,0:0|0:0,0:0:0:0:
240,300,45178,2,0,P|236:192|260:148,1,144
328,112,45478,2,0,P|300:144|243:162,1,96,8|0,0:0|0:0,0:0:0:0:
436,248,45778,6,0,P|444:160|396:76,1,144,2|0,0:0|0:0,0:0:0:0:
448,76,46078,2,0,L|344:64,1,96,8|0,0:0|0:0,0:0:0:0:
228,36,46378,1,0,0:0:0:0:
148,144,46528,1,0,0:0:0:0:
148,144,46603,1,0,0:0:0:0:
148,144,46678,2,0,L|132:247,1,96,8|0,0:0|0:0,0:0:0:0:
92,36,46978,5,2,0:0:0:0:
284,252,47128,2,8,L|256:160,1,96,8|8,0:0|0:0,0:0:0:0:
316,340,47428,2,0,B|268:364|220:332|220:332|164:300|96:336,1,192,0|8,0:0|0:0,0:0:0:0:
272,192,48178,6,0,P|320:184|392:200,1,96,4|0,0:0|0:0,0:0:0:0:
388,280,48478,1,8,0:0:0:0:
316,340,48628,1,0,0:0:0:0:
132,172,48778,2,0,P|80:165|38:177,1,96
20,260,49078,1,8,0:0:0:0:
100,300,49228,1,0,0:0:0:0:
164,380,49378,5,2,0:0:0:0:
180,244,49528,1,0,0:0:0:0:
256,344,49678,1,8,0:0:0:0:
272,192,49828,1,0,0:0:0:0:
388,280,49978,2,0,P|403:328|403:391,1,96
272,192,50278,2,0,P|308:156|328:88,1,96,8|0,0:0|0:0,0:0:0:0:
224,104,50503,1,0,0:0:0:0:
224,104,50578,6,0,B|272:192|272:192|240:236|252:304,1,192,2|8,0:0|0:0,0:0:0:0:
400,212,51028,1,0,0:0:0:0:
404,80,51178,2,0,P|370:57|302:46,1,96
128,48,51478,2,0,P|65:65|24:95,1,96,8|0,0:0|0:0,0:0:0:0:
80,240,51778,5,2,0:0:0:0:
160,288,51928,1,0,0:0:0:0:
232,240,52078,2,0,P|224:168|248:128,1,96,8|0,0:0|0:0,0:0:0:0:
160,376,52378,1,0,0:0:0:0:
232,240,52528,1,0,0:0:0:0:
352,320,52678,2,0,P|423:309|456:275,1,96,8|0,0:0|0:0,0:0:0:0:
448,220,52903,1,0,0:0:0:0:
448,220,52978,6,0,P|407:160|401:62,1,144,2|0,0:0|0:0,0:0:0:0:
380,44,53278,2,0,P|328:64|280:68,1,96,8|0,0:0|0:0,0:0:0:0:
128,60,53578,2,0,P|148:108|148:184,1,96
232,240,53878,1,8,0:0:0:0:
48,304,54028,1,0,0:0:0:0:
48,304,54103,1,0,0:0:0:0:
48,304,54178,6,0,P|100:304|160:300,1,96,2|0,0:0|0:0,0:0:0:0:
328,296,54478,2,0,P|332:244|322:168,1,96,8|0,0:0|0:0,0:0:0:0:
216,132,54778,1,0,0:0:0:0:
64,152,54928,1,0,0:0:0:0:
64,152,55003,1,0,0:0:0:0:
64,152,55078,1,8,0:0:0:0:
152,272,55228,1,0,0:0:0:0:
328,296,55378,6,0,P|395:290|453:303,1,96,2|0,0:0|0:0,0:0:0:0:
278,129,55678,2,0,P|263:196|270:256,1,96,8|0,0:0|0:0,0:0:0:0:
427,139,55978,2,0,P|406:75|350:43,1,96,0|0,0:0|0:0,0:0:0:0:
364,43,56203,1,0,0:0:0:0:
332,40,56278,2,0,L|215:39,1,96,8|0,0:0|0:0,0:0:0:0:
100,0,56578,6,0,P|120:55|112:131,1,96,2|0,0:0|0:0,0:0:0:0:
4,216,56878,2,0,L|112:212,1,96,8|0,0:0|0:0,0:0:0:0:
280,292,57178,2,0,P|238:245|214:139,1,144
295,90,57478,2,0,P|336:137|355:206,1,96,8|0,0:0|0:0,0:0:0:0:
380,360,57778,5,2,0:0:0:0:
308,184,57928,1,0,0:0:0:0:
308,184,58003,1,0,0:0:0:0:
308,184,58078,2,0,P|297:140|296:88,1,96,8|0,0:0|0:0,0:0:0:0:
420,240,58378,1,0,0:0:0:0:
196,268,58528,1,0,0:0:0:0:
196,268,58603,1,0,0:0:0:0:
196,268,58678,2,0,P|144:276|100:276,1,96,8|0,0:0|0:0,0:0:0:0:
77,68,58978,6,0,P|112:59|172:56,1,96,2|0,0:0|0:0,0:0:0:0:
288,140,59278,2,0,L|306:16,1,96,8|0,0:0|0:0,0:0:0:0:
432,96,59578,2,0,P|433:167|418:243,1,144
431,268,59878,2,0,L|310:264,1,96,8|0,0:0|0:0,0:0:0:0:
244,340,60178,5,2,0:0:0:0:
152,260,60328,1,0,0:0:0:0:
152,260,60403,1,0,0:0:0:0:
152,260,60478,2,0,P|96:252|50:219,1,96,8|0,0:0|0:0,0:0:0:0:
260,120,60778,2,0,P|308:108|356:116,1,96
172,164,61078,2,0,P|164:128|172:56,1,96,8|0,0:0|0:0,0:0:0:0:
392,136,61378,6,0,P|400:176|392:231,1,96,2|0,0:0|0:0,0:0:0:0:
416,268,61603,1,0,0:0:0:0:
416,268,61678,2,0,L|320:272,1,96,8|0,0:0|0:0,0:0:0:0:
104,216,61978,2,0,P|159:160|236:168,1,144
260,120,62278,2,0,L|304:232,1,96,8|0,0:0|0:0,0:0:0:0:
440,328,62578,6,0,P|448:220|472:168,1,144,4|0,0:0|0:0,0:0:0:0:
482,161,62878,2,0,P|426:153|392:136,1,96,8|0,0:0|0:0,0:0:0:0:
320,52,63178,2,0,P|248:32|188:52,1,96
180,20,63403,1,0,0:0:0:0:
180,20,63478,2,0,L|164:128,1,96,8|0,0:0|0:0,0:0:0:0:
32,232,63778,6,0,P|20:192|19:137,1,96,2|0,0:0|0:0,0:0:0:0:
240,152,64078,2,0,L|118:176,1,96,8|0,0:0|0:0,0:0:0:0:
336,72,64378,2,0,P|362:139|374:214,1,144
395,233,64678,2,0,L|281:271,1,96,8|0,0:0|0:0,0:0:0:0:
216,352,64978,5,2,0:0:0:0:
144,248,65128,1,0,0:0:0:0:
144,248,65203,1,0,0:0:0:0:
144,248,65278,2,0,P|88:259|34:244,1,96,8|0,0:0|0:0,0:0:0:0:
328,160,65578,2,0,P|376:148|424:156,1,96
220,84,65878,2,0,P|215:142|223:178,1,96,8|0,0:0|0:0,0:0:0:0:
488,232,66178,6,0,P|448:240|393:232,1,96,2|0,0:0|0:0,0:0:0:0:
356,248,66403,1,0,0:0:0:0:
356,248,66478,2,0,P|340:292|352:356,1,96,8|0,0:0|0:0,0:0:0:0:
220,84,66778,2,0,P|240:164|232:212,1,96
232,216,67003,1,0,0:0:0:0:
232,216,67078,2,0,L|112:232,1,96,8|0,0:0|0:0,0:0:0:0:
40,84,67378,6,0,P|128:56|220:84,1,192,4|8,0:0|0:0,0:0:0:0:
256,196,67828,1,0,0:0:0:0:
132,256,67978,2,0,L|37:240,1,96,0|0,0:0|0:0,0:0:0:0:
356,248,68278,2,0,L|348:360,1,96,8|0,0:0|0:0,0:0:0:0:
128,96,68578,5,4,0:0:0:0:
332,100,68728,1,0,0:0:0:0:
160,200,68878,1,8,0:0:0:0:
356,248,69028,1,0,0:0:0:0:
364,48,69178,2,0,L|360:148,1,96,4|0,0:0|0:0,0:0:0:0:
160,112,69479,2,0,P|104:112|47:105,1,96,8|0,0:0|0:0,0:0:0:0:
280,80,69778,6,0,P|276:152|308:252,1,144,4|0,0:0|0:0,0:0:0:0:
312,260,70078,2,0,L|208:276,1,96,8|0,0:0|0:0,0:0:0:0:
144,356,70378,1,4,0:0:0:0:
32,188,70528,1,0,0:0:0:0:
32,188,70603,1,0,0:0:0:0:
32,188,70678,2,0,L|168:168,1,96,8|0,0:0|0:0,0:0:0:0:
200,56,70978,6,0,P|228:120|212:208,1,144,4|0,0:0|0:0,0:0:0:0:
192,232,71278,2,0,L|324:248,1,96,8|0,0:0|0:0,0:0:0:0:
409,233,71578,1,4,0:0:0:0:
460,136,71728,1,0,0:0:0:0:
408,232,71878,1,8,0:0:0:0:
468,328,72028,1,0,0:0:0:0:
328,328,72178,6,0,P|288:224|300:140,1,192,4|8,0:0|0:0,0:0:0:0:
452,40,72628,2,0,L|464:164,1,96,0|4,0:0|0:0,0:0:0:0:
384,192,72928,1,0,0:0:0:0:
196,164,73078,2,0,L|76:152,1,96,8|0,0:0|0:0,0:0:0:0:
48,72,73378,5,4,0:0:0:0:
28,288,73528,2,0,L|148:276,1,96,0|8,0:0|0:0,0:0:0:0:
232,308,73828,1,0,0:0:0:0:
384,192,73978,2,0,L|492:184,1,96,4|0,0:0|0:0,0:0:0:0:
256,108,74278,2,0,P|264:156|308:228,1,96,8|0,0:0|0:0,0:0:0:0:
124,73,74578,6,0,P|112:172|136:260,1,192,4|8,0:0|0:0,0:0:0:0:
80,348,75028,1,0,0:0:0:0:
232,224,75178,2,0,L|224:96,1,96,4|0,0:0|0:0,0:0:0:0:
404,320,75478,2,0,L|524:316,1,96,8|0,0:0|0:0,0:0:0:0:
360,196,75778,5,8,0:0:0:0:
112,180,76003,1,0,0:0:0:0:
232,224,76228,1,8,0:0:0:0:
232,224,76378,1,8,0:0:0:0:
112,180,76978,5,4,0:0:0:0:
260,112,77128,2,0,P|272:52|256:0,1,96,0|8,0:0|0:0,0:0:0:0:
368,128,77428,1,0,0:0:0:0:
200,200,77578,2,0,L|180:312,1,96
412,316,77878,2,0,L|432:204,1,96,8|0,0:0|0:0,0:0:0:0:
320,148,78178,6,0,P|294:193|293:257,1,96,2|0,0:0|0:0,0:0:0:0:
412,316,78478,1,8,0:0:0:0:
428,176,78628,1,0,0:0:0:0:
216,120,78778,2,0,P|180:150|155:209,1,96
360,264,79078,2,0,P|372:208|348:156,1,96,8|0,0:0|0:0,0:0:0:0:
240,40,79378,5,2,0:0:0:0:
132,72,79528,2,0,L|4:60,1,96,0|8,0:0|0:0,0:0:0:0:
20,184,79828,1,0,0:0:0:0:
112,288,79978,2,0,P|176:304|232:284,2,96,0|0|8,0:0|0:0|0:0,0:0:0:0:
20,184,80428,1,0,0:0:0:0:
96,84,80578,6,0,P|172:68|248:80,1,144,2|0,0:0|0:0,0:0:0:0:
280,68,80878,2,0,L|288:184,1,96,8|0,0:0|0:0,0:0:0:0:
224,308,81178,1,0,0:0:0:0:
288,192,81328,1,0,0:0:0:0:
404,272,81478,1,8,0:0:0:0:
280,336,81628,1,0,0:0:0:0:
156,248,81778,6,0,P|160:300|136:356,1,96,4|0,0:0|0:0,0:0:0:0:
40,268,82078,1,8,0:0:0:0:
8,160,82228,1,0,0:0:0:0:
96,84,82378,2,0,L|200:92,1,96
396,140,82678,2,0,L|400:20,1,96,8|0,0:0|0:0,0:0:0:0:
288,192,82978,6,0,L|284:300,1,96,2|0,0:0|0:0,0:0:0:0:
256,328,83203,1,0,0:0:0:0:
256,328,83278,2,0,P|184:332|136:316,1,96,8|0,0:0|0:0,0:0:0:0:
388,280,83578,2,0,P|428:339|437:389,1,96
288,192,83878,2,0,P|320:127|358:94,1,96,8|0,0:0|0:0,0:0:0:0:
188,256,84178,5,2,0:0:0:0:
68,136,84328,1,0,0:0:0:0:
176,48,84478,2,0,L|168:160,1,96,8|0,0:0|0:0,0:0:0:0:
356,192,84778,1,0,0:0:0:0:
380,88,84928,2,0,P|428:72|484:84,1,96,0|8,0:0|0:0,0:0:0:0:
356,192,85228,1,0,0:0:0:0:
280,116,85378,6,0,P|268:32|280:-12,1,96,2|0,0:0|0:0,0:0:0:0:
512,256,85678,2,0,L|404:288,1,96,8|0,0:0|0:0,0:0:0:0:
292,312,85978,1,0,0:0:0:0:
236,184,86128,1,8,0:0:0:0:
376,208,86278,1,8,0:0:0:0:
188,256,86428,1,0,0:0:0:0:
160,112,86578,6,0,P|216:80|284:124,1,144,4|0,0:0|0:0,0:0:0:0:
304,136,86878,2,0,L|412:136,1,96,8|0,0:0|0:0,0:0:0:0:
416,332,87178,1,0,0:0:0:0:
416,332,87328,2,0,P|352:320|312:272,1,96,0|8,0:0|0:0,0:0:0:0:
276,220,87628,1,0,0:0:0:0:
344,136,87778,6,0,P|396:116|452:124,1,96,2|0,0:0|0:0,0:0:0:0:
188,280,88078,2,0,P|136:272|92:224,1,96,8|0,0:0|0:0,0:0:0:0:
56,120,88378,1,0,0:0:0:0:
188,64,88528,1,0,0:0:0:0:
188,64,88603,1,0,0:0:0:0:
188,64,88678,1,8,0:0:0:0:
240,208,88828,1,0,0:0:0:0:
400,136,88978,5,2,0:0:0:0:
412,248,89128,2,0,L|432:360,1,96,0|8,0:0|0:0,0:0:0:0:
304,280,89428,1,0,0:0:0:0:
284,32,89578,2,0,P|279:94|252:144,1,96
112,132,89878,2,0,P|93:100|88:38,1,96,8|0,0:0|0:0,0:0:0:0:
240,208,90178,5,2,0:0:0:0:
180,288,90328,2,0,P|123:293|64:280,1,96,0|8,0:0|0:0,0:0:0:0:
32,208,90628,1,0,0:0:0:0:
132,42,90778,2,0,P|132:94|112:132,1,96
304,112,91078,2,0,P|292:52|316:-12,1,96,8|0,0:0|0:0,0:0:0:0:
448,160,91378,5,2,0:0:0:0:
448,160,91528,2,0,P|432:260|408:276,1,96,4|0,0:0|0:0,0:0:0:0:
360,304,91828,1,0,0:0:0:0:
300,204,91978,2,0,P|293:135|303:111,1,96,0|8,0:0|0:0,0:0:0:0:
440,252,92278,2,0,P|446:320|436:344,1,96,0|8,0:0|0:0,0:0:0:0:
244,348,92578,6,0,L|120:332,1,96,2|0,0:0|0:0,0:0:0:0:
96,148,92878,2,0,P|96:192|64:260,1,96,8|0,0:0|0:0,0:0:0:0:
216,244,93178,2,0,P|216:164|236:92,1,144
256,72,93478,2,0,L|160:56,1,96,8|0,0:0|0:0,0:0:0:0:
284,56,93778,5,2,0:0:0:0:
320,160,93928,2,0,L|436:148,1,96,0|8,0:0|0:0,0:0:0:0:
448,40,94228,1,0,0:0:0:0:
372,252,94378,1,0,0:0:0:0:
484,312,94528,2,0,L|484:216,1,96,0|8,0:0|0:0,0:0:0:0:
320,160,94828,1,8,0:0:0:0:
424,140,94978,5,0,0:0:0:0:
204,132,95128,2,0,L|196:244,1,96,8|0,0:0|0:0,0:0:0:0:
320,328,95428,1,0,0:0:0:0:
401,200,95578,2,0,P|365:168|320:160,1,96,8|0,0:0|0:0,0:0:0:0:
228,316,95878,2,0,P|272:333|344:307,1,96,8|0,0:0|0:0,0:0:0:0:
228,160,96178,6,0,P|152:148|84:184,1,144,4|0,0:0|0:0,0:0:0:0:
48,168,96478,2,0,L|40:280,1,96,8|0,0:0|0:0,0:0:0:0:
220,352,96778,2,0,P|244:268|236:236,1,96
144,196,97078,1,8,0:0:0:0:
121,297,97228,1,0,0:0:0:0:
340,221,97378,6,0,P|340:268|352:316,1,96,2|0,0:0|0:0,0:0:0:0:
419,94,97679,2,0,P|386:94|324:104,1,96,8|0,0:0|0:0,0:0:0:0:
108,120,97978,2,0,P|168:120|216:108,1,96
84,308,98278,2,0,P|96:260|76:196,1,96,8|0,0:0|0:0,0:0:0:0:
36,56,98578,5,2,0:0:0:0:
144,144,98728,2,0,L|256:128,1,96,0|8,0:0|0:0,0:0:0:0:
352,104,99028,1,0,0:0:0:0:
452,184,99178,1,0,0:0:0:0:
376,268,99328,2,0,L|268:248,2,96,0|8|0,0:0|0:0|0:0,0:0:0:0:
400,356,99778,5,2,0:0:0:0:
304,200,99928,1,0,0:0:0:0:
212,322,100078,1,8,0:0:0:0:
216,180,100228,1,0,0:0:0:0:
68,230,100378,1,0,0:0:0:0:
160,108,100528,1,0,0:0:0:0:
28,80,100678,1,8,0:0:0:0:
160,16,100828,1,0,0:0:0:0:
296,104,100978,5,4,0:0:0:0:
296,104,101128,2,0,L|416:120,1,96,0|8,0:0|0:0,0:0:0:0:
472,60,101428,1,0,0:0:0:0:
420,248,101578,1,0,0:0:0:0:
420,248,101728,2,0,L|300:264,1,96,0|8,0:0|0:0,0:0:0:0:
220,280,102028,1,0,0:0:0:0:
116,152,102178,6,0,P|165:157|220:196,1,96,2|0,0:0|0:0,0:0:0:0:
120,320,102478,2,0,P|68:304|20:248,1,96,8|0,0:0|0:0,0:0:0:0:
256,124,102778,2,0,P|287:162|292:232,1,96,0|0,0:0|0:0,2:0:0:0:
149,238,103078,2,0,P|121:193|116:152,1,96,8|0,0:0|0:0,2:0:0:0:
332,208,103378,6,0,L|348:328,2,96,2|0|8,0:0|0:0|0:0,0:0:0:0:
256,124,103828,1,0,0:0:0:0:
356,80,103978,2,0,L|460:80,1,96
148,144,104278,2,0,P|156:72|208:32,1,96,8|0,0:0|0:0,0:0:0:0:
216,228,104578,5,2,0:0:0:0:
188,328,104728,2,0,P|121:357|61:332,1,96,8|0,0:0|0:0,0:0:0:0:
112,240,105028,1,0,0:0:0:0:
312,224,105178,2,0,P|332:272|320:328,1,96,8|0,0:0|0:0,0:0:0:0:
256,124,105478,2,0,P|298:66|363:58,1,96,8|0,0:0|0:0,0:0:0:0:
312,224,105778,6,0,L|160:212,1,144,4|0,0:0|0:0,0:0:0:0:
112,240,106078,2,0,P|96:320|128:360,1,96,8|0,0:0|0:0,0:0:0:0:
376,280,106378,2,0,P|392:194|381:163,1,96
256,124,106678,1,8,0:0:0:0:
256,252,106828,1,0,0:0:0:0:
376,324,106978,6,0,P|440:324|512:316,1,96,2|0,0:0|0:0,0:0:0:0:
376,128,107278,2,0,P|379:174|395:220,1,96,8|0,0:0|0:0,0:0:0:0:
184,104,107578,2,0,P|243:98|290:82,1,96
148,288,107878,2,0,P|155:239|130:177,1,96,8|0,0:0|0:0,0:0:0:0:
36,212,108178,5,2,0:0:0:0:
184,104,108328,2,0,L|304:128,1,96,0|8,0:0|0:0,0:0:0:0:
436,152,108628,1,0,0:0:0:0:
368,52,108778,1,0,0:0:0:0:
320,200,108928,2,0,L|320:320,2,96,0|8|0,0:0|0:0|0:0,0:0:0:0:
444,276,109378,5,2,0:0:0:0:
320,200,109528,1,0,0:0:0:0:
204,280,109678,1,8,0:0:0:0:
319,200,109828,1,0,0:0:0:0:
184,116,109978,1,0,0:0:0:0:
10,81,110128,1,0,0:0:0:0:
72,256,110278,1,8,0:0:0:0:
156,80,110428,1,0,0:0:0:0:
328,88,110578,5,4,0:0:0:0:
328,88,110728,2,0,L|448:93,1,96,0|8,0:0|0:0,0:0:0:0:
504,28,111028,1,0,0:0:0:0:
232,160,111178,1,0,0:0:0:0:
232,160,111328,2,0,L|100:152,1,96,0|8,0:0|0:0,0:0:0:0:
36,144,111628,1,0,0:0:0:0:
256,252,111778,6,0,P|255:301|238:373,1,96,0|0,0:0|0:0,0:0:0:0:
88,266,112078,2,0,P|105:219|146:157,1,96,8|0,0:0|0:0,0:0:0:0:
334,201,112378,2,0,P|298:235|256:252,1,96,0|0,0:0|0:0,2:0:0:0:
208,64,112678,2,0,P|255:52|324:70,1,96,8|0,0:0|0:0,2:0:0:0:
440,108,112978,6,0,L|466:226,2,96,4|0|8,0:0|0:0|0:0,0:0:0:0:
432,304,113428,1,0,0:0:0:0:
232,300,113578,2,0,L|335:290,1,96,0|0,0:0|0:0,0:0:0:0:
112,188,113878,2,0,P|105:215|104:288,1,96,8|0,0:0|0:0,0:0:0:0:
272,128,114178,5,0,0:0:0:0:
272,128,114328,2,0,P|271:216|254:245,1,96,8|8,0:0|0:0,0:0:0:0:
44,344,114628,1,0,0:0:0:0:
192,172,114778,2,0,L|175:73,1,96,8|0,0:0|0:0,0:0:0:0:
416,208,115078,2,0,P|463:206|510:194,1,96,8|0,0:0|0:0,0:0:0:0:
320,136,115378,21,0,0:0:0:0:
