osu file format v12

[General]
AudioFilename: 1.mp3
AudioLeadIn: 2500
PreviewTime: 57778
Countdown: 0
SampleSet: Normal
StackLeniency: 0.7
Mode: 0
LetterboxInBreaks: 0

[Editor]
Bookmarks: 48203,57808,67403,77003,89903,96178,105803,115408,125008,143908,158608,163408
DistanceSpacing: 1.2
BeatDivisor: 4
GridSize: 4

[Metadata]
Title:Shura no Niwa
TitleUnicode:修羅ノ庭
Artist:MinusP
ArtistUnicode:マイナスP
Creator:wantuole
Version:Hard
Source:
Tags:vocaloid vocaloid2 Kagamine Rin Len Left_4_Dead wonderful opportunity! vol.2
BeatmapID:264701
BeatmapSetID:98233

[Difficulty]
HPDrainRate:5
CircleSize:4
OverallDifficulty:5
ApproachRate:7
SliderMultiplier:1.48
SliderTickRate:2

[Events]
//Background and Video events
0,0,"bg.jpg",0,0
//Break Periods
//Storyboard Layer 0 (Background)
//Storyboard Layer 1 (Fail)
//Storyboard Layer 2 (Pass)
//Storyboard Layer 3 (Foreground)
//Storyboard Sound Samples
//Background Colour Transformations
3,100,163,162,255

[TimingPoints]
178,300,4,1,2,38,1,0
178,-133.333333333333,4,1,2,38,0,0
890,-133.333333333333,4,1,2,5,0,0
965,-133.333333333333,4,1,2,38,0,0
2990,-133.333333333333,4,1,2,5,0,0
3065,-133.333333333333,4,1,2,38,0,0
3290,-133.333333333333,4,1,2,5,0,0
3365,-133.333333333333,4,1,2,38,0,0
5990,-133.333333333333,4,1,2,5,0,0
6065,-133.333333333333,4,1,2,38,0,0
8015,-133.333333333333,4,1,2,5,0,0
8540,-133.333333333333,4,1,2,38,0,0
9628,-100,4,1,1,55,0,0
19378,-100,4,1,0,55,0,0
19453,-100,4,1,1,55,0,0
21778,-100,4,1,0,55,0,0
21853,-100,4,1,1,55,0,0
24178,-100,4,1,0,55,0,0
24253,-100,4,1,1,55,0,0
26578,-100,4,1,0,55,0,0
26653,-100,4,1,1,55,0,0
28528,-100,4,1,0,55,0,0
28603,-100,4,1,1,55,0,0
28828,-100,4,1,1,5,0,0
28978,-100,4,1,0,55,0,0
29053,-100,4,1,1,55,0,0
33778,-100,4,1,0,55,0,0
33853,-100,4,1,1,55,0,0
38128,-100,4,1,0,55,0,0
38203,-100,4,1,1,55,0,0
38578,-100,4,1,0,55,0,0
38653,-100,4,1,1,55,0,0
47728,-100,4,1,0,55,0,0
47803,-100,4,1,1,55,0,0
48178,-100,4,1,0,55,0,0
48253,-100,4,1,1,55,0,0
52978,-100,4,1,0,55,0,0
53053,-100,4,1,1,55,0,0
76678,-100,4,1,1,5,0,0
76978,-100,4,1,0,55,0,1
77053,-100,4,1,1,55,0,0
81778,-100,4,1,0,55,0,0
81853,-100,4,1,1,55,0,0
86578,-100,4,1,0,55,0,0
86653,-100,4,1,1,55,0,0
91528,-100,4,1,0,55,0,0
91603,-100,4,1,1,55,0,0
96178,-100,4,1,0,55,0,1
96253,-100,4,1,1,55,0,0
100978,-100,4,1,0,55,0,0
101053,-100,4,1,1,55,0,0
105778,-100,4,1,0,55,0,0
105853,-100,4,1,1,55,0,0
110578,-100,4,1,0,55,0,0
110653,-100,4,1,1,55,0,0

[Colours]
Combo1 : 101,84,197
Combo2 : 243,54,33
Combo3 : 241,138,35

[HitObjects]
256,276,178,1,8,0:0:0:0:
92,328,778,2,0,P|72:260|96:204,1,111.000004234314,2|0,0:0|0:0,0:0:0:0:
168,268,1378,5,4,0:0:0:0:
420,328,2878,2,0,P|440:260|416:204,2,111.000004234314,0|2|0,0:0|0:0|0:0,0:0:0:0:
344,268,3778,5,4,0:0:0:0:
168,116,4378,1,0,0:0:0:0:
256,192,4978,5,8,0:0:0:0:
412,28,5878,2,0,P|424:96|408:144,1,111.000004234314,0|2,0:0|0:0,0:0:0:0:
412,248,6778,1,0,0:0:0:0:
72,328,7978,2,0,B|120:352|180:324|180:324|236:292|308:328,1,222.000008468628
132,208,9628,2,0,L|124:244,1,37,8|0,0:0|0:0,0:0:0:0:
132,207,9778,6,0,P|200:188|276:212,1,148,0|8,0:0|0:0,0:0:0:0:
348,264,10228,1,0,0:0:0:0:
428,228,10378,1,0,0:0:0:0:
308,96,10678,2,0,L|384:56,1,74,8|0,0:0|0:0,0:0:0:0:
220,88,10978,6,0,P|144:80|72:112,1,148,0|8,0:0|0:0,0:0:0:0:
184,176,11428,1,0,0:0:0:0:
268,216,11578,2,0,P|311:196|327:176,1,74,0|0,0:0|0:0,0:0:0:0:
232,312,11878,2,0,P|270:339|296:343,1,74,8|0,0:0|0:0,0:0:0:0:
476,324,12178,6,0,P|444:280|460:188,1,148,0|8,0:0|0:0,0:0:0:0:
402,50,12628,2,0,L|396:124,1,74
192,268,13078,1,8,0:0:0:0:
140,356,13228,1,0,0:0:0:0:
192,268,13378,6,0,P|276:224|360:220,1,148,0|8,0:0|0:0,0:0:0:0:
440,212,13828,1,0,0:0:0:0:
472,104,13978,2,0,P|377:100|302:61,1,148,0|0,0:0|0:0,0:0:0:0:
156,36,14578,6,0,P|172:112|160:188,1,148,0|8,0:0|0:0,0:0:0:0:
192,268,15028,2,0,L|88:296,1,74
0,88,15478,2,0,L|104:60,1,74,8|0,0:0|0:0,0:0:0:0:
236,84,15778,6,0,P|211:108|144:124,1,74
96,236,16078,2,0,P|87:219|86:165,1,74,8|0,0:0|0:0,0:0:0:0:
56,308,16378,2,0,P|116:266|205:276,1,148,0|0,0:0|0:0,0:0:0:0:
432,320,16978,6,0,L|424:232,1,74
472,172,17278,2,0,L|404:115,1,74,8|0,0:0|0:0,0:0:0:0:
344,68,17578,1,0,0:0:0:0:
168,88,17878,1,8,0:0:0:0:
80,80,18028,1,0,0:0:0:0:
168,88,18178,6,0,B|220:112|234:168|234:168|212:208,1,148,0|8,0:0|0:0,0:0:0:0:
116,284,18628,2,0,B|64:260|49:203|49:203|72:164,1,148
296,68,19378,6,0,P|357:166|352:206,1,148,6|8,0:0|0:0,0:0:0:0:
336,280,19828,1,0,0:0:0:0:
192,256,19978,2,0,P|176:212|176:168,1,74
192,96,20278,1,8,0:0:0:0:
408,84,20578,6,0,L|496:72,2,74,0|0|8,0:0|0:0|0:0,0:0:0:0:
328,124,21028,1,0,0:0:0:0:
296,240,21178,2,0,P|284:288|304:336,1,74
184,168,21478,2,0,P|196:120|176:72,1,74,8|0,0:0|0:0,0:0:0:0:
88,208,21778,6,0,P|186:270|226:265,1,148,2|8,0:0|0:0,0:0:0:0:
308,336,22228,1,0,0:0:0:0:
416,312,22378,2,0,L|444:228,2,74,0|0|8,0:0|0:0|0:0,0:0:0:0:
368,52,22978,6,0,P|304:64|216:60,1,148,0|8,0:0|0:0,0:0:0:0:
104,48,23428,1,0,0:0:0:0:
32,160,23578,2,0,P|104:168|176:216,1,148
348,312,24178,6,0,P|318:245|324:159,1,148,2|8,0:0|0:0,0:0:0:0:
224,124,24628,1,0,0:0:0:0:
193,33,24778,2,0,P|156:31|120:32,1,74,0|0,0:0|0:0,0:0:0:0:
16,44,25078,1,0,0:0:0:0:
150,134,25378,6,0,P|184:132|224:124,1,74
368,64,25678,2,0,P|324:56|294:54,1,74,8|0,0:0|0:0,0:0:0:0:
456,92,25978,2,0,P|472:148|448:248,1,148,8|0,0:0|0:0,0:0:0:0:
332,312,26578,6,0,L|416:320,2,74,2|0|0,0:0|0:0|0:0,0:0:0:0:
248,248,27028,1,0,0:0:0:0:
164,308,27178,2,0,P|92:316|12:288,1,148
36,156,27778,6,0,P|44:192|76:228,1,74
133,55,28078,2,0,P|96:60|64:76,1,74,8|0,0:0|0:0,0:0:0:0:
405,126,28528,2,0,B|372:110|330:129|330:129|291:152|264:136,1,148,4|0,0:0|0:0,0:0:0:0:
228,220,28978,6,0,L|224:300,2,74,2|0|8,0:0|0:0|0:0,0:0:0:0:
264,136,29428,1,0,0:0:0:0:
352,100,29578,2,0,L|346:26,1,74
440,140,29878,2,0,L|434:213,1,74,8|0,0:0|0:0,0:0:0:0:
384,324,30178,6,0,P|326:304|240:310,1,148,0|8,0:0|0:0,0:0:0:0:
160,272,30628,2,0,L|72:284,2,74
228,220,31078,1,8,0:0:0:0:
292,56,31378,6,0,P|320:124|300:220,1,148,0|8,0:0|0:0,0:0:0:0:
228,220,31828,1,0,0:0:0:0:
152,120,31978,2,0,P|192:84|224:72,1,74
144,204,32278,2,0,P|92:187|66:165,1,74,8|0,0:0|0:0,0:0:0:0:
224,176,32578,6,0,P|236:232|224:264,2,74,0|0|8,0:0|0:0|0:0,0:0:0:0:
232,88,33028,1,0,0:0:0:0:
316,60,33178,2,0,P|360:60|408:28,1,74
472,116,33478,1,8,0:0:0:0:
324,212,33778,6,0,P|344:276|296:360,1,148,2|8,0:0|0:0,0:0:0:0:
224,304,34228,1,0,0:0:0:0:
192,216,34378,2,0,L|204:140,1,74
108,244,34678,2,0,P|80:220|48:184,1,74,8|0,0:0|0:0,0:0:0:0:
108,244,34978,6,0,P|88:180|136:96,2,148,0|8|0,0:0|0:0|0:0,0:0:0:0:
184,340,35728,2,0,L|268:344,1,74,0|8,0:0|0:0,0:0:0:0:
192,216,36178,6,0,P|252:199|347:259,1,148,0|8,0:0|0:0,0:0:0:0:
412,208,36628,2,0,L|408:312,2,74
304,128,37078,5,8,0:0:0:0:
216,124,37228,2,0,L|200:52,2,74
100,224,37678,1,0,0:0:0:0:
100,224,37828,2,0,B|68:192|68:192|64:136|112:92,1,148,0|4,0:0|0:0,0:0:0:0:
372,100,38578,6,0,P|415:111|457:216,1,148,2|0,0:0|0:0,0:0:0:0:
361,346,39178,2,0,P|317:334|275:229,1,148,0|8,0:0|0:0,0:0:0:0:
192,176,39628,1,0,0:0:0:0:
220,88,39778,6,0,L|146:90,1,74
280,200,40078,2,0,L|356:160,1,74,8|0,0:0|0:0,0:0:0:0:
192,176,40378,2,0,B|180:214|200:246|200:246|224:278|204:338,1,148,0|8,0:0|0:0,0:0:0:0:
364,228,40978,2,0,B|376:190|356:158|356:158|332:126|352:66,1,148,0|8,0:0|0:0,0:0:0:0:
280,200,41428,1,0,0:0:0:0:
288,288,41578,2,0,L|292:364,1,74
192,176,41878,2,0,L|217:107,1,74,8|0,0:0|0:0,0:0:0:0:
152,256,42178,6,0,P|88:236|45:166,2,148,0|8|0,0:0|0:0|0:0,0:0:0:0:
104,64,43078,1,8,0:0:0:0:
104,64,43378,6,0,P|192:56|252:96,1,148,0|8,0:0|0:0,0:0:0:0:
324,136,43828,1,0,0:0:0:0:
412,104,43978,2,0,L|424:12,1,74
328,224,44278,2,0,L|344:312,1,74,8|0,0:0|0:0,0:0:0:0:
324,136,44578,6,0,B|276:140|252:176|252:176|180:168,1,148,0|8,0:0|0:0,0:0:0:0:
104,216,45028,2,0,P|64:236|24:236,2,74
40,144,45478,1,8,0:0:0:0:
104,324,45778,6,0,P|176:296|268:332,1,148,0|8,0:0|0:0,0:0:0:0:
332,352,46228,2,0,L|420:336,1,74,0|0,0:0|0:0,0:0:0:0:
368,84,46678,1,0,0:0:0:0:
368,84,46828,1,8,0:0:0:0:
368,84,46978,6,0,P|272:80|216:40,1,148,0|8,0:0|0:0,0:0:0:0:
140,64,47428,2,0,P|92:100|64:212,1,148,2|4,0:0|0:0,0:0:0:0:
388,344,48178,6,0,P|400:284|364:200,1,148,2|8,0:0|0:0,0:0:0:0:
280,152,48628,1,0,0:0:0:0:
216,280,48778,2,0,B|216:265|212:353,1,74
104,196,49078,2,0,L|200:184,1,74,8|0,0:0|0:0,0:0:0:0:
172,80,49378,5,0,0:0:0:0:
172,80,49528,2,0,L|268:68,2,74,0|8|0,0:0|0:0|0:0,0:0:0:0:
104,196,49978,2,0,L|116:280,1,74
204,352,50278,2,0,L|216:279,1,74,8|0,0:0|0:0,0:0:0:0:
172,160,50578,6,0,P|112:184|32:172,1,148,0|8,0:0|0:0,0:0:0:0:
280,128,51178,2,0,L|304:44,1,74
172,160,51478,2,0,L|188:236,1,74,8|0,0:0|0:0,0:0:0:0:
284,336,51778,5,0,0:0:0:0:
368,276,51928,1,0,0:0:0:0:
372,172,52078,2,0,P|396:116|480:72,1,148,8|0,0:0|0:0,0:0:0:0:
468,73,52678,1,8,0:0:0:0:
256,152,52978,6,0,P|228:224|140:264,1,148,2|0,0:0|0:0,0:0:0:0:
88,200,53428,1,0,0:0:0:0:
80,116,53578,2,0,P|107:81|164:56,1,74
256,152,53878,2,0,P|212:164|164:160,1,74,8|0,0:0|0:0,0:0:0:0:
208,64,54178,6,0,P|304:56|368:96,1,148,0|8,0:0|0:0,0:0:0:0:
384,172,54628,1,0,0:0:0:0:
328,248,54778,2,0,L|240:232,2,74,0|0|8,0:0|0:0|0:0,0:0:0:0:
182,120,55378,6,0,B|196:172|196:172|164:212|176:264,1,148,0|8,0:0|0:0,0:0:0:0:
256,316,55828,1,0,0:0:0:0:
328,248,55978,2,0,L|432:236,2,74,0|0|8,0:0|0:0|0:0,0:0:0:0:
280,168,56428,1,0,0:0:0:0:
280,168,56578,6,0,P|284:72|336:32,1,148
416,108,57028,2,0,P|383:172|363:184,2,74
400,24,57478,1,8,0:0:0:0:
400,248,57778,5,2,0:0:0:0:
400,248,58078,2,0,P|368:276|304:288,1,74,8|0,0:0|0:0,0:0:0:0:
168,276,58378,2,0,P|137:317|134:338,1,74
236,332,58678,2,0,P|264:256|228:180,2,148,8|0|8,0:0|0:0|0:0,0:0:0:0:
128,200,59428,1,0,0:0:0:0:
180,128,59578,2,0,P|240:106|316:134,1,148,0|8,0:0|0:0,0:0:0:0:
180,128,60178,5,2,0:0:0:0:
180,128,60478,2,0,P|188:160|176:216,1,74,8|0,0:0|0:0,0:0:0:0:
40,160,60778,2,0,P|80:104|108:96,1,74
244,196,61078,2,0,B|196:216|188:272|188:272|124:292,1,148,8|0,0:0|0:0,0:0:0:0:
276,280,61528,2,0,L|376:284,2,74,0|8|0,0:0|0:0|0:0,0:0:0:0:
276,104,61978,2,0,P|372:100|440:136,1,148,0|8,0:0|0:0,0:0:0:0:
276,104,62578,5,2,0:0:0:0:
176,232,62878,2,0,P|160:192|160:152,1,74,8|0,0:0|0:0,0:0:0:0:
276,104,63178,2,0,P|292:140|292:180,1,74,0|0,0:0|0:0,0:0:0:0:
280,336,63478,2,0,P|217:290|127:285,1,148,8|0,0:0|0:0,0:0:0:0:
52,304,63928,1,0,0:0:0:0:
24,208,64078,2,0,L|72:132,1,74,8|0,0:0|0:0,0:0:0:0:
192,80,64378,2,0,P|104:100|24:76,1,148,0|8,0:0|0:0,0:0:0:0:
192,80,64978,6,0,P|176:160|208:232,1,148,2|8,0:0|0:0,0:0:0:0:
272,292,65428,2,0,L|232:368,2,74
268,152,65878,2,0,L|356:120,1,74,8|0,0:0|0:0,0:0:0:0:
344,224,66178,2,0,P|440:212|480:220,2,111,4|0|0,0:0|0:0|0:0,0:0:0:0:
268,152,66778,1,8,0:0:0:0:
272,292,67078,1,8,0:0:0:0:
112,72,67378,6,0,P|145:120|148:212,1,148,0|8,0:0|0:0,0:0:0:0:
168,308,67828,2,0,L|68:320,2,74
272,292,68278,1,8,0:0:0:0:
416,220,68578,6,0,P|432:168|420:120,1,74
340,72,68878,2,0,P|324:124|336:172,1,74,8|0,0:0|0:0,0:0:0:0:
272,220,69178,1,0,0:0:0:0:
192,260,69328,1,0,0:0:0:0:
160,344,69478,2,0,P|116:350|87:343,1,74,8|0,0:0|0:0,0:0:0:0:
120,260,69778,6,0,P|200:260|272:304,2,148,0|8|0,0:0|0:0|0:0,0:0:0:0:
92,164,70528,2,0,L|4:176,2,74,0|8|0,0:0|0:0|0:0,0:0:0:0:
188,128,70978,6,0,P|256:104|306:31,1,148,0|8,0:0|0:0,0:0:0:0:
368,268,71578,2,0,P|368:324|348:364,1,74
264,272,71878,2,0,P|252:196|264:168,1,74,8|0,0:0|0:0,0:0:0:0:
368,164,72178,6,0,P|438:200|468:268,2,148,0|8|0,0:0|0:0|0:0,0:0:0:0:
264,272,72928,2,0,L|172:244,2,74,0|8|0,0:0|0:0|0:0,0:0:0:0:
320,192,73378,6,0,P|327:109|290:61,1,148,0|8,0:0|0:0,0:0:0:0:
112,184,73978,2,0,P|104:266|141:314,1,148,0|8,0:0|0:0,0:0:0:0:
192,136,74578,6,0,P|148:96|76:96,2,111,10|0|0,0:0|0:0|0:0,0:0:0:0:
216,224,75178,2,0,P|288:204|380:224,1,148
280,160,75778,6,0,P|292:101|256:38,2,111,8|8|8,0:0|0:0|0:0,0:0:0:0:
216,224,76378,1,0,0:0:0:0:
104,312,76978,6,0,P|100:224|124:180,1,111,2|0,0:0|0:0,0:0:0:0:
104,180,77278,2,0,P|144:180|188:140,1,74,8|0,0:0|0:0,0:0:0:0:
132,80,77578,2,0,L|61:56,1,74
232,88,77877,2,0,L|305:91,1,74,8|0,0:0|0:0,0:0:0:0:
256,188,78178,6,0,P|364:192|416:220,1,148,0|8,0:0|0:0,0:0:0:0:
340,352,78628,2,0,L|260:348,2,74
424,296,79078,2,0,L|496:320,1,74,8|0,0:0|0:0,0:0:0:0:
428,192,79378,6,0,L|515:191,2,74,0|0|8,0:0|0:0|0:0,0:0:0:0:
344,192,79828,1,8,0:0:0:0:
236,80,79978,2,0,L|163:66,2,74,0|0|8,0:0|0:0|0:0,0:0:0:0:
328,96,80428,1,8,0:0:0:0:
244,220,80578,6,0,L|232:304,1,74
184,156,80878,2,0,L|150:234,1,74,8|0,0:0|0:0,0:0:0:0:
252,236,81178,2,0,L|240:320,1,74
168,164,81478,2,0,L|134:242,1,74,8|0,0:0|0:0,0:0:0:0:
264,120,81778,6,0,P|336:100|432:112,1,148,2|8,0:0|0:0,0:0:0:0:
408,104,82228,1,0,0:0:0:0:
396,220,82378,2,0,P|324:240|228:228,1,148,0|8,0:0|0:0,0:0:0:0:
168,164,82828,1,0,0:0:0:0:
168,164,82978,6,0,L|148:76,1,74
84,216,83278,2,0,L|-4:196,1,74,8|0,0:0|0:0,0:0:0:0:
100,304,83578,2,0,L|23:352,1,74,0|8,0:0|0:0,0:0:0:0:
168,164,83878,2,0,L|184:252,1,74,0|0,0:0|0:0,0:0:0:0:
352,272,84178,6,0,P|253:337|202:325,1,148,0|8,0:0|0:0,0:0:0:0:
264,236,84628,2,0,L|276:140,2,74
360,228,85078,2,0,L|412:280,1,74,8|0,0:0|0:0,0:0:0:0:
444,172,85378,6,0,P|424:120|384:96,1,74
356,32,85678,2,0,P|304:52|280:92,1,74,8|0,0:0|0:0,0:0:0:0:
208,96,85978,2,0,L|112:84,2,74,0|0|8,0:0|0:0|0:0,0:0:0:0:
232,244,86578,6,0,P|144:228|80:280,1,148,2|8,0:0|0:0,0:0:0:0:
56,336,87028,1,0,0:0:0:0:
164,376,87178,2,0,L|168:288,1,74
232,244,87478,2,0,L|236:156,1,74,8|0,0:0|0:0,0:0:0:0:
108,152,87778,6,0,L|20:164,2,74,0|0|8,0:0|0:0|0:0,0:0:0:0:
200,152,88228,1,0,0:0:0:0:
260,84,88378,2,0,P|304:100|348:96,1,74
396,176,88678,2,0,L|452:88,1,74,8|0,0:0|0:0,0:0:0:0:
348,256,88978,6,0,L|348:364,2,74,0|0|8,0:0|0:0|0:0,0:0:0:0:
288,188,89428,1,0,0:0:0:0:
200,152,89578,2,0,L|188:248,2,74,0|0|8,0:0|0:0|0:0,0:0:0:0:
108,168,90028,1,0,0:0:0:0:
32,224,90178,6,0,L|40:304,1,74
220,240,90478,2,0,L|204:328,1,74,8|0,0:0|0:0,0:0:0:0:
116,268,90778,2,0,L|124:348,1,74,0|8,0:0|0:0,0:0:0:0:
304,284,91078,2,0,L|288:372,1,74,8|0,0:0|0:0,0:0:0:0:
108,168,91378,6,0,B|160:120|200:164|256:120,1,148,2|8,0:0|0:0,0:0:0:0:
312,56,91828,1,0,0:0:0:0:
396,88,91978,2,0,B|456:104|472:160|472:160|444:204,1,148,0|8,0:0|0:0,0:0:0:0:
356,224,92428,6,0,L|335:152,1,74
304,300,92728,2,0,L|292:384,2,74,0|8|0,0:0|0:0|0:0,0:0:0:0:
240,228,93178,2,0,L|224:132,2,74,0|0|8,0:0|0:0|0:0,0:0:0:0:
176,296,93628,1,0,0:0:0:0:
96,272,93778,6,0,P|64:300|44:336,1,74
120,180,94078,2,0,P|130:141|121:109,1,74,8|0,0:0|0:0,0:0:0:0:
40,108,94378,2,0,L|56:4,2,74,0|8|0,0:0|0:0|0:0,0:0:0:0:
20,208,94828,1,0,0:0:0:0:
96,272,94978,6,0,P|176:260|268:288,1,148,0|8,0:0|0:0,0:0:0:0:
324,312,95428,2,0,L|432:304,2,74
220,296,95878,2,0,L|208:376,1,74,8|0,0:0|0:0,0:0:0:0:
96,272,96178,6,0,P|92:184|104:156,1,111,2|0,0:0|0:0,0:0:0:0:
116,140,96478,2,0,L|32:140,1,74,8|0,0:0|0:0,0:0:0:0:
192,56,96778,2,0,P|224:64|268:64,1,74,0|0,0:0|0:0,0:0:0:0:
356,160,97077,2,0,P|400:168|429:163,1,74,8|0,0:0|0:0,0:0:0:0:
400,68,97378,6,0,P|352:64|266:121,1,148,0|8,0:0|0:0,0:0:0:0:
304,280,97828,2,0,L|296:356,2,74
237,208,98278,2,0,L|164:216,1,74,8|0,0:0|0:0,0:0:0:0:
408,252,98578,5,0,0:0:0:0:
408,252,98729,2,0,L|481:255,2,74,0|8|0,0:0|0:0|0:0,0:0:0:0:
356,140,99178,1,0,0:0:0:0:
356,140,99329,2,0,L|429:143,2,74,0|8|0,0:0|0:0|0:0,0:0:0:0:
228,172,99778,6,0,L|149:203,1,74
253,88,100078,2,0,L|168:98,1,74,8|0,0:0|0:0,0:0:0:0:
218,186,100378,2,0,L|139:217,1,74,0|8,0:0|0:0,0:0:0:0:
240,80,100678,2,0,L|155:90,1,74,0|0,0:0|0:0,0:0:0:0:
328,136,100978,6,0,P|400:116|496:128,1,148,0|8,0:0|0:0,0:0:0:0:
412,256,101428,1,0,0:0:0:0:
412,256,101578,2,0,P|358:203|321:114,1,148,0|8,0:0|0:0,0:0:0:0:
188,156,102028,1,0,0:0:0:0:
116,188,102178,6,0,L|99:260,1,74,0|0,0:0|0:0,0:0:0:0:
208,148,102478,2,0,L|228:72,1,74
88,208,102778,2,0,L|71:280,1,74,0|0,0:0|0:0,0:0:0:0:
232,140,103078,2,0,L|252:64,1,74,8|0,0:0|0:0,0:0:0:0:
292,140,103378,6,0,P|306:157|422:181,1,148,0|8,0:0|0:0,0:0:0:0:
480,112,103828,2,0,L|470:38,2,74
372,268,104278,2,0,L|364:348,1,74,8|0,0:0|0:0,0:0:0:0:
200,140,104578,2,0,P|220:192|232:203,1,74
264,288,104878,2,0,L|254:361,2,74,0|0|0,0:0|0:0|0:0,0:0:0:0:
292,140,105328,1,0,0:0:0:0:
292,140,105479,6,0,P|204:124|157:152,1,148,8|2,0:0|0:0,0:0:0:0:
96,228,105928,1,0,0:0:0:0:
167,302,106078,2,0,L|164:376,1,74
232,244,106378,2,0,L|235:170,1,74,8|0,0:0|0:0,0:0:0:0:
108,152,106678,6,0,L|34:161,2,74,8|0|0,0:0|0:0|0:0,0:0:0:0:
172,88,107128,1,0,0:0:0:0:
260,84,107278,2,0,P|304:100|330:99,1,74,8|0,0:0|0:0,0:0:0:0:
412,80,107578,2,0,L|512:112,1,74,0|8,0:0|0:0,0:0:0:0:
464,192,107878,2,0,L|468:276,1,74
352,188,108178,6,0,L|256:200,2,74,0|0|8,0:0|0:0|0:0,0:0:0:0:
352,188,108628,1,0,0:0:0:0:
256,308,108778,2,0,L|352:296,2,74,0|0|8,0:0|0:0|0:0,0:0:0:0:
256,308,109228,1,0,0:0:0:0:
112,188,109378,6,0,L|104:114,1,74
200,248,109678,2,0,L|186:320,1,74,8|0,0:0|0:0,0:0:0:0:
80,160,109978,2,0,L|72:86,1,74,0|8,0:0|0:0,0:0:0:0:
232,216,110278,2,0,L|218:288,1,74
172,144,110578,6,0,B|224:96|264:140|310:102,1,148,0|8,0:0|0:0,0:0:0:0:
260,32,111028,1,0,0:0:0:0:
340,240,111178,2,0,B|288:288|248:244|201:281,1,148,0|8,0:0|0:0,0:0:0:0:
244,352,111628,1,0,0:0:0:0:
284,180,111777,6,0,L|364:128,1,74
432,188,112078,2,0,L|421:261,1,74,8|0,0:0|0:0,0:0:0:0:
336,332,112378,1,0,0:0:0:0:
244,352,112528,2,0,L|231:279,2,74,0|8|0,0:0|0:0|0:0,0:0:0:0:
128,332,112978,6,0,P|96:256|124:184,1,148,0|8,0:0|0:0,0:0:0:0:
188,144,113428,2,0,L|180:36,2,74,0|0|0,0:0|0:0|0:0,0:0:0:0:
244,216,113878,2,0,L|320:196,1,74,0|0,0:0|0:0,0:0:0:0:
344,100,114178,6,0,L|264:120,2,74,0|0|8,0:0|0:0|0:0,0:0:0:0:
432,84,114628,1,0,0:0:0:0:
424,212,114778,2,0,L|495:232,2,74,0|0|8,0:0|0:0|0:0,0:0:0:0:
339,190,115228,1,0,0:0:0:0:
339,190,115378,21,0,0:0:0:0:
