osu file format v14

[General]
AudioFilename: 13 Monster Machine.mp3
AudioLeadIn: 0
PreviewTime: 100236
Countdown: 0
SampleSet: Normal
StackLeniency: 0.7
Mode: 0
LetterboxInBreaks: 0
WidescreenStoryboard: 1

[Editor]
Bookmarks: 2311,13220,20492,35038,50265,57652,64129,78674,93220,100492,115492,129583,144129,158674,173674,180492
DistanceSpacing: 1.5
BeatDivisor: 6
GridSize: 8
TimelineZoom: 2.999999

[Metadata]
Title:Monster Machine
TitleUnicode:Monster Machine
Artist:MintJam
ArtistUnicode:MintJam
Creator:gracefu
Version:V Twins
Source:Accel World
Tags:anime original soundtrack
BeatmapID:651243
BeatmapSetID:288804

[Difficulty]
HPDrainRate:7
CircleSize:4
OverallDifficulty:7.5
ApproachRate:10
SliderMultiplier:1.4
SliderTickRate:2

[Events]
//Background and Video events
0,0,"bg.png",0,0
//Break Periods
2,50238,56406
2,115692,121861
//Storyboard Layer 0 (Background)
//Storyboard Layer 1 (Fail)
//Storyboard Layer 2 (Pass)
//Storyboard Layer 3 (Foreground)
//Storyboard Sound Samples

[TimingPoints]
493,227.272727272727,4,1,0,50,1,0
493,-200,4,1,0,50,0,0
16856,-133.333333333333,4,1,0,50,0,0
18674,-133.333333333333,4,1,0,45,0,0
19288,-133.333333333333,4,1,0,45,0,0
20492,-133.333333333333,4,1,0,50,0,0
34015,-100,4,1,0,50,0,0
34583,-133.333333333333,4,1,0,50,0,0
35038,-133.333333333333,4,1,0,50,0,1
50265,-133.333333333333,4,1,0,50,0,0
64924,-133.333333333333,4,1,0,50,0,0
65038,-133.333333333333,4,1,0,50,0,0
77159,-133.333333333333,4,1,0,10,0,0
77197,-133.333333333333,4,1,0,50,0,0
77500,-133.333333333333,4,1,0,10,0,0
77538,-133.333333333333,4,1,0,50,0,0
77841,-133.333333333333,4,1,0,10,0,0
77879,-133.333333333333,4,1,0,50,0,0
78182,-133.333333333333,4,1,0,10,0,0
78220,-133.333333333333,4,1,0,50,0,0
93523,-133.333333333333,4,1,0,10,0,0
93561,-133.333333333333,4,1,0,50,0,0
93864,-133.333333333333,4,1,0,10,0,0
93902,-133.333333333333,4,1,0,50,0,0
94205,-133.333333333333,4,1,0,10,0,0
94242,-133.333333333333,4,1,0,50,0,0
94546,-133.333333333333,4,1,0,10,0,0
94583,-133.333333333333,4,1,0,50,0,0
97159,-133.333333333333,4,1,0,10,0,0
97197,-133.333333333333,4,1,0,50,0,0
97500,-133.333333333333,4,1,0,10,0,0
97538,-133.333333333333,4,1,0,50,0,0
97841,-133.333333333333,4,1,0,10,0,0
97879,-133.333333333333,4,1,0,50,0,0
98182,-133.333333333333,4,1,0,10,0,0
98220,-133.333333333333,4,1,0,50,0,0
98977,-133.333333333333,4,1,0,10,0,0
99015,-133.333333333333,4,1,0,50,0,0
99318,-133.333333333333,4,1,0,10,0,0
99356,-133.333333333333,4,1,0,50,0,0
99546,-133.333333333333,4,1,0,10,0,0
99583,-133.333333333333,4,1,0,50,0,0
99886,-133.333333333333,4,1,0,10,0,0
99924,-133.333333333333,4,1,0,50,0,0
100227,-133.333333333333,4,1,0,10,0,0
100265,-133.333333333333,4,1,0,50,0,0
100492,-133.333333333333,4,1,0,50,0,1
101099,-133.333333333333,4,1,0,30,0,1
101174,-133.333333333333,4,1,0,50,0,1
101326,-133.333333333333,4,1,0,30,0,1
101402,-133.333333333333,4,1,0,50,0,1
115492,-133.333333333333,4,1,0,50,0,0
142614,-133.333333333333,4,1,0,10,0,0
142652,-133.333333333333,4,1,0,50,0,0
142955,-133.333333333333,4,1,0,10,0,0
142992,-133.333333333333,4,1,0,50,0,0
143296,-133.333333333333,4,1,0,10,0,0
143333,-133.333333333333,4,1,0,50,0,0
143636,-133.333333333333,4,1,0,10,0,0
143674,-133.333333333333,4,1,0,50,0,0
144129,-133.333333333333,4,1,0,50,0,1
151629,-133.333333333333,4,1,0,20,0,1
151742,-133.333333333333,4,1,0,50,0,1
151970,-133.333333333333,4,1,0,20,0,1
152083,-133.333333333333,4,1,0,50,0,1
152538,-133.333333333333,4,1,0,20,0,1
152765,-133.333333333333,4,1,0,50,0,1
152992,-133.333333333333,4,1,0,20,0,1
153106,-133.333333333333,4,1,0,50,0,1
153333,-133.333333333333,4,1,0,20,0,1
153447,-133.333333333333,4,1,0,50,0,1
153977,-133.333333333333,4,1,0,20,0,1
154053,-133.333333333333,4,1,0,50,0,1
158674,-133.333333333333,4,1,0,50,0,0
158977,-133.333333333333,4,1,0,10,0,0
159015,-133.333333333333,4,1,0,50,0,0
159318,-133.333333333333,4,1,0,10,0,0
159356,-133.333333333333,4,1,0,50,0,0
159659,-133.333333333333,4,1,0,10,0,0
159697,-133.333333333333,4,1,0,50,0,0
160000,-133.333333333333,4,1,0,10,0,0
160038,-133.333333333333,4,1,0,50,0,0
162614,-133.333333333333,4,1,0,10,0,0
162652,-133.333333333333,4,1,0,50,0,0
162955,-133.333333333333,4,1,0,10,0,0
162992,-133.333333333333,4,1,0,50,0,0
163296,-133.333333333333,4,1,0,10,0,0
163333,-133.333333333333,4,1,0,50,0,0
163636,-133.333333333333,4,1,0,10,0,0
163674,-133.333333333333,4,1,0,50,0,0
166250,-133.333333333333,4,1,0,10,0,0
166288,-133.333333333333,4,1,0,50,0,0
166591,-133.333333333333,4,1,0,10,0,0
166629,-133.333333333333,4,1,0,50,0,0
166932,-133.333333333333,4,1,0,10,0,0
166970,-133.333333333333,4,1,0,50,0,0
167273,-133.333333333333,4,1,0,10,0,0
167311,-133.333333333333,4,1,0,50,0,0
169886,-133.333333333333,4,1,0,10,0,0
169924,-133.333333333333,4,1,0,50,0,0
170227,-133.333333333333,4,1,0,10,0,0
170265,-133.333333333333,4,1,0,50,0,0
170568,-133.333333333333,4,1,0,10,0,0
170606,-133.333333333333,4,1,0,50,0,0
170909,-133.333333333333,4,1,0,10,0,0
170947,-133.333333333333,4,1,0,50,0,0
171705,-133.333333333333,4,1,0,10,0,0
171742,-133.333333333333,4,1,0,50,0,0
172046,-133.333333333333,4,1,0,10,0,0
172083,-133.333333333333,4,1,0,50,0,0
172273,-133.333333333333,4,1,0,10,0,0
172311,-133.333333333333,4,1,0,50,0,0
172614,-133.333333333333,4,1,0,10,0,0
172652,-133.333333333333,4,1,0,50,0,0
172955,-133.333333333333,4,1,0,10,0,0
172992,-133.333333333333,4,1,0,50,0,0
180492,-133.333333333333,4,1,0,5,0,0

[HitObjects]
48,328,2311,6,0,L|192:328,1,140
281,328,2917,1,0,0:0:0:0:
285,332,3068,1,0,0:0:0:0:
289,336,3220,1,0,0:0:0:0:
79,150,3674,1,0,0:0:0:0:
356,192,4129,1,0,0:0:0:0:
219,64,4432,1,0,0:0:0:0:
177,246,4735,1,0,0:0:0:0:
356,192,5038,1,0,0:0:0:0:
60,66,5947,6,0,L|204:66,1,140
293,66,6553,1,0,0:0:0:0:
297,70,6705,1,0,0:0:0:0:
301,74,6856,1,0,0:0:0:0:
92,261,7311,1,0,0:0:0:0:
366,207,7765,1,0,0:0:0:0:
179,199,8068,1,0,0:0:0:0:
366,207,8371,1,0,0:0:0:0:
179,199,8674,1,0,0:0:0:0:
248,297,9583,6,0,L|388:297,1,140
481,297,10189,1,0,0:0:0:0:
485,301,10341,1,0,0:0:0:0:
489,305,10492,1,0,0:0:0:0:
324,78,10947,1,0,0:0:0:0:
45,111,11402,1,0,0:0:0:0:
142,270,11705,1,0,0:0:0:0:
232,106,12008,1,0,0:0:0:0:
48,216,12311,1,0,0:0:0:0:
235,211,12614,1,0,0:0:0:0:
138,52,12917,1,0,0:0:0:0:
140,161,13220,5,0,0:0:0:0:
256,192,13258,12,0,18674,0:0:0:0:
259,193,18788,5,0,0:0:0:0:
263,194,18902,1,0,0:0:0:0:
267,195,19015,1,0,0:0:0:0:
271,197,19129,1,0,0:0:0:0:
275,199,19242,1,0,0:0:0:0:
279,200,19356,1,0,0:0:0:0:
283,201,19470,1,0,0:0:0:0:
290,205,19583,5,0,0:0:0:0:
298,207,19697,1,0,0:0:0:0:
306,210,19811,1,0,0:0:0:0:
314,213,19924,1,0,0:0:0:0:
322,215,20038,1,0,0:0:0:0:
330,218,20152,1,0,0:0:0:0:
339,221,20265,1,0,0:0:0:0:
346,224,20379,1,0,0:0:0:0:
354,228,20492,5,0,0:0:0:0:
354,228,20606,1,0,0:0:0:0:
158,228,20720,2,0,L|98:143,1,105.000004005432
354,228,21061,2,0,L|414:143,1,105.000004005432
158,228,21402,2,0,L|84:154,1,105.000004005432
354,228,21743,2,0,L|427:154,1,105.000004005432
158,309,22083,1,0,0:0:0:0:
128,192,22311,5,0,0:0:0:0:
128,192,22424,1,0,0:0:0:0:
384,192,22538,2,0,L|399:88,1,105.000004005432
128,192,22879,2,0,L|113:88,1,105.000004005432
256,192,23220,2,0,L|256:29,2,157.500006008148
128,104,24129,5,0,0:0:0:0:
128,104,24242,1,0,0:0:0:0:
384,104,24356,2,0,P|437:141|469:183,1,105.000004005432
128,176,24697,2,0,P|75:213|43:255,1,105.000004005432
384,176,25038,2,0,P|437:213|469:255,1,105.000004005432
128,248,25379,2,0,P|75:285|43:327,1,105.000004005432
384,248,25720,1,0,0:0:0:0:
199,335,25947,5,0,0:0:0:0:
141,244,26061,1,0,0:0:0:0:
31,222,26174,1,0,0:0:0:0:
114,146,26288,1,0,0:0:0:0:
119,35,26402,5,0,0:0:0:0:
207,104,26515,1,0,0:0:0:0:
314,91,26629,1,0,0:0:0:0:
184,179,26742,6,0,P|264:184|434:97,1,262.500010013581
256,192,27765,5,0,0:0:0:0:
256,192,27879,1,0,0:0:0:0:
190,274,27992,2,0,L|123:355,1,105.000004005432
322,110,28333,2,0,L|389:29,1,105.000004005432
174,126,28674,2,0,L|93:59,1,105.000004005432
338,258,29015,2,0,L|419:325,1,105.000004005432
256,192,29356,1,0,0:0:0:0:
240,288,29583,5,0,0:0:0:0:
240,288,29697,1,0,0:0:0:0:
272,96,29811,2,0,P|226:59|176:58,1,105.000004005432
240,288,30152,2,0,P|286:325|336:326,1,105.000004005432
256,192,30492,2,0,P|231:154|178:222,2,157.500006008148
126,62,31402,5,0,0:0:0:0:
126,62,31515,1,0,0:0:0:0:
386,322,31629,2,0,L|306:242,1,105.000004005432
150,41,31970,2,0,L|214:133,1,105.000004005432
361,342,32311,2,0,L|297:250,1,105.000004005432
178,25,32652,2,0,L|225:126,1,105.000004005432
333,357,32992,1,0,0:0:0:0:
37,363,33220,5,0,0:0:0:0:
0,254,33333,1,0,0:0:0:0:
8,138,33447,1,0,0:0:0:0:
59,36,33561,1,0,0:0:0:0:
148,108,33674,5,0,0:0:0:0:
256,149,33788,1,0,0:0:0:0:
363,108,33902,1,0,0:0:0:0:
452,36,34015,6,0,P|513:193|462:380,1,350
52,62,35038,6,0,P|86:105|185:96,1,157.500006008148
211,80,35455,1,0,0:0:0:0:
244,69,35530,1,0,0:0:0:0:
279,68,35606,1,0,0:0:0:0:
312,79,35682,1,0,0:2:0:0:
335,105,35758,1,0,0:2:0:0:
343,138,35833,1,0,0:2:0:0:
335,172,35909,1,0,0:2:0:0:
307,194,35985,1,0,0:2:0:0:
272,199,36061,6,0,P|209:210|174:238,1,105.000004005432
58,286,36364,1,0,0:0:0:0:
79,313,36439,1,0,0:0:0:0:
108,332,36515,1,0,0:0:0:0:
142,339,36591,1,0,0:0:0:0:
176,334,36667,1,0,0:0:0:0:
206,318,36742,6,0,P|248:303|302:321,1,87.5000033378602
129,194,37008,1,0,0:0:0:0:
107,166,37083,1,0,0:0:0:0:
102,131,37159,1,0,0:2:0:0:
110,97,37235,1,0,0:2:0:0:
132,70,37311,1,0,0:2:0:0:
159,49,37386,5,0,0:2:0:0:
193,40,37462,1,0,0:2:0:0:
226,49,37538,1,0,0:2:0:0:
247,77,37614,1,0,0:2:0:0:
248,111,37689,1,0,0:2:0:0:
229,140,37765,1,0,0:2:0:0:
210,111,37841,1,0,0:2:0:0:
211,77,37916,1,0,0:2:0:0:
232,49,37992,1,0,0:2:0:0:
265,40,38068,1,0,0:2:0:0:
299,49,38144,1,0,0:2:0:0:
327,70,38220,1,0,0:2:0:0:
348,97,38296,5,0,0:2:0:0:
344,131,38371,1,0,0:2:0:0:
349,165,38447,1,0,0:2:0:0:
371,192,38523,1,0,0:2:0:0:
405,199,38599,1,0,0:2:0:0:
435,183,38674,1,0,0:2:0:0:
430,217,38750,5,0,0:2:0:0:
429,252,38826,1,0,0:2:0:0:
408,280,38902,1,0,0:2:0:0:
373,279,38977,1,0,0:2:0:0:
341,262,39053,1,0,0:2:0:0:
307,251,39129,1,0,0:2:0:0:
271,251,39205,5,0,0:2:0:0:
237,260,39280,1,0,0:2:0:0:
202,263,39356,1,0,0:2:0:0:
222,234,39432,1,0,0:2:0:0:
234,201,39508,1,0,0:2:0:0:
232,166,39583,1,0,0:2:0:0:
221,132,39659,5,0,0:2:0:0:
203,101,39735,1,0,0:2:0:0:
175,79,39811,2,0,P|145:65|122:61,1,52.5000020027161
292,32,40038,5,0,0:2:0:0:
164,63,40152,1,0,0:2:0:0:
195,191,40265,1,0,0:2:0:0:
323,160,40379,1,0,0:2:0:0:
372,81,40492,5,0,0:2:0:0:
244,112,40606,1,0,0:2:0:0:
275,240,40719,1,0,0:2:0:0:
403,209,40833,1,0,0:2:0:0:
451,129,40948,5,0,0:2:0:0:
323,160,41062,1,0,0:2:0:0:
354,288,41174,1,0,0:0:0:0:
482,257,41288,2,0,L|390:200,1,105.000004005432
390,69,41591,1,0,0:0:0:0:
338,98,41667,1,0,0:0:0:0:
288,129,41742,1,0,0:0:0:0:
239,164,41818,1,0,0:0:0:0:
193,202,41894,1,0,0:0:0:0:
155,248,41970,5,0,0:0:0:0:
129,301,42046,1,0,0:0:0:0:
141,358,42121,1,0,0:0:0:0:
185,318,42197,6,0,P|212:318|242:325,1,52.5000020027161
388,343,42424,6,0,P|376:314|376:289,1,52.5000020027161
383,244,42614,1,0,0:0:0:0:
384,195,42689,1,0,0:0:0:0:
365,149,42765,1,0,0:0:0:0:
328,116,42841,1,0,0:0:0:0:
281,99,42917,1,0,0:0:0:0:
234,113,42992,5,0,0:0:0:0:
197,145,43068,1,0,0:0:0:0:
181,191,43144,1,0,0:0:0:0:
196,237,43220,1,0,0:0:0:0:
235,265,43296,1,0,0:0:0:0:
283,262,43371,1,0,0:0:0:0:
321,230,43447,5,0,0:0:0:0:
330,181,43523,1,0,0:0:0:0:
307,137,43599,1,0,0:0:0:0:
262,116,43674,1,0,0:0:0:0:
214,129,43750,1,0,0:0:0:0:
185,169,43826,1,0,0:0:0:0:
186,218,43902,5,0,0:0:0:0:
216,256,43977,1,0,0:0:0:0:
263,267,44053,1,0,0:0:0:0:
307,247,44129,1,0,0:0:0:0:
330,203,44205,1,0,0:0:0:0:
321,155,44280,1,0,0:0:0:0:
284,122,44356,5,0,0:0:0:0:
234,120,44432,1,0,0:0:0:0:
194,149,44508,1,0,0:0:0:0:
181,195,44583,1,0,0:0:0:0:
198,240,44659,1,0,0:0:0:0:
239,266,44735,2,0,P|272:266|309:247,1,70.0000026702882
190,332,44962,5,0,0:0:0:0:
141,325,45038,1,0,0:0:0:0:
105,290,45114,1,0,0:0:0:0:
92,243,45189,1,0,0:0:0:0:
102,194,45265,1,0,0:0:0:0:
144,218,45341,5,0,0:0:0:0:
193,218,45417,1,0,0:0:0:0:
230,187,45492,1,0,0:0:0:0:
241,139,45568,1,0,0:0:0:0:
225,92,45644,1,0,0:0:0:0:
192,54,45720,2,0,P|232:69|292:56,1,105.000004005432
417,89,46023,5,0,0:0:0:0:
400,135,46099,1,0,0:0:0:0:
372,175,46174,1,0,0:0:0:0:
345,133,46250,1,0,0:0:0:0:
333,85,46326,1,0,0:0:0:0:
325,36,46402,5,0,0:0:0:0:
313,83,46477,1,0,0:0:0:0:
292,127,46553,1,0,0:0:0:0:
261,165,46629,1,0,0:0:0:0:
257,115,46705,1,0,0:0:0:0:
241,69,46780,1,0,0:0:0:0:
219,25,46856,5,0,0:0:0:0:
217,74,46932,1,0,0:0:0:0:
207,122,47008,1,0,0:0:0:0:
192,168,47083,1,0,0:0:0:0:
191,118,47159,1,0,0:0:0:0:
185,69,47235,1,0,0:0:0:0:
179,20,47311,5,0,0:0:0:0:
179,68,47386,1,0,0:0:0:0:
177,117,47462,1,0,0:0:0:0:
174,166,47538,6,0,P|139:163|103:148,1,70.0000026702882
24,257,47765,1,0,0:0:0:0:
35,304,47841,1,0,0:0:0:0:
72,335,47917,1,0,0:0:0:0:
120,340,47992,1,0,0:0:0:0:
165,320,48068,1,0,0:0:0:0:
194,280,48144,5,0,0:0:0:0:
242,289,48220,1,0,0:0:0:0:
285,265,48296,1,0,0:0:0:0:
300,218,48371,1,0,0:0:0:0:
293,169,48447,1,0,0:0:0:0:
267,126,48523,1,0,0:0:0:0:
358,151,48599,5,0,0:0:0:0:
404,165,48674,1,0,0:0:0:0:
451,152,48750,1,0,0:0:0:0:
486,118,48826,1,0,0:0:0:0:
483,68,48902,1,0,0:0:0:0:
457,26,48977,2,0,B|420:15|420:15|402:40|384:17|384:17|356:40|333:13|333:13|309:35|293:10,1,175.00000667572
178,57,49470,5,0,0:0:0:0:
172,60,49583,1,0,0:0:0:0:
166,63,49697,1,0,0:0:0:0:
160,66,49811,1,0,0:0:0:0:
154,69,49924,1,0,0:0:0:0:
148,72,50038,1,0,0:0:0:0:
93,75,56856,5,0,0:2:0:0:
93,75,56970,1,0,0:2:0:0:
93,75,57197,1,0,0:2:0:0:
321,75,57311,2,0,P|380:83|429:113,1,105.000004005432,0|0,0:2|0:2,0:2:0:0:
419,104,57652,1,0,0:2:0:0:
419,104,57879,1,0,0:2:0:0:
191,90,57992,2,0,P|132:98|83:128,1,105.000004005432,0|0,0:2|0:2,0:2:0:0:
179,177,58296,1,0,0:0:0:0:
227,210,58371,1,0,0:0:0:0:
276,243,58447,1,0,0:0:0:0:
325,276,58523,1,0,0:0:0:0:
374,309,58599,1,0,0:0:0:0:
422,341,58674,5,0,0:2:0:0:
422,341,58788,1,0,0:2:0:0:
422,341,59015,1,0,0:2:0:0:
90,341,59129,2,0,L|55:235,1,105.000004005432,0|0,0:2|0:2,0:2:0:0:
57,241,59470,1,0,0:2:0:0:
57,241,59583,2,0,P|95:188|48:120,2,157.500006008148
50,120,60492,5,0,0:2:0:0:
50,120,60606,1,0,0:2:0:0:
50,120,60833,1,0,0:2:0:0:
361,120,60947,2,0,L|467:120,1,105.000004005432,0|0,0:2|0:2,0:2:0:0:
466,120,61288,1,0,0:2:0:0:
466,120,61515,1,0,0:2:0:0:
156,102,61629,2,0,L|51:83,1,105.000004005432,0|0,0:2|0:2,0:2:0:0:
53,83,61970,1,0,0:2:0:0:
53,83,62197,1,0,0:2:0:0:
354,84,62311,2,0,L|453:47,1,105.000004005432,0|0,0:2|0:2,0:2:0:0:
453,48,62652,1,0,0:2:0:0:
453,48,62879,1,0,0:2:0:0:
168,68,62993,2,0,L|76:15,1,105.000004005432,0|0,0:2|0:2,0:2:0:0:
133,164,63296,5,0,0:0:0:0:
185,191,63371,1,0,0:0:0:0:
238,219,63447,1,0,0:0:0:0:
291,246,63523,1,0,0:0:0:0:
343,273,63599,1,0,0:0:0:0:
394,300,63674,1,0,0:0:0:0:
335,308,63750,1,0,0:0:0:0:
276,317,63826,1,0,0:0:0:0:
216,325,63902,1,0,0:0:0:0:
157,334,63977,1,0,0:0:0:0:
97,342,64053,1,0,0:0:0:0:
36,349,64129,6,0,P|37:198|164:115,1,315.000012016297
240,367,64924,1,0,0:0:0:0:
231,124,65038,2,0,P|80:147|18:284,1,315.000012016297
244,187,65833,1,0,0:0:0:0:
35,348,65947,2,0,P|19:252|37:198,1,140.000005340576
430,327,66629,1,0,0:0:0:0:
430,327,66856,2,0,P|433:244|357:343,1,315.000012016297
82,327,67652,1,0,0:0:0:0:
430,327,67765,6,0,L|469:169,2,157.500006008148
82,327,68674,2,0,L|43:169,2,157.500006008148
430,327,69583,2,0,L|469:169,2,157.500006008148
82,327,70492,2,0,P|50:229|199:104,1,315.000012016297
137,249,71402,6,0,P|183:310|259:324,1,157.500006008148
203,121,72083,1,0,0:0:0:0:
203,121,72311,2,0,P|137:248|259:324,1,315.000012016297
203,121,73106,1,0,0:0:0:0:
318,289,73220,2,0,P|235:325|172:302,2,157.500006008148
273,119,74129,2,0,P|177:134|143:175,2,140.000005340576
16,287,75038,2,0,B|57:307|47:237|81:264|81:264|105:244|108:279|136:245|136:245|174:249|201:222|201:222|227:206|249:211|286:192|286:192|306:183|338:175|381:159|381:159|397:153,1,420.000016021729
346,333,76174,2,0,P|390:353|448:336,2,105.000004005432
84,53,76856,6,0,P|149:43|225:53,1,140.000005340576
222,161,77197,2,0,P|152:151|83:161,1,140.000005340576
82,269,77538,2,0,P|151:259|221:269,1,140.000005340576
221,377,77879,2,0,P|151:367|82:377,1,140.000005340576
82,269,78220,1,0,0:0:0:0:
256,192,78447,1,0,0:0:0:0:
68,70,78674,6,0,B|106:74|142:64|142:64|174:64,1,105.000004005432
370,250,79129,1,0,0:0:0:0:
414,120,79242,1,0,0:0:0:0:
455,250,79356,1,0,0:0:0:0:
346,169,79470,2,0,P|406:204|481:170,1,157.500006008148
72,238,80038,5,0,0:0:0:0:
182,155,80151,1,0,0:0:0:0:
46,157,80265,1,0,0:0:0:0:
156,236,80379,2,0,P|105:189|114:108,1,157.500006008148
438,238,80947,1,0,0:0:0:0:
328,155,81060,1,0,0:0:0:0:
464,157,81174,1,0,0:0:0:0:
354,236,81288,2,0,P|405:189|396:108,1,157.500006008148
309,69,81856,5,0,0:0:0:0:
234,25,81970,1,0,0:0:0:0:
234,112,82083,1,0,0:0:0:0:
284,25,82197,1,0,0:0:0:0:
209,69,82311,2,0,P|255:67|284:112,1,105.000004005432
314,212,82765,1,0,0:0:0:0:
359,342,82878,1,0,0:0:0:0:
399,212,82992,1,0,0:0:0:0:
290,292,83106,2,0,P|349:257|424:291,1,157.500006008148
219,143,83674,5,0,0:0:0:0:
81,140,83787,1,0,0:0:0:0:
192,62,83901,1,0,0:0:0:0:
150,190,84015,2,0,P|164:122|109:62,1,157.500006008148
256,192,84583,1,0,0:0:0:0:
256,192,84697,1,0,0:0:0:0:
256,192,84811,1,0,0:0:0:0:
256,192,84924,1,0,0:0:0:0:
255,37,85038,1,0,0:0:0:0:
165,317,85151,1,0,0:0:0:0:
403,144,85265,1,0,0:0:0:0:
108,144,85380,1,0,0:0:0:0:
346,317,85492,1,0,0:0:0:0:
63,278,85947,6,0,P|103:226|142:211,1,105.000004005432
372,102,86402,1,0,0:0:0:0:
463,50,86515,1,0,0:0:0:0:
462,156,86629,1,0,0:0:0:0:
372,102,86742,2,0,P|291:108|232:160,1,157.500006008148
142,187,87311,5,0,0:0:0:0:
51,135,87424,1,0,0:0:0:0:
52,241,87538,1,0,0:0:0:0:
142,187,87651,2,0,P|223:193|282:245,1,157.500006008148
367,272,88220,1,0,0:0:0:0:
458,220,88333,1,0,0:0:0:0:
457,326,88447,1,0,0:0:0:0:
367,272,88560,2,0,P|286:278|227:330,1,157.500006008148
58,278,89129,5,0,0:0:0:0:
156,243,89242,1,0,0:0:0:0:
58,202,89356,1,0,0:0:0:0:
156,165,89470,1,0,0:0:0:0:
59,125,89583,2,0,P|78:94|140:60,1,105.000004005432
301,243,90038,1,0,0:0:0:0:
391,113,90152,1,0,0:0:0:0:
457,257,90265,1,0,0:0:0:0:
383,204,90379,2,0,L|248:106,1,157.500006008148
211,243,90947,5,0,0:0:0:0:
121,113,91061,1,0,0:0:0:0:
55,257,91174,1,0,0:0:0:0:
129,204,91288,2,0,L|264:106,1,157.500006008148
256,192,91856,1,0,0:0:0:0:
256,192,91970,1,0,0:0:0:0:
256,192,92083,1,0,0:0:0:0:
256,192,92197,1,0,0:0:0:0:
150,252,92311,1,0,0:0:0:0:
256,70,92425,1,0,0:0:0:0:
360,252,92538,1,0,0:0:0:0:
361,131,92652,1,0,0:0:0:0:
151,131,92765,1,0,0:0:0:0:
255,313,92879,1,0,0:0:0:0:
266,42,93220,6,0,P|335:31|404:43,1,140.000005340576,0|0,0:2|0:2,0:2:0:0:
403,153,93561,2,0,P|334:141|266:154,1,140.000005340576,0|0,0:2|0:2,0:2:0:0:
265,263,93902,2,0,P|334:252|403:264,1,140.000005340576,0|0,0:2|0:2,0:2:0:0:
402,374,94243,2,0,P|333:362|265:375,1,140.000005340576,0|0,0:2|0:2,0:2:0:0:
155,353,94583,1,0,0:2:0:0:
33,180,94811,1,0,0:2:0:0:
33,180,95038,2,0,B|75:176|123:180|123:180|172:174|219:180|219:180|255:171|284:180|284:180|305:169|323:180|323:180|334:167|351:180,1,315.000012016297,0|0,0:2|0:2,0:2:0:0:
342,174,95796,1,0,0:0:0:0:
342,174,95871,1,0,0:2:0:0:
342,174,95947,1,0,0:2:0:0:
50,96,96856,6,0,P|99:50|174:50,1,140.000005340576,0|0,0:2|0:2,0:2:0:0:
272,87,97197,2,0,P|236:141|272:211,1,140.000005340576,0|0,0:2|0:2,0:2:0:0:
153,203,97538,2,0,P|102:252|98:322,1,140.000005340576,0|0,0:2|0:2,0:2:0:0:
210,328,97879,2,0,P|258:289|336:294,1,140.000005340576,0|0,0:2|0:2,0:2:0:0:
433,346,98220,1,0,0:2:0:0:
205,176,98447,1,0,0:2:0:0:
424,61,98674,2,0,P|357:67|327:137,1,140.000005340576,0|0,0:2|0:2,0:2:0:0:
413,201,99015,2,0,P|357:238|280:231,1,140.000005340576,0|0,0:2|0:2,0:2:0:0:
173,241,99356,2,0,P|170:283|137:312,1,87.5000033378602,0|0,0:2|0:2,0:2:0:0:
242,359,99583,2,0,P|295:320|355:360,1,140.000005340576,0|0,0:2|0:2,0:2:0:0:
456,307,99924,2,0,P|448:229|479:167,1,140.000005340576,0|0,0:2|0:2,0:2:0:0:
483,61,100265,1,0,0:0:0:0:
455,227,100492,5,0,0:0:0:0:
394,307,100947,2,0,L|335:247,1,70.0000026702882
242,330,101174,2,0,L|183:270,1,70.0000026702882
87,350,101402,6,0,L|10:271,1,105.000004005432
26,171,101742,1,0,0:0:0:0:
90,87,101856,1,0,0:0:0:0:
190,54,101970,1,0,0:0:0:0:
294,61,102083,5,0,0:0:0:0:
342,81,102159,1,0,0:0:0:0:
295,105,102235,1,0,0:0:0:0:
342,127,102311,1,0,0:0:0:0:
396,204,102424,6,0,B|363:196|363:196|358:219|358:219|312:191|151:223,1,262.500010013581
135,346,103182,6,0,L|224:328,1,87.5000033378602
417,319,103561,6,0,L|255:224,1,175.00000667572
211,186,104015,1,0,0:0:0:0:
151,73,104129,1,0,0:0:0:0:
176,67,104167,5,0,0:0:0:0:
227,63,104242,1,0,0:0:0:0:
276,80,104318,1,0,0:0:0:0:
313,117,104394,1,0,0:0:0:0:
332,166,104470,1,0,0:0:0:0:
329,218,104546,1,0,0:0:0:0:
306,265,104621,5,0,0:0:0:0:
264,298,104697,1,0,0:0:0:0:
212,310,104773,1,0,0:0:0:0:
160,299,104849,1,0,0:0:0:0:
118,267,104924,1,0,0:0:0:0:
211,186,105038,5,0,0:0:0:0:
275,202,105114,1,0,0:0:0:0:
340,201,105189,1,0,0:0:0:0:
403,181,105265,1,0,0:0:0:0:
442,127,105341,5,0,0:0:0:0:
429,114,105379,1,0,0:0:0:0:
417,100,105417,1,0,0:0:0:0:
405,86,105455,1,0,0:0:0:0:
394,72,105492,1,0,0:0:0:0:
362,56,105568,5,0,0:0:0:0:
345,63,105606,1,0,0:0:0:0:
270,51,105682,5,0,0:0:0:0:
221,71,105758,1,0,0:0:0:0:
169,77,105833,1,0,0:0:0:0:
66,52,105947,5,0,0:0:0:0:
138,128,106061,1,0,0:0:0:0:
36,153,106174,1,0,0:0:0:0:
107,229,106288,1,0,0:0:0:0:
209,206,106402,5,0,0:0:0:0:
219,154,106477,1,0,0:0:0:0:
254,115,106553,1,0,0:0:0:0:
303,97,106629,1,0,0:0:0:0:
354,108,106705,1,0,0:0:0:0:
392,141,106780,1,0,0:0:0:0:
342,158,106856,5,0,0:0:0:0:
306,196,106932,1,0,0:0:0:0:
295,247,107008,1,0,0:0:0:0:
309,296,107083,1,0,0:0:0:0:
347,332,107159,1,0,0:0:0:0:
397,345,107235,1,0,0:0:0:0:
409,293,107311,5,0,0:0:0:0:
394,243,107386,1,0,0:0:0:0:
355,206,107462,1,0,0:0:0:0:
303,194,107538,1,0,0:0:0:0:
253,212,107614,1,0,0:0:0:0:
219,251,107689,1,0,0:0:0:0:
208,302,107765,6,0,P|276:295|326:220,1,157.500006008148
177,168,108220,1,0,0:0:0:0:
326,119,108333,1,0,0:0:0:0:
177,70,108447,1,0,0:0:0:0:
326,21,108561,1,0,0:0:0:0:
475,70,108674,1,0,0:0:0:0:
392,192,108902,5,0,0:0:0:0:
195,86,109016,1,0,0:0:0:0:
195,297,109129,1,0,0:0:0:0:
256,192,109356,5,0,0:0:0:0:
256,192,109470,1,0,0:0:0:0:
256,192,109583,1,0,0:0:0:0:
256,56,109697,1,0,0:0:0:0:
256,328,109811,5,0,0:0:0:0:
256,328,109924,1,0,0:0:0:0:
256,192,110038,1,0,0:0:0:0:
120,192,110152,1,0,0:0:0:0:
120,192,110265,5,0,0:0:0:0:
391,192,110379,1,0,0:0:0:0:
342,319,110492,1,0,0:0:0:0:
342,319,110606,1,0,0:0:0:0:
303,82,110720,5,0,0:0:0:0:
284,127,110796,1,0,0:0:0:0:
263,82,110871,1,0,0:0:0:0:
243,127,110947,1,0,0:0:0:0:
221,82,111023,1,0,0:0:0:0:
123,89,111174,5,0,0:0:0:0:
118,95,111212,1,0,0:0:0:0:
113,101,111250,1,0,0:0:0:0:
108,107,111288,1,0,0:0:0:0:
103,113,111326,1,0,0:0:0:0:
98,119,111364,1,0,0:0:0:0:
93,125,111402,5,0,0:0:0:0:
71,152,111477,1,0,0:0:0:0:
160,194,111629,1,0,0:0:0:0:
168,228,111705,1,0,0:0:0:0:
261,200,111856,1,0,0:0:0:0:
249,233,111932,1,0,0:0:0:0:
344,252,112083,1,0,0:0:0:0:
354,285,112159,1,0,0:0:0:0:
260,315,112311,5,0,0:0:0:0:
245,346,112386,1,0,0:0:0:0:
158,299,112538,1,0,0:0:0:0:
162,333,112614,1,0,0:0:0:0:
77,284,112765,1,0,0:0:0:0:
52,258,112841,1,0,0:0:0:0:
118,186,112992,1,0,0:0:0:0:
129,152,113068,1,0,0:0:0:0:
155,57,113220,5,0,0:0:0:0:
190,56,113296,1,0,0:0:0:0:
222,68,113371,1,0,0:0:0:0:
249,89,113447,1,0,0:0:0:0:
266,119,113523,1,0,0:0:0:0:
271,153,113599,1,0,0:0:0:0:
267,187,113674,5,0,0:0:0:0:
232,180,113750,1,0,0:0:0:0:
197,188,113826,1,0,0:0:0:0:
167,206,113902,1,0,0:0:0:0:
145,233,113977,1,0,0:0:0:0:
133,266,114053,1,0,0:0:0:0:
173,253,114129,5,0,0:0:0:0:
213,239,114205,1,0,0:0:0:0:
252,226,114280,1,0,0:0:0:0:
292,213,114356,1,0,0:0:0:0:
332,200,114432,6,0,B|349:195|357:181|357:181|377:177|378:195|378:195|403:189|400:169|400:169|421:159|436:176|436:176|437:157|458:153|458:153,1,175.00000667572
373,24,115038,1,0,0:0:0:0:
352,80,115114,1,0,0:0:0:0:
331,135,115189,1,0,0:0:0:0:
310,190,115265,1,0,0:0:0:0:
288,245,115341,1,0,0:0:0:0:
268,301,115417,1,0,0:0:0:0:
247,356,115492,1,0,0:0:0:0:
57,280,122311,5,0,0:2:0:0:
57,280,122424,1,0,0:2:0:0:
57,280,122652,1,0,0:2:0:0:
283,149,122765,2,0,B|337:104|345:101|374:100,1,105.000004005432,0|0,0:2|0:2,0:2:0:0:
462,102,123106,1,0,0:2:0:0:
462,102,123333,1,0,0:2:0:0:
199,94,123447,2,0,B|131:94|117:95|99:115,1,105.000004005432,0|0,0:2|0:2,0:2:0:0:
53,163,123750,1,0,0:0:0:0:
90,196,123826,1,0,0:0:0:0:
126,228,123902,1,0,0:0:0:0:
162,260,123977,1,0,0:0:0:0:
198,293,124053,1,0,0:0:0:0:
234,325,124129,5,0,0:2:0:0:
234,325,124242,1,0,0:2:0:0:
234,325,124470,1,0,0:2:0:0:
250,65,124583,2,0,B|257:29|284:15|335:15,1,105.000004005432,0|0,0:2|0:2,0:2:0:0:
420,23,124924,1,0,0:2:0:0:
420,23,125038,2,0,P|443:92|389:153,2,157.500006008148
195,235,125947,5,0,0:2:0:0:
195,235,126061,1,0,0:2:0:0:
195,235,126250,1,0,0:2:0:0:
279,120,126402,2,0,L|279:11,1,105.000004005432,0|0,0:2|0:2,0:2:0:0:
279,14,126742,1,0,0:2:0:0:
279,14,126970,1,0,0:2:0:0:
279,263,127083,2,0,L|343:351,1,105.000004005432,0|0,0:2|0:2,0:2:0:0:
342,349,127423,1,0,0:2:0:0:
342,349,127651,1,0,0:2:0:0:
194,147,127765,2,0,L|90:114,1,105.000004005432,0|0,0:2|0:2,0:2:0:0:
93,115,128105,1,0,0:2:0:0:
93,115,128333,1,0,0:2:0:0:
331,191,128447,2,0,L|435:157,1,105.000004005432,0|0,0:2|0:2,0:2:0:0:
433,105,128750,5,0,0:0:0:0:
382,88,128826,1,0,0:0:0:0:
329,83,128902,1,0,0:0:0:0:
280,102,128977,1,0,0:0:0:0:
240,136,129053,1,0,0:0:0:0:
212,180,129129,1,0,0:0:0:0:
208,232,129205,1,0,0:0:0:0:
240,272,129280,1,0,0:0:0:0:
292,277,129356,1,0,0:0:0:0:
327,237,129432,1,0,0:0:0:0:
312,186,129508,1,0,0:0:0:0:
259,179,129583,6,0,P|184:71|314:53,1,315.000012016297
174,279,130379,1,0,0:0:0:0:
315,53,130492,2,0,P|445:70|370:178,1,315.000012016297
105,187,131288,1,0,0:0:0:0:
371,179,131402,2,0,P|309:238|343:298,1,157.500006008148
334,293,132083,1,0,0:0:0:0:
334,293,132311,2,0,L|116:48,1,315.000012016297
388,57,133106,1,0,0:0:0:0:
124,57,133220,6,0,L|79:216,2,157.500006008148
388,57,134129,2,0,L|433:216,2,157.500006008148
124,57,135038,2,0,L|79:216,2,157.500006008148
388,57,135947,2,0,B|321:89|256:57|256:57|256:234,1,315.000012016297
256,350,136856,6,0,L|256:188,1,157.500006008148
256,192,137538,1,0,0:0:0:0:
157,192,137765,2,0,P|256:91|354:192,1,315.000012016297
157,192,138561,1,0,0:0:0:0:
354,192,138674,6,0,P|312:109|255:91,2,157.500006008148
157,192,139583,2,0,P|199:109|256:91,2,157.500006008148
388,192,140492,2,0,P|256:57|123:192,1,420.000016021729
256,192,141629,2,0,L|256:298,2,105.000004005432
160,48,142311,6,0,L|256:151,1,140.000005340576
352,93,142652,2,0,L|256:196,1,140.000005340576
160,138,142992,2,0,L|256:241,1,140.000005340576
352,183,143333,2,0,L|256:286,1,140.000005340576
160,228,143674,1,0,0:0:0:0:
160,228,143902,1,0,0:0:0:0:
54,111,144129,6,0,B|68:99|68:99|80:106|81:88|81:88|93:94|93:94|92:78|92:78|110:81|110:81|135:67,1,105.000004005432
172,62,144432,1,0,0:0:0:0:
221,58,144508,1,0,0:0:0:0:
269,64,144583,1,0,0:0:0:0:
318,66,144659,1,0,0:0:0:0:
366,57,144735,1,0,0:0:0:0:
414,52,144811,1,0,0:0:0:0:
462,53,144886,2,0,P|469:136|428:217,1,175.00000667572
410,233,145303,1,0,0:0:0:0:
276,156,145379,1,0,0:0:0:0:
324,291,145455,6,0,P|260:315|206:313,1,122.500004673004
182,307,145758,1,0,0:0:0:0:
257,151,145833,1,0,0:0:0:0:
257,151,145871,1,0,0:0:0:0:
106,243,145947,6,0,P|69:184|65:123,1,122.500004673004
239,140,146288,1,0,0:0:0:0:
239,140,146326,1,0,0:0:0:0:
94,40,146402,6,0,P|119:66|172:103,1,87.5000033378602
183,105,146629,1,0,0:0:0:0:
265,41,146742,6,0,P|289:85|343:108,1,105.000004005432
348,23,147083,2,0,P|407:60|421:94,1,105.000004005432
337,107,147424,2,0,P|361:152|409:175,1,105.000004005432
444,250,147765,5,0,0:0:0:0:
388,255,147841,1,0,0:0:0:0:
333,241,147917,1,0,0:0:0:0:
281,220,147992,1,0,0:0:0:0:
226,206,148068,1,0,0:0:0:0:
169,205,148144,1,0,0:0:0:0:
114,219,148220,5,0,0:0:0:0:
51,135,148333,1,0,0:0:0:0:
155,122,148447,1,0,0:0:0:0:
92,36,148561,6,0,P|169:16|243:64,1,157.500006008148
259,105,148977,1,0,0:0:0:0:
252,164,149053,1,0,0:0:0:0:
139,158,149242,5,0,0:0:0:0:
343,107,149356,1,0,0:0:0:0:
285,309,149470,1,0,0:0:0:0:
168,276,149697,5,0,0:0:0:0:
372,225,149811,1,0,0:0:0:0:
226,74,149925,1,0,0:0:0:0:
256,192,150038,5,0,0:0:0:0:
190,167,150114,1,0,0:0:0:0:
169,100,150189,1,0,0:0:0:0:
100,85,150265,1,0,0:0:0:0:
52,137,150341,1,0,0:0:0:0:
73,204,150417,1,0,0:0:0:0:
141,219,150492,1,0,0:0:0:0:
423,50,150720,5,0,0:0:0:0:
423,120,150796,1,0,0:0:0:0:
423,85,150833,6,0,B|309:85|300:85|300:117,1,140.000005340576
300,185,151212,5,0,0:0:0:0:
275,209,151250,1,0,0:0:0:0:
250,233,151288,1,0,0:0:0:0:
225,257,151326,1,0,0:0:0:0:
200,281,151364,1,0,0:0:0:0:
175,305,151402,6,0,L|281:305,1,105.000004005432
175,192,151742,2,0,L|281:192,1,105.000004005432
175,79,152083,6,0,L|387:79,1,210.000008010865
384,296,152765,6,0,L|384:190,1,105.000004005432
256,296,153106,2,0,L|256:190,1,105.000004005432
128,296,153447,6,0,L|128:37,1,245.000009346009
256,50,154053,1,0,0:0:0:0:
256,50,154242,5,0,0:0:0:0:
398,192,154356,1,0,0:0:0:0:
256,334,154470,1,0,0:0:0:0:
114,192,154583,1,0,0:0:0:0:
114,192,154811,5,0,0:0:0:0:
88,127,154886,1,0,0:0:0:0:
98,57,154962,1,0,0:0:0:0:
152,12,155038,2,0,L|258:12,1,105.000004005432
152,156,155379,2,0,L|258:156,1,105.000004005432
152,84,155720,2,0,L|258:84,1,105.000004005432
152,228,156061,2,0,L|258:228,1,105.000004005432
152,372,156402,2,0,L|258:372,1,105.000004005432
152,300,156742,2,0,L|258:300,1,105.000004005432
257,300,157083,5,0,0:0:0:0:
257,194,157197,1,0,0:0:0:0:
362,194,157311,1,0,0:0:0:0:
362,298,157424,1,0,0:0:0:0:
362,298,157538,5,0,0:0:0:0:
324,260,157576,1,0,0:0:0:0:
286,222,157614,1,0,0:0:0:0:
248,184,157652,1,0,0:0:0:0:
211,147,157689,1,0,0:0:0:0:
173,109,157727,1,0,0:0:0:0:
135,71,157765,2,0,L|73:9,1,87.5000033378602
97,109,157992,1,0,0:0:0:0:
36,170,158068,5,0,0:0:0:0:
74,208,158106,1,0,0:0:0:0:
112,246,158144,2,0,L|217:141,1,140.000005340576
249,108,158485,5,0,0:0:0:0:
287,146,158523,1,0,0:0:0:0:
325,184,158561,1,0,0:0:0:0:
363,222,158599,1,0,0:0:0:0:
400,259,158636,1,0,0:0:0:0:
438,297,158674,6,0,L|368:174,1,140.000005340576,0|0,0:2|0:2,0:2:0:0:
368,297,159015,2,0,L|298:174,1,140.000005340576,0|0,0:2|0:2,0:2:0:0:
298,297,159356,2,0,L|228:174,1,140.000005340576,0|0,0:2|0:2,0:2:0:0:
228,297,159697,2,0,L|158:174,1,140.000005340576,0|0,0:2|0:2,0:2:0:0:
158,297,160038,1,0,0:2:0:0:
89,175,160265,1,0,0:2:0:0:
46,60,160492,2,0,B|105:92|199:90|199:90|259:47|364:60,1,315.000012016297,0|0,0:2|0:2,0:2:0:0:
397,82,161250,1,0,0:2:0:0:
433,119,161326,1,0,0:0:0:0:
456,166,161402,1,0,0:2:0:0:
122,343,162311,6,0,P|69:343|19:275,1,140.000005340576,0|0,0:2|0:2,0:2:0:0:
130,260,162652,2,0,P|84:233|74:149,1,140.000005340576,0|0,0:2|0:2,3:2:0:0:
179,193,162992,2,0,P|152:147|186:69,1,140.000005340576,0|0,0:2|0:2,0:2:0:0:
255,159,163333,2,0,P|255:106|323:56,1,140.000005340576,0|0,0:2|0:2,3:2:0:0:
337,169,163674,1,0,0:2:0:0:
407,310,163902,1,0,0:2:0:0:
407,310,164129,5,0,0:2:0:0:
427,250,164205,1,0,0:2:0:0:
420,188,164280,1,0,0:2:0:0:
394,130,164356,1,0,0:2:0:0:
351,83,164432,1,0,0:2:0:0:
293,56,164508,1,0,0:2:0:0:
230,51,164583,5,0,0:0:0:0:
269,100,164659,1,0,0:2:0:0:
284,161,164734,1,0,0:2:0:0:
279,224,164810,1,0,0:2:0:0:
255,283,164886,1,0,0:2:0:0:
210,328,164962,1,0,0:2:0:0:
151,351,165038,5,0,0:2:0:0:
171,291,165114,1,0,0:2:0:0:
164,229,165189,1,0,0:2:0:0:
138,171,165265,1,0,0:2:0:0:
95,124,165341,1,0,0:2:0:0:
38,97,165417,1,0,0:2:0:0:
38,97,165492,6,0,P|68:56|126:37,1,105.000004005432
256,16,165947,6,0,L|373:102,1,140.000005340576,0|0,0:2|0:2,0:2:0:0:
256,98,166288,2,0,L|139:184,1,140.000005340576,0|0,0:2|0:2,0:2:0:0:
256,180,166629,2,0,L|373:266,1,140.000005340576,0|0,0:2|0:2,0:2:0:0:
256,262,166970,2,0,L|139:348,1,140.000005340576,0|0,0:2|0:2,0:2:0:0:
256,344,167311,1,0,0:2:0:0:
256,344,167538,1,0,0:2:0:0:
442,370,167765,2,0,B|428:279|384:226|384:226|397:134|326:82,1,315.000012016297,0|0,0:2|0:2,0:2:0:0:
280,68,168523,1,0,0:2:0:0:
227,64,168599,1,0,0:0:0:0:
176,76,168674,1,0,0:2:0:0:
166,349,169583,6,0,L|86:232,1,140.000005340576,0|0,0:2|0:2,0:2:0:0:
194,270,169924,2,0,L|158:132,1,140.000005340576,0|0,0:2|0:2,0:2:0:0:
248,205,170265,2,0,L|261:63,1,140.000005340576,0|0,0:2|0:2,0:2:0:0:
321,163,170606,2,0,L|382:35,1,140.000005340576,0|0,0:2|0:2,0:2:0:0:
404,148,170947,1,0,0:2:0:0:
346,349,171174,1,0,0:2:0:0:
346,349,171401,6,0,L|426:232,1,140.000005340576,0|0,0:2|0:2,0:2:0:0:
318,270,171742,2,0,L|353:132,1,140.000005340576,0|0,0:2|0:2,0:2:0:0:
256,192,172083,2,0,L|256:286,1,87.5000033378602,0|0,0:2|0:2,0:2:0:0:
166,349,172311,2,0,L|86:232,1,140.000005340576,0|0,0:2|0:2,0:2:0:0:
194,270,172652,2,0,L|158:132,1,140.000005340576,0|0,0:2|0:2,0:2:0:0:
256,192,172992,1,0,0:0:0:0:
256,192,173220,1,0,0:0:0:0:
256,192,173333,1,0,0:0:0:0:
256,192,173674,12,0,180492,0:0:0:0:
