osu file format v12

[General]
AudioFilename: Judgement Day.mp3
AudioLeadIn: 0
PreviewTime: 55789
Countdown: 0
SampleSet: Soft
StackLeniency: 0.7
Mode: 2
LetterboxInBreaks: 1
WidescreenStoryboard: 0

[Editor]
DistanceSpacing: 2
BeatDivisor: 2
GridSize: 8
TimelineZoom: 1

[Metadata]
Title:Judgement Day
TitleUnicode:Judgement Day
Artist:MintJam
ArtistUnicode:MintJam
Creator:Kuroi-kun
Version:rain
Source:Million Knights Vermilion
Tags:game arcade pc
BeatmapID:380882
BeatmapSetID:155241

[Difficulty]
HPDrainRate:7
CircleSize:4
OverallDifficulty:8
ApproachRate:9
SliderMultiplier:2.00999990463257
SliderTickRate:1

[Events]
//Background and Video events
0,0,"untitled_yuri.jpg",0,0
//Break Periods
//Storyboard Layer 0 (Background)
//Storyboard Layer 1 (Fail)
//Storyboard Layer 2 (Pass)
//Storyboard Layer 3 (Foreground)
//Storyboard Sound Samples
//Background Colour Transformations
3,100,163,162,255

[TimingPoints]
213,333.33703707819,4,2,1,100,1,0
10546,-133.333333333333,4,2,1,100,0,0
56213,-100,4,2,1,100,0,1
75797,-100,4,2,1,100,0,1
90880,-66.6666666666667,4,2,1,100,0,0

[HitObjects]
131,143,10546,5,0,0:0:0:0:
166,141,10712,1,0,0:0:0:0:
130,164,10796,1,0,0:0:0:0:
168,166,10879,1,0,0:0:0:0:
129,185,10962,1,0,0:0:0:0:
173,189,11046,1,0,0:0:0:0:
126,214,11129,1,0,0:0:0:0:
167,216,11212,1,0,0:0:0:0:
128,236,11296,1,0,0:0:0:0:
169,238,11379,1,0,0:0:0:0:
126,264,11462,1,0,0:0:0:0:
170,263,11546,1,0,0:0:0:0:
127,287,11629,1,0,0:0:0:0:
174,295,11712,1,0,0:0:0:0:
321,285,11879,5,2,0:0:0:0:
51,245,12046,5,0,0:0:0:0:
25,207,12212,5,0,0:0:0:0:
58,168,12379,5,0,0:0:0:0:
370,139,12546,5,0,0:0:0:0:
74,94,12712,5,0,0:0:0:0:
341,41,12879,1,0,0:0:0:0:
363,84,12962,1,0,0:0:0:0:
335,114,13046,1,0,0:0:0:0:
95,28,13379,1,0,0:0:0:0:
151,25,13712,1,0,0:0:0:0:
179,22,13879,1,0,0:0:0:0:
210,24,14046,1,0,0:0:0:0:
241,24,14212,1,0,0:0:0:0:
276,26,14379,1,0,0:0:0:0:
422,27,14546,1,2,0:0:0:0:
51,93,14712,5,0,0:0:0:0:
29,125,14879,1,0,0:0:0:0:
115,182,15046,2,0,L|360:228,1,226.124997897148
417,56,15712,5,0,0:0:0:0:
459,108,15879,1,0,0:0:0:0:
315,60,16046,1,0,0:0:0:0:
272,109,16212,1,0,0:0:0:0:
365,142,16379,1,0,0:0:0:0:
364,177,16546,1,0,0:0:0:0:
363,210,16712,1,2,0:0:0:0:
114,216,16879,5,0,0:0:0:0:
148,193,17046,1,0,0:0:0:0:
181,167,17212,1,0,0:0:0:0:
323,206,17379,1,0,0:0:0:0:
406,190,17546,1,0,0:0:0:0:
358,122,17712,1,0,0:0:0:0:
290,103,17879,1,0,0:0:0:0:
32,119,18046,5,0,0:0:0:0:
400,88,18212,1,0,0:0:0:0:
432,144,18379,5,2,0:0:0:0:
33,204,18712,1,0,0:0:0:0:
69,171,19046,1,0,0:0:0:0:
377,194,19212,5,0,0:0:0:0:
116,216,19379,1,0,0:0:0:0:
399,256,19546,5,0,0:0:0:0:
430,288,19712,1,0,0:0:0:0:
394,329,19879,1,2,0:0:0:0:
343,335,20046,1,0,0:0:0:0:
280,336,20212,1,0,0:0:0:0:
224,336,20379,1,2,0:0:0:0:
370,240,20879,5,2,0:0:0:0:
32,96,21212,1,0,0:0:0:0:
72,128,21379,1,0,0:0:0:0:
112,168,21546,1,0,0:0:0:0:
144,200,21712,5,0,0:0:0:0:
442,182,21879,5,0,0:0:0:0:
444,242,22046,1,0,0:0:0:0:
256,192,22546,12,0,24546,0:0:0:0:
130,71,25212,5,0,0:0:0:0:
85,104,25379,1,0,0:0:0:0:
50,144,25546,1,0,0:0:0:0:
350,73,25712,1,0,0:0:0:0:
380,104,25879,1,0,0:0:0:0:
415,144,26046,1,0,0:0:0:0:
88,216,26212,5,0,0:0:0:0:
432,220,26379,1,0,0:0:0:0:
425,278,26546,1,0,0:0:0:0:
376,312,26712,1,0,0:0:0:0:
385,327,26879,2,0,L|147:263,1,226.124997897148
182,104,27546,5,0,0:0:0:0:
43,154,27712,5,0,0:0:0:0:
89,111,27879,1,0,0:0:0:0:
132,150,28046,1,0,0:0:0:0:
360,120,28212,5,0,0:0:0:0:
199,118,28379,1,0,0:0:0:0:
424,197,28546,1,0,0:0:0:0:
195,195,28712,1,0,0:0:0:0:
211,224,28879,1,0,0:0:0:0:
179,230,29046,6,0,L|411:352,1,226.124997897148
32,288,29712,5,0,0:0:0:0:
75,243,29879,1,0,0:0:0:0:
27,215,30046,1,0,0:0:0:0:
60,172,30212,1,0,0:0:0:0:
340,119,30379,1,0,0:0:0:0:
82,49,30546,5,0,0:0:0:0:
147,46,30713,1,0,0:0:0:0:
214,46,30879,1,0,0:0:0:0:
280,46,31046,1,0,0:0:0:0:
346,43,31213,1,0,0:0:0:0:
27,215,31379,5,0,0:0:0:0:
58,257,31546,1,0,0:0:0:0:
95,291,31713,1,0,0:0:0:0:
392,160,31879,5,0,0:0:0:0:
219,158,32046,1,0,0:0:0:0:
48,160,32213,1,0,0:0:0:0:
125,160,32379,2,0,L|373:163,1,226.124997897148
37,316,33046,5,0,0:0:0:0:
127,286,33213,1,0,0:0:0:0:
215,251,33379,1,0,0:0:0:0:
300,199,33546,1,0,0:0:0:0:
16,8,33713,5,0,0:0:0:0:
0,56,33879,1,0,0:0:0:0:
2,96,34046,1,0,0:0:0:0:
0,134,34213,1,0,0:0:0:0:
0,173,34379,2,0,B|231:226,1,226.124997897148
262,91,35046,1,0,0:0:0:0:
322,109,35213,1,0,0:0:0:0:
458,167,35379,5,0,0:0:0:0:
460,208,35546,1,0,0:0:0:0:
462,249,35713,1,0,0:0:0:0:
74,221,35879,5,2,0:0:0:0:
109,195,36046,1,0,0:0:0:0:
153,170,36213,1,0,0:0:0:0:
203,159,36379,1,0,0:0:0:0:
243,171,36546,1,0,0:0:0:0:
275,196,36713,1,0,0:0:0:0:
301,226,36879,1,2,0:0:0:0:
32,272,37046,5,0,0:0:0:0:
320,272,37379,1,0,0:0:0:0:
32,152,37713,5,0,0:0:0:0:
304,144,38046,5,0,0:0:0:0:
512,200,38213,5,0,0:0:0:0:
448,224,38379,1,0,0:0:0:0:
384,248,38546,1,0,0:0:0:0:
360,72,38713,5,0,0:0:0:0:
344,72,39046,1,0,0:0:0:0:
288,72,39213,1,0,0:0:0:0:
240,72,39379,1,0,0:0:0:0:
176,88,39546,1,0,0:0:0:0:
136,104,39713,1,0,0:0:0:0:
96,128,39879,1,0,0:0:0:0:
56,160,40046,1,0,0:0:0:0:
424,108,40213,5,0,0:0:0:0:
384,120,40379,1,0,0:0:0:0:
320,136,40546,1,0,0:0:0:0:
256,152,40713,1,0,0:0:0:0:
192,176,40879,1,0,0:0:0:0:
120,192,41046,1,0,0:0:0:0:
56,208,41213,1,0,0:0:0:0:
352,176,41379,5,0,0:0:0:0:
304,216,41546,1,0,0:0:0:0:
368,240,41713,1,0,0:0:0:0:
288,256,41879,1,0,0:0:0:0:
104,280,42046,1,0,0:0:0:0:
368,320,42213,5,0,0:0:0:0:
304,288,42379,1,0,0:0:0:0:
248,256,42713,1,0,0:0:0:0:
120,144,43046,1,0,0:0:0:0:
368,176,43213,1,0,0:0:0:0:
376,208,43379,1,0,0:0:0:0:
376,248,43463,1,0,0:0:0:0:
376,288,43546,1,0,0:0:0:0:
48,288,43713,5,0,0:0:0:0:
168,272,43879,1,0,0:0:0:0:
296,256,44046,1,0,0:0:0:0:
448,224,44213,1,0,0:0:0:0:
136,168,44379,1,0,0:0:0:0:
200,160,44546,1,0,0:0:0:0:
256,152,44713,1,0,0:0:0:0:
432,96,44879,5,0,0:0:0:0:
384,104,45046,1,0,0:0:0:0:
328,112,45213,1,2,0:0:0:0:
64,120,45379,1,0,0:0:0:0:
112,88,45546,1,0,0:0:0:0:
168,64,45713,1,0,0:0:0:0:
240,40,45879,1,0,0:0:0:0:
160,256,46046,5,0,0:0:0:0:
448,256,46213,5,0,0:0:0:0:
469,203,46380,2,0,B|376:168|352:184|360:168|352:160|344:176|336:160|328:168|320:152|312:160|304:144|280:152|280:136|256:152|240:128|232:144|200:104|176:128|160:104|136:128|104:96|88:128|24:88|24:160|208:224|248:240|232:264|264:280,1,602.999994392395
120,240,47879,1,0,0:0:0:0:
272,248,48213,1,0,0:0:0:0:
352,216,48379,1,0,0:0:0:0:
176,112,48713,1,0,0:0:0:0:
336,104,49046,1,0,0:0:0:0:
80,64,49379,1,0,0:0:0:0:
376,96,49546,1,0,0:0:0:0:
144,192,49879,5,0,0:0:0:0:
64,208,50546,1,0,0:0:0:0:
336,176,51046,5,0,0:0:0:0:
400,136,51213,1,0,0:0:0:0:
88,128,51546,5,0,0:0:0:0:
160,120,51879,1,0,0:0:0:0:
256,80,52213,1,0,0:0:0:0:
440,56,52379,1,0,0:0:0:0:
296,224,53379,1,0,0:0:0:0:
336,192,53546,1,0,0:0:0:0:
368,160,53713,1,0,0:0:0:0:
408,144,53879,1,0,0:0:0:0:
456,104,54046,1,0,0:0:0:0:
112,88,54213,5,0,0:0:0:0:
288,64,54379,1,0,0:0:0:0:
192,168,54546,1,0,0:0:0:0:
104,264,54713,1,0,0:0:0:0:
16,328,54879,1,2,0:0:0:0:
360,48,55879,5,0,0:0:0:0:
336,64,55963,1,0,0:0:0:0:
312,80,56046,1,0,0:0:0:0:
288,96,56129,1,0,0:0:0:0:
264,112,56213,1,0,0:0:0:0:
240,128,56296,1,0,0:0:0:0:
216,144,56379,1,0,0:0:0:0:
192,160,56463,1,0,0:0:0:0:
168,176,56546,1,0,0:0:0:0:
136,200,56629,1,0,0:0:0:0:
112,216,56713,1,0,0:0:0:0:
448,216,56796,5,0,0:0:0:0:
408,240,56879,5,0,0:0:0:0:
368,264,56963,5,0,0:0:0:0:
144,280,57213,5,2,0:0:0:0:
400,80,57379,5,0,0:0:0:0:
384,112,57546,1,0,0:0:0:0:
360,144,57713,1,0,0:0:0:0:
16,56,57879,5,0,0:0:0:0:
48,56,58046,1,0,0:0:0:0:
104,56,58213,1,0,0:0:0:0:
152,56,58379,1,2,0:0:0:0:
0,128,58546,5,0,0:0:0:0:
48,128,58713,1,0,0:0:0:0:
96,128,58879,1,0,0:0:0:0:
144,128,59046,1,0,0:0:0:0:
0,208,59213,5,2,0:0:0:0:
56,208,59379,1,0,0:0:0:0:
104,208,59546,1,0,0:0:0:0:
152,208,59713,1,0,0:0:0:0:
432,288,59879,5,0,0:0:0:0:
168,304,60046,5,0,0:0:0:0:
239,278,60213,5,2,0:0:0:0:
281,222,60380,1,0,0:0:0:0:
316,157,60546,1,0,0:0:0:0:
341,100,60713,1,0,0:0:0:0:
365,47,60880,1,0,0:0:0:0:
30,84,61046,5,0,0:0:0:0:
64,112,61213,1,0,0:0:0:0:
78,132,61297,1,0,0:0:0:0:
104,144,61380,1,0,0:0:0:0:
152,176,61546,1,0,0:0:0:0:
184,192,61713,1,0,0:0:0:0:
216,216,61880,1,0,0:0:0:0:
256,256,62046,1,0,0:0:0:0:
488,272,62213,5,0,0:0:0:0:
400,272,62380,5,0,0:0:0:0:
120,312,62546,5,2,0:0:0:0:
152,312,62713,1,0,0:0:0:0:
200,312,62880,1,0,0:0:0:0:
248,312,63046,1,0,0:0:0:0:
291,318,63213,1,0,0:0:0:0:
0,192,63380,5,0,0:0:0:0:
16,176,63463,1,0,0:0:0:0:
32,152,63546,1,0,0:0:0:0:
40,128,63630,1,0,0:0:0:0:
56,112,63713,1,0,0:0:0:0:
64,96,63796,1,0,0:0:0:0:
356,208,64046,5,0,0:0:0:0:
80,224,64213,1,0,0:0:0:0:
424,136,64380,1,0,0:0:0:0:
384,88,64546,1,0,0:0:0:0:
352,48,64713,1,0,0:0:0:0:
288,64,64880,1,0,0:0:0:0:
240,88,65046,1,0,0:0:0:0:
208,104,65130,1,0,0:0:0:0:
160,128,65213,1,0,0:0:0:0:
0,136,65380,5,0,0:0:0:0:
32,120,65546,1,0,0:0:0:0:
64,104,65713,1,0,0:0:0:0:
88,88,65880,1,0,0:0:0:0:
48,224,66046,5,0,0:0:0:0:
88,224,66213,1,0,0:0:0:0:
144,224,66380,1,0,0:0:0:0:
208,224,66463,1,0,0:0:0:0:
272,232,66546,1,0,0:0:0:0:
423,48,66713,5,2,0:0:0:0:
304,96,66880,1,0,0:0:0:0:
152,144,67046,1,2,0:0:0:0:
8,216,67213,1,2,0:0:0:0:
456,264,67380,5,2,0:0:0:0:
408,280,67546,1,0,0:0:0:0:
360,304,67713,1,0,0:0:0:0:
320,312,67796,1,0,0:0:0:0:
280,320,67880,1,0,0:0:0:0:
32,304,68046,5,0,0:0:0:0:
72,256,68213,1,0,0:0:0:0:
334,232,68380,1,0,0:0:0:0:
304,192,68546,1,0,0:0:0:0:
256,152,68713,1,0,0:0:0:0:
200,112,68796,1,0,0:0:0:0:
160,80,68880,1,0,0:0:0:0:
0,48,69046,5,0,0:0:0:0:
40,72,69213,1,0,0:0:0:0:
72,96,69380,1,0,0:0:0:0:
96,120,69546,1,0,0:0:0:0:
128,144,69713,1,0,0:0:0:0:
160,168,69796,1,0,0:0:0:0:
192,184,69880,1,0,0:0:0:0:
248,224,70046,1,0,0:0:0:0:
57,276,70213,5,0,0:0:0:0:
432,240,70380,1,0,0:0:0:0:
408,272,70463,1,0,0:0:0:0:
384,304,70546,1,0,0:0:0:0:
120,304,70713,5,0,0:0:0:0:
184,288,70880,1,0,0:0:0:0:
248,272,71046,1,0,0:0:0:0:
296,248,71130,1,0,0:0:0:0:
344,232,71213,1,0,0:0:0:0:
448,40,71380,5,0,0:0:0:0:
432,152,71546,1,0,0:0:0:0:
352,168,71713,1,0,0:0:0:0:
52,206,72046,5,0,0:0:0:0:
368,160,72380,5,0,0:0:0:0:
352,240,72713,5,0,0:0:0:0:
296,264,72880,1,0,0:0:0:0:
232,272,73046,1,0,0:0:0:0:
176,280,73130,1,0,0:0:0:0:
128,296,73213,1,0,0:0:0:0:
88,304,73380,1,0,0:0:0:0:
8,128,73546,5,0,0:0:0:0:
64,160,73713,1,0,0:0:0:0:
120,192,73880,1,0,0:0:0:0:
176,232,74046,1,0,0:0:0:0:
232,264,74213,1,0,0:0:0:0:
464,264,74380,5,0,0:0:0:0:
432,208,74546,1,0,0:0:0:0:
392,152,74713,1,0,0:0:0:0:
344,96,74880,1,0,0:0:0:0:
14,80,75046,5,0,0:0:0:0:
64,80,75213,1,0,0:0:0:0:
136,88,75380,1,0,0:0:0:0:
208,88,75546,1,0,0:0:0:0:
280,88,75713,1,0,0:0:0:0:
500,70,75880,2,0,L|-59:305,1,602.999971389771
432,265,77047,1,0,0:0:0:0:
16,120,77213,5,0,0:0:0:0:
96,96,77380,1,0,0:0:0:0:
152,80,77547,1,0,0:0:0:0:
334,170,77880,5,0,0:0:0:0:
88,136,78046,5,0,0:0:0:0:
160,136,78213,1,0,0:0:0:0:
232,136,78380,1,0,0:0:0:0:
304,136,78546,1,0,0:0:0:0:
0,96,78713,5,0,0:0:0:0:
64,128,78880,1,0,0:0:0:0:
120,168,79046,1,0,0:0:0:0:
176,208,79213,1,0,0:0:0:0:
464,240,79380,5,0,0:0:0:0:
416,192,79546,1,0,0:0:0:0:
352,144,79713,1,0,0:0:0:0:
304,96,79880,1,0,0:0:0:0:
0,264,80046,5,0,0:0:0:0:
40,200,80213,1,0,0:0:0:0:
80,144,80380,1,0,0:0:0:0:
64,312,80546,5,0,0:0:0:0:
104,256,80713,1,0,0:0:0:0:
152,200,80880,1,0,0:0:0:0:
152,336,81046,5,0,0:0:0:0:
192,272,81213,1,0,0:0:0:0:
232,208,81380,1,0,0:0:0:0:
456,128,81546,5,0,0:0:0:0:
392,112,81713,1,0,0:0:0:0:
328,104,81880,1,0,0:0:0:0:
264,88,82046,1,0,0:0:0:0:
64,216,82213,5,0,0:0:0:0:
160,240,82380,1,0,0:0:0:0:
304,272,82546,1,0,0:0:0:0:
424,304,82713,1,0,0:0:0:0:
120,320,82880,5,0,0:0:0:0:
168,304,83046,1,0,0:0:0:0:
216,288,83130,1,0,0:0:0:0:
256,280,83213,1,0,0:0:0:0:
32,80,83380,5,0,0:0:0:0:
32,104,83546,1,0,0:0:0:0:
32,144,83713,1,0,0:0:0:0:
24,176,83880,1,0,0:0:0:0:
32,208,84046,1,0,0:0:0:0:
32,248,84213,1,0,0:0:0:0:
32,280,84380,1,0,0:0:0:0:
408,232,84546,5,0,0:0:0:0:
352,248,84713,1,0,0:0:0:0:
296,264,84880,1,0,0:0:0:0:
240,288,85046,1,0,0:0:0:0:
40,200,85213,5,0,0:0:0:0:
240,192,85380,1,0,0:0:0:0:
456,200,85546,1,0,0:0:0:0:
32,320,85713,5,0,0:0:0:0:
248,328,85880,1,0,0:0:0:0:
472,336,86046,1,0,0:0:0:0:
240,64,86213,5,0,0:0:0:0:
240,128,86380,1,0,0:0:0:0:
240,192,86546,1,0,0:0:0:0:
240,256,86713,1,0,0:0:0:0:
36,302,86880,2,0,B|176:208|424:80|512:56|-106:131,1,803.999961853028
252,188,88713,1,0,0:0:0:0:
256,192,89130,12,0,90880,0:0:0:0:
