osu file format v9

[General]
AudioFilename: Kyoukai Senjou no Horizon Opening HD.mp3
AudioLeadIn: 0
PreviewTime: 59344
Countdown: 0
SampleSet: Soft
StackLeniency: 0.7
Mode: 0
LetterboxInBreaks: 0

[Editor]
DistanceSpacing: 0.7
BeatDivisor: 4
GridSize: 4

[Metadata]
Title:Terminated (TV Size)
Artist:Minori Chihara
Creator:JudgeTheDude
Version:Normal
Source:Kyoukai Senjou no Horizon
Tags:opening elements garden

[Difficulty]
HPDrainRate:4
CircleSize:4
OverallDifficulty:3
ApproachRate:4
SliderMultiplier:1.1
SliderTickRate:1

[Events]
//Background and Video events
Video,0,"Video.wmv"
0,0,"Kyoukai.jpg"
//Break Periods
//Storyboard Layer 0 (Background)
//Storyboard Layer 1 (Fail)
//Storyboard Layer 2 (Pass)
//Storyboard Layer 3 (Foreground)
//Storyboard Sound Samples
//Background Colour Transformations
3,100,163,162,255

[TimingPoints]
7057,384.615384615385,4,1,0,60,1,0
19364,-100,4,2,0,60,0,0
43114,-100,4,1,0,60,0,0
43691,-100,4,2,0,60,0,0
47057,-100,4,2,0,80,0,0
59364,-100,4,1,0,70,0,1
82441,-100,4,1,0,60,0,0

[Colours]
Combo1 : 17,136,255
Combo2 : 255,207,45
Combo3 : 128,128,128

[HitObjects]
256,192,7057,1,4
340,216,7441,2,0,B|340:144,1,55,2|0
396,92,8018,2,2,B|284:92,1,110
168,32,8980,5,8
100,88,9364,1,0
168,144,9749,1,8
240,196,10133,5,4
308,140,10518,2,0,B|352:92,1,55,2|0
328,16,11095,2,2,B|432:16|432:116,1,165
380,184,12057,5,8
348,100,12441,1,0
312,184,12826,1,8
272,260,13210,2,0,B|181:244|169:144,1,165
300,132,14364,1,0
256,192,14749,12,4,17633
356,232,19364,6,0,B|256:312|136:224,1,220,0|2
256,192,20518,1,0
356,152,20903,2,0,B|256:72|136:160,1,220,0|2
256,300,22441,5,0
320,240,22826,2,0,B|320:160,1,55,0|2
320,96,23403,1,0
248,144,23787,2,0,B|192:144,1,55,0|2
104,144,24364,1,0
104,188,24557,2,0,B|104:264|184:264,1,110,2|4
300,268,25518,1,0
320,356,25903,6,0,B|392:356|392:268,1,110
392,200,26672,1,0
392,112,27057,1,2
316,156,27441,2,0,B|236:156,1,55,0|2
292,72,28018,1,2
192,156,28595,6,0,B|192:256,2,82.5,0|0|0
152,156,29364,1,2
84,116,29749,1,2
84,192,30133,1,4
144,292,30710,2,4,B|200:292,1,55,2|4
412,192,31672,6,2,B|380:216|444:312|412:352,2,165
476,132,33210,1,0
412,72,33595,1,0
348,132,33980,1,0
112,140,34749,5,0
112,216,35133,2,2,B|112:248|148:248,1,55
224,248,35710,1,0
284,200,36095,2,0,B|392:200|392:80,2,165
272,84,37826,5,0
192,120,38210,2,0,B|148:168|192:220,1,110
260,168,38980,2,0,B|304:220|260:268,1,110
188,308,39749,1,0
188,220,40133,2,0,B|78:220,2,110,2|0|2
264,220,41287,6,2,B|320:220,1,55,4|4
384,260,41864,1,4
384,184,42249,1,4
196,220,43210,2,0,B|256:220,2,55
224,148,43980,6,0,B|144:96|60:148,1,165,2|0
40,168,44749,2,2,B|4:220|44:292,1,110
96,224,45518,1,0
172,224,45903,2,0,B|284:224|284:224,1,110,8|0
336,276,46672,1,8
392,224,47057,6,0,B|432:172|392:112,1,110,0|8
336,168,47826,2,0,B|301:117|341:65,1,110,0|8
397,121,48595,1,0
476,120,48980,2,2,B|476:48,2,55,10|2|2
252,60,50133,6,0,B|136:60,1,110,2|4
196,132,50903,2,0,B|306:132,1,110,2|4
256,204,51672,1,2
228,288,52056,2,4,B|256:308|288:280,1,55,2|4
332,168,52826,1,0
332,84,53210,6,8,B|92:84,1,220,8|2
76,152,54364,2,0,B|76:216,1,55,0|2
112,316,55133,6,0,B|224:316,1,110
224,240,55903,2,2,B|452:240|452:240|452:80,1,385,2|0
336,80,57826,6,4,B|252:80,2,82.5
256,280,59364,5,4
256,192,59749,2,0,B|312:192,1,55,0|2
256,124,60326,2,0,B|188:124,1,55
256,56,60903,1,0
336,88,61287,1,0
364,124,61480,2,4,B|402:182|364:236,1,110,8|4
244,184,62441,5,0
172,216,62826,2,2,B|172:140,1,55
124,104,63403,2,4,B|176:60|232:112,1,110
316,172,64364,1,0
408,240,64941,6,0,B|456:272,3,55
472,196,65903,1,8
408,152,66287,2,2,B|276:152,1,110
240,204,67056,2,4,B|196:140|256:84,2,110
300,156,68210,1,0
376,156,68595,5,2
452,156,68980,1,0
376,156,69364,1,2
376,232,69749,1,0
376,156,70133,2,4,B|376:56,2,82.5,2|0|4
256,308,71672,5,4
256,232,72056,2,0,B|384:232,2,110
256,156,73210,1,4
256,80,73595,2,0,B|146:80,2,110
332,80,74749,5,4
404,108,75133,2,0,B|356:160,1,55
436,180,75710,1,0
420,296,76287,6,0,B|496:344,2,82.5,4|0|0
256,192,77826,5,2
256,116,78210,2,0,B|328:116,1,55,0|2
256,220,78980,2,2,B|256:275,2,55,2|0|4
408,248,80133,2,2,B|280:248,1,110,2|0
220,248,80903,1,4
196,176,81287,5,2
256,128,81672,1,4
316,176,82056,1,2
292,248,82441,1,4
216,248,82826,6,4,B|152:240|140:176,2,110
256,192,83980,12,4,86480
