osu file format v9

[General]
AudioFilename: Kyoukai Senjou no Horizon Opening HD.mp3
AudioLeadIn: 0
PreviewTime: 59344
Countdown: 0
SampleSet: Soft
StackLeniency: 0.7
Mode: 0
LetterboxInBreaks: 0

[Editor]
DistanceSpacing: 0.8
BeatDivisor: 4
GridSize: 4

[Metadata]
Title:Terminated (TV Size)
Artist:Minori Chihara
Creator:JudgeTheDude
Version:Hard
Source:Kyoukai Senjou no Horizon
Tags:opening elements garden

[Difficulty]
HPDrainRate:6
CircleSize:4
OverallDifficulty:5
ApproachRate:7
SliderMultiplier:1.8
SliderTickRate:1

[Events]
//Background and Video events
Video,0,"Video.wmv"
0,0,"Kyoukai.jpg"
//Break Periods
//Storyboard Layer 0 (Background)
//Storyboard Layer 1 (Fail)
//Storyboard Layer 2 (Pass)
//Storyboard Layer 3 (Foreground)
//Storyboard Sound Samples
//Background Colour Transformations
3,100,163,162,255

[TimingPoints]
7057,384.615384615385,4,1,0,60,1,0
19364,-100,4,2,0,60,0,0
47057,-100,4,2,0,80,0,0
59364,-100,4,1,0,70,0,1
82441,-100,4,1,0,60,0,0

[Colours]
Combo1 : 17,136,255
Combo2 : 255,207,45
Combo3 : 128,128,128

[HitObjects]
256,248,7057,5,4
124,192,7441,2,8,B|124:64,1,90
256,44,8018,1,0
388,100,8403,2,4,B|388:228,1,90,8|4
316,192,8787,5,2
316,264,8980,1,0
256,192,9172,1,2
256,264,9364,1,0
196,192,9557,1,2
196,264,9749,1,4
256,132,10133,5,0
396,172,10518,2,4,B|396:300,1,90
260,316,11095,1,0
124,264,11480,2,4,B|124:148,1,90
220,84,12057,6,8,B|348:84,1,90
264,152,12441,2,0,B|136:152,1,90
216,220,12826,2,8,B|344:220,1,90
384,260,13210,2,0,B|376:324|348:368|256:384|164:368|136:324|128:260,1,360
36,68,14364,5,0
200,68,14749,2,8,B|110:68,1,90
68,136,15133,2,0,B|158:136,1,90
204,204,15518,2,8,B|114:204,1,90
162,272,15903,2,8,B|354:272,1,180
216,340,16672,6,0,B|256:376|304:336,1,90,0|4
256,204,17249,1,0
256,276,17441,1,4
256,192,17633,8,0,18980
64,64,19364,5,0
64,64,19557,1,0
64,64,19749,1,0
64,64,19941,2,8,B|64:176|184:176,1,180,8|0
232,128,20518,1,0
300,156,20710,1,2
300,228,20903,5,0
232,256,21095,1,2
175,208,21287,2,8,B|64:208|64:320,1,180,0|8
464,44,22441,6,8,B|500:135|464:236,1,180
424,276,23018,2,8,B|332:312|232:276,1,180,8|2
284,220,23595,2,0,B|332:196|376:224,2,90
280,56,24364,5,8
332,104,24557,1,8
384,56,24749,1,8
452,80,24941,2,4,B|332:180|204:80,1,270
64,104,25903,6,8,B|6:191|84:296,1,180
212,276,26672,2,8,B|274:194|216:106,1,180,8|8
80,152,27441,2,4,B|48:192|80:236,1,90
216,192,28018,1,0
144,32,28595,6,0,B|104:96|148:168,1,135
240,209,29172,2,4,B|267:165|244:124,1,90
380,256,29749,2,2,B|428:168|372:64,1,180
184,172,30710,1,0
256,172,30903,2,2,B|384:172,1,90
346,172,31287,1,4
160,244,31672,5,0
108,192,31864,1,8
160,140,32057,1,0
212,192,32249,2,0,B|308:192,1,90
440,232,32826,5,0
380,192,33018,1,8
440,156,33210,1,0
304,192,33595,2,8,B|188:192|188:320,1,180,8|0
148,164,34364,1,4
64,48,34749,6,2,B|155:23|256:48,1,180,2|0
312,68,35326,1,8
448,120,35710,2,2,B|520:212|432:288,1,180,2|0
388,328,36287,1,8
244,344,36672,2,2,B|152:344|80:272,1,180,2|0
40,220,37249,1,8
124,60,37826,6,8,B|212:32|316:64,1,180
372,80,38403,1,0
388,296,38980,2,8,B|300:323|196:292,1,180,8|8
88,224,39749,1,2
88,80,40133,1,0
88,224,40518,1,8
232,228,40903,5,8
232,228,41287,2,4,B|344:228,1,90
440,312,41864,2,2,B|492:232|440:132,1,180,4|4
248,228,42826,1,0
176,104,43210,1,0
320,104,43595,1,0
248,228,43980,5,0
192,320,44268,1,0
136,228,44556,1,0
192,184,44749,1,2
112,64,45133,2,0,B|196:0|284:72,1,180
192,264,46095,2,4,B|192:172,1,90
116,296,46672,5,0
252,240,47057,1,0
360,221,47345,2,0,B|360:136|276:136,1,135
208,160,47826,2,0,B|200:268|332:308,1,180,2|2
376,288,48403,1,0
436,248,48595,2,0,B|496:168|432:68,1,180,2|0
376,40,49172,1,0
316,80,49364,2,0,B|256:160|320:260,1,180,2|0
156,64,50133,5,0
156,208,50518,1,2
300,208,50903,1,0
304,64,51287,1,2
228,188,51672,1,2
184,52,52056,2,0,B|232:32|280:56,1,90,0|2
376,240,52826,6,0,B|456:180|420:80,1,180,0|2
316,104,53499,1,2
244,24,53787,2,0,B|197:54|200:106,1,90,0|2
188,204,54268,2,0,B|184:279|271:288,1,135,2|0
344,300,54749,1,2
432,192,55133,6,0,B|348:140|240:196,1,180,2|0
340,304,55903,2,0,B|256:356|148:300,1,180
96,308,56480,1,2
76,240,56672,1,0
132,196,56864,1,4
188,240,57057,1,0
168,308,57249,1,0
96,308,57441,1,2
76,240,57633,1,0
92,168,57826,6,4,B|152:112|212:172,1,135
152,260,58403,1,4
256,96,59364,5,4
120,140,59749,2,0,B|79:185|132:236,1,90
260,184,60326,1,8
300,48,60710,2,0,B|254:30|212:48,1,90
260,184,61287,2,0,B|214:202|172:184,1,90,4|2
220,48,61864,1,0
448,192,62441,5,0
272,148,62826,1,0
272,236,63018,1,0
116,144,63403,1,0
116,232,63595,1,0
192,184,63787,2,0,B|460:184|460:184|460:284,1,360
432,80,64941,5,0
356,32,65133,1,0
280,80,65326,1,0
356,128,65518,1,0
304,256,65807,1,2
188,188,66095,6,0,B|210:144|188:96,1,90
16,148,66672,1,0
16,328,67056,1,0
192,296,67441,2,2,B|256:235|256:235|193:168,1,180
360,236,68210,1,0
368,32,68595,5,8
372,168,68883,1,8
236,168,69172,1,8
304,228,69364,1,2
304,92,69653,1,8
304,228,69941,1,8
304,316,70133,1,2
304,180,70422,1,8
176,140,70710,2,2,B|304:80|444:140,1,270
304,260,71672,5,4
256,88,72056,1,8
348,88,72249,1,8
304,260,72633,1,2
296,80,73018,2,2,B|328:132|276:196,1,90
216,328,73595,2,2,B|184:276|236:212,1,90
108,96,74172,1,8
360,192,74749,5,0
216,192,75133,2,2,B|88:192,1,90
126,192,75710,1,0
396,192,76287,5,8
280,264,76576,2,0,B|248:192|280:124,1,135,8|0
448,64,77826,5,2
268,64,78210,1,8
360,64,78403,1,8
88,64,78980,1,8
176,64,79172,1,8
268,64,79364,2,0,B|384:40|444:116,1,180
256,148,80133,2,0,B|176:188|68:136,1,180
4,304,80903,2,0,B|220:452|280:152|512:308,1,540
420,192,82441,1,0
256,96,82826,5,0
256,276,83210,1,0
104,192,83595,1,0
284,192,83980,1,0
464,192,84364,6,4,B|483:152|464:104,1,90
284,104,84941,2,4,B|265:144|284:192,1,90
284,192,85326,1,0
436,284,85710,2,0,B|436:352|384:384|308:364,1,180
348,280,86287,6,4,B|292:204,1,90
