osu file format v9

[General]
AudioFilename: Kyoukai Senjou no Horizon Opening HD.mp3
AudioLeadIn: 0
PreviewTime: 59344
Countdown: 0
SampleSet: Normal
StackLeniency: 0.7
Mode: 0
LetterboxInBreaks: 0

[Editor]
DistanceSpacing: 1
BeatDivisor: 4
GridSize: 4

[Metadata]
Title:Terminated (TV Size)
Artist:Minori Chihara
Creator:JudgeTheDude
Version:Easy
Source:Kyoukai Senjou no Horizon
Tags:opening elements garden

[Difficulty]
HPDrainRate:2
CircleSize:3
OverallDifficulty:2
ApproachRate:2
SliderMultiplier:0.999999999999999
SliderTickRate:1

[Events]
//Background and Video events
Video,0,"Video.wmv"
0,0,"Kyoukai.jpg"
//Break Periods
//Storyboard Layer 0 (Background)
//Storyboard Layer 1 (Fail)
//Storyboard Layer 2 (Pass)
//Storyboard Layer 3 (Foreground)
//Storyboard Sound Samples
//Background Colour Transformations
3,100,163,162,255

[TimingPoints]
7057,384.615384615385,4,1,0,60,1,0
19364,-100,4,2,0,60,0,0
47057,-100,4,2,0,80,0,0
59364,-100,4,1,0,70,0,1
82441,-100,4,1,0,60,0,0

[Colours]
Combo1 : 17,136,255
Combo2 : 255,207,45
Combo3 : 128,128,128

[HitObjects]
416,160,7057,1,4
416,60,7441,2,8,B|264:8|120:56,1,300,8|0
120,156,8980,2,0,B|248:156|344:156,1,200,8|8
420,156,10133,5,0
420,256,10518,2,8,B|268:304|124:264,1,300,8|0
124,164,12057,1,8
224,164,12441,1,0
324,164,12826,1,8
424,164,13210,6,2,B|552:164|552:356|428:356,1,300,6|0
428,260,14749,2,0,B|328:260,1,99.9999999999999,0|2
328,160,15518,2,0,B|224:160,1,99.9999999999999,0|2
228,60,16287,5,4
80,60,16864,2,0,B|80:168,1,99.9999999999999,2|0
80,260,17633,1,0
232,260,18210,1,0
332,260,18595,1,0
432,260,18980,1,0
436,156,19364,6,0,B|284:156,1,150,4|0
164,60,20518,1,0
164,156,20903,2,0,B|164:280|288:280,1,200,2|0
436,144,22441,6,0,B|436:296,1,150,0|2
336,296,23403,1,2
236,296,23787,2,0,B|180:296,1,50
84,296,24364,2,0,B|84:144,1,150,2|0
284,96,25903,5,0
384,96,26287,1,2
424,188,26672,1,0
384,280,27057,2,0,B|242:388|104:297,1,300,2|2
104,200,28595,6,0,B|0:200,2,99.9999999999999,2|0|0
204,200,29749,1,2
252,284,30133,2,2,B|284:268|324:204|288:124|256:108,1,200,6|2
172,52,31287,1,0
64,52,31672,5,4
20,196,32249,1,4
68,340,32826,2,0,B|320:340,1,250,4|0
416,228,34364,1,0
416,128,34749,5,0
316,128,35133,2,0,B|260:128,1,50,2|0
164,128,35710,2,0,B|12:128,1,150,0|2
12,228,36672,2,0,B|112:228|92:304|192:304,1,200,0|2
276,356,37826,6,4,B|444:356|444:100|276:100,1,400
88,160,40133,2,2,B|184:200,1,99.9999999999999
272,240,40903,1,4
288,340,41287,2,0,B|404:297|404:297|360:177,1,250,0|4
128,320,43980,5,0
328,320,44749,1,2
328,120,45518,1,0
128,120,46287,1,2
128,320,47056,6,8,B|352:320,1,200,0|2
428,316,48210,2,2,B|428:188,1,99.9999999999999
296,64,49364,1,2
344,252,50133,6,0,B|476:252|476:108,1,200,2|0
476,32,51287,1,2
376,32,51672,2,0,B|244:32|244:168,1,200,2|4
104,300,53210,6,0,B|304:300|304:300|304:88,1,400,6|6
204,100,55133,5,0
104,100,55518,1,2
104,200,55903,2,0,B|104:312|104:312|392:312,1,400,2|0
392,212,57826,2,0,B|228:212|228:212|180:80,1,300,4|0
276,56,59364,6,4,B|460:56|460:252,1,300
392,320,60903,2,4,B|80:320,1,300,4|0
68,224,62441,6,4,B|252:80|432:244,1,400
348,300,64364,1,0
252,324,64749,1,0
152,340,65133,1,2
52,336,65518,6,2,B|52:228,1,99.9999999999999
52,136,66287,2,0,B|120:64,1,99.9999999999999,0|2
220,60,67056,2,0,B|360:60|360:196,1,200,2|4
256,352,68595,6,0,B|68:348|68:140,1,300
100,68,70133,2,0,B|252:4|396:80,1,300,2|4
436,168,71672,5,0
392,256,72056,2,0,B|284:256|184:256,1,200
116,188,73210,2,4,B|116:28|332:28,1,300,0|4
404,92,74749,6,0,B|404:300,1,200
304,296,75903,1,0
204,296,76287,2,4,B|204:204,2,74.9999999999999
320,68,77826,5,0
320,168,78210,1,0
372,256,78595,1,0
272,256,78980,1,0
172,256,79364,2,4,B|172:32,1,200
272,56,80518,1,0
372,60,80903,6,2,B|488:60|488:264|372:264,1,300,0|0
272,264,82441,1,0
172,264,82826,6,2,B|56:263|56:59|172:59,1,300,0|4
256,192,84364,12,4,86480
