osu file format v5

[General]
AudioFilename: ga rei zero.mp3
AudioLeadIn: 0
PreviewTime: -1
Countdown: 1
SampleSet: Normal
StackLeniency: 0.7
Mode: 0
LetterboxInBreaks: 1
EditorBookmarks: 6467,7724,8128,9071,9431,10419,36422,36646,37589,37724,38443,40464,47559,47739,47919,48098,48278,48458

[Metadata]
Title:Paradise Lost ( TV Rip Version )
Artist:Minori Chihara
Creator:alvisto
Version:Hard
Source:Ga Rei Zero
Tags:Ga Rei Zero Minori Chihara Paradise Lost

[Difficulty]
HPDrainRate:5
CircleSize:5
OverallDifficulty:4
SliderMultiplier:1.4
SliderTickRate:1

[Events]
//Background and Video events
//Break Periods
//Storyboard Layer 0 (Background)
//Storyboard Layer 1 (Failing)
//Storyboard Layer 2 (Passing)
//Storyboard Layer 3 (Foreground)
//Storyboard Sound Samples
//Background Colour Transformations
3,100,163,162,255

[TimingPoints]
0,359.281437125748,4,1,0,73,1,0
18120,-100,4,2,0,73,0,0
32768,-100,4,1,0,49,0,0
38443,-100,4,2,0,73,0,0
40778,-100,4,1,0,26,0,0
47427,-100,4,1,0,68,0,0
52059,-100,4,2,0,68,0,0
53062,-100,4,1,0,65,0,0
60134,-100,4,2,0,65,0,0
61139,-100,4,2,0,65,0,0
63251,-100,4,1,0,100,0,0
64401,-100,4,1,0,69,0,0
73697,-100,4,2,0,81,0,0
74820,-100,4,1,0,100,0,0
75842,-100,4,2,0,100,0,0
80475,-100,4,1,0,100,0,0
81590,-100,4,2,0,100,0,0
84731,-100,4,2,0,100,0,0
85553,-100,4,1,0,100,0,0

[Colours]
Combo1 : 249,244,57
Combo2 : 46,199,153
Combo3 : 24,117,220
Combo4 : 223,21,82
Combo5 : 239,83,16

[HitObjects]
64,64,6467,2,0,B|160:160|224:224|288:288|288:288|320:288|352:288|384:274|404:258|415:228,1,490
417,48,8128,2,0,B|326:144|312:186|308:210|306:237|301:278|288:309|259:326|216:325|196:325,1,367.5
40,238,9431,2,0,B|45:199|51:173|68:159|88:133|110:124|145:117|181:115|208:116|224:124|232:141|254:159|272:180|279:204|293:221|305:240|320:249,1,385
367,283,10643,5,8
384,160,11047,1,0
384,160,11182,1,8
394,90,11407,1,8
473,253,11991,1,4
379,281,12305,6,0,B|198:283|185:230|186:172|217:149|266:132|316:135|367:135|391:135|411:136|427:149|429:171|419:189|388:204|353:207|313:205|297:205|271:205|231:200|215:179|187:156|183:131|188:107|205:81|227:63|248:57|263:55|302:49|329:50|361:51|375:51|397:51|423:51|439:61|437:80|433:99|414:118|387:131|360:131|326:131|306:128|286:112|243:91|223:85|187:72|87:75,1,1137.5
128,124,15538,1,2
240,128,15898,2,8,B|240:148|241:164|238:165,2,35
379,133,16526,1,0
384,224,16841,1,0
384,224,17065,1,0
288,288,17425,1,0
224,288,17604,1,4
70,65,18502,5,0
98,113,18682,1,0
131,158,18862,1,0
165,201,19041,1,0
239,284,19401,1,0
360,318,19805,1,0
412,337,19985,1,2
436,287,20164,2,0,B|485:241|497:200|496:173|488:143|475:128|448:113|431:102|410:99|380:92|361:94|342:95|314:102,1,350
190,125,21422,5,0
140,149,21601,1,0
104,192,21781,1,0
85,244,21961,1,0
102,296,22140,1,0
145,331,22320,1,0
235,294,22634,1,0
267,248,22814,1,2
289,196,22994,2,0,B|301:157|312:137|322:124|333:114|351:105|377:99|405:101|430:100|443:110|459:120|476:134|496:166|496:186|493:207|490:233|478:261|465:277|447:297|437:306,1,402.5
358,340,24341,5,0
308,315,24520,1,0
273,270,24700,1,0
250,160,25059,1,0
255,90,25284,1,0
334,32,25598,1,0
389,41,25778,1,0
435,72,25958,1,0
318,172,26452,5,0
268,198,26631,1,0
206,232,26856,1,0
50,51,27619,1,0
89,90,27799,1,2
119,137,27979,1,0
188,135,28203,2,2,B|268:150|316:178|326:224|327:270|301:300|277:326|245:349|205:346|177:313|173:273|177:245|175:214,1,437.5
371,52,30134,5,0
352,96,30314,1,0
352,96,30494,1,0
320,160,30673,1,0
224,224,31032,1,0
320,224,31392,1,0
320,224,31571,1,0
320,224,31751,2,0,B|320:160|320:112|320:112|208:112|208:112|208:160|208:160|144:160,1,332.5
64,272,33053,5,0
112,300,33233,1,0
160,320,33413,1,0
215,325,33592,1,0
271,326,33772,1,0
323,306,33952,1,0
413,239,34311,1,0
440,190,34491,1,0
457,137,34670,1,0
80,64,35883,5,0
123,98,36062,1,0
85,139,36242,1,0
120,182,36422,2,0,B|121:208|133:220|150:223|176:228,1,87.5
224,229,36826,1,0
326,154,37185,1,0
375,127,37365,1,0
376,196,37589,2,0,B|407:200|428:223,1,52.5
448,268,37904,1,0
458,322,38083,1,0
431,371,38263,1,0
375,360,38443,2,0,B|332:364|312:363|286:361|268:356|251:348|233:338|218:329|204:318|194:307|184:295|180:278|172:262|171:247|168:229|169:212|170:200|172:183|180:164|192:143|203:134|215:122|228:113|244:104|264:93|278:87|296:84|307:82|329:80|352:80|366:80|395:81|410:85|432:99|442:115|449:132|457:143|462:160|464:182|466:203|468:222|469:242|468:256|464:270|434:295,1,787.5
256,256,41047,5,8
256,128,41407,1,10
256,256,41766,1,8
256,128,42125,1,10
256,256,42485,1,8
256,128,42844,1,10
256,256,43203,1,8
256,128,43562,1,10
256,256,43922,1,8
256,128,44281,1,10
256,256,44640,1,8
256,128,44999,1,10
256,256,45359,1,8
256,128,45718,1,10
256,256,46077,1,8
256,128,46437,1,10
256,256,46796,1,8
256,128,47155,1,10
275,252,47559,5,0
321,220,47739,1,0
355,175,47919,1,0
368,120,48098,1,0
356,65,48278,1,0
318,22,48458,1,0
245,107,48817,1,0
159,177,49221,1,0
254,259,49625,1,0
388,184,50119,1,0
256,96,50613,5,0
256,96,50703,1,0
256,128,50838,1,0
256,224,51197,1,0
256,352,51601,1,0
224,64,52499,5,8
224,64,52679,1,8
224,64,52859,1,8
224,128,53038,1,0
224,128,53218,1,0
224,192,53398,1,0
224,192,53577,1,0
224,192,53757,1,0
224,256,53937,1,0
224,256,54116,1,0
224,320,54296,1,0
304,304,55059,5,0
304,208,55374,1,0
304,208,55553,1,0
304,208,55733,1,0
304,208,55913,1,0
228,125,56272,1,8
119,189,56676,1,8
169,288,57035,1,8
288,288,57350,1,8
384,288,57709,1,0
288,288,57979,1,8
307,194,58697,5,0
300,173,58877,1,0
318,157,59056,1,0
341,161,59236,1,0
346,181,59416,1,0
334,195,59595,1,0
223,215,59955,5,0
112,208,60314,2,8,B|112:80,1,122.5
224,48,61032,1,10
272,128,61212,1,2
272,128,61392,1,2
272,128,61571,1,2
272,128,61751,1,2
272,224,62065,1,4
272,288,62290,1,8
272,224,62514,1,4
272,224,62784,1,4
272,288,63008,1,12
336,288,63233,1,0
416,288,63502,2,0,B|416:256|416:192,1,87.5
416,128,63952,1,0
162,127,64625,6,0,B|162:239|162:335|162:335|338:335|467:335,1,507.5,0|0
432,176,66691,2,0,B|432:112|432:80|432:80|368:80|320:80,1,192.5
208,80,67589,1,0
208,192,67949,2,0,B|208:272|208:336,1,140
320,336,68667,1,0
320,240,68982,2,0,B|320:208|320:176|320:144|320:112,1,122.5
320,32,69565,1,0
96,32,70284,5,0
96,80,70464,1,0
96,192,70823,1,0
128,224,71002,1,0
160,256,71182,1,0
288,256,71586,1,0
288,256,71766,1,0
288,256,71946,1,0
368,256,72305,2,0,B|368:320|464:320,1,122.5
454,123,73248,5,0
403,147,73428,1,0
297,109,73787,1,8
204,171,74146,1,8
113,104,74505,1,8
177,195,74865,1,4
236,254,75134,1,4
298,197,75404,1,4
208,79,76257,6,8,B|207:208|207:285|206:357|206:357|255:357|291:343|319:313|340:286|350:262|360:223|364:191|367:184,1,525
366,127,77784,1,8
365,127,77964,2,8,B|365:68|364:17|364:17|338:21|314:27|305:35|285:43|254:59|243:74|223:90|209:105|206:114|202:131|200:143|196:156|199:171|199:183|200:197|198:212,1,402.5
201,294,79176,2,8,B|280:294|336:294,3,140
256,166,80658,1,4
259,81,80928,1,4
256,166,81197,1,4
256,192,81736,12,2,84565
256,192,84880,5,0
256,192,85059,1,0
256,192,85239,1,0
256,192,85419,1,0
304,160,85598,1,4
208,160,85913,1,4
256,256,86272,1,4
