osu file format v14

[General]
AudioFilename: Minecraft song.mp3
AudioLeadIn: 0
PreviewTime: 43800
Countdown: 1
SampleSet: Normal
StackLeniency: 0.7
Mode: 0
LetterboxInBreaks: 1
WidescreenStoryboard: 1

[Editor]
DistanceSpacing: 0.8
BeatDivisor: 4
GridSize: 32
TimelineZoom: 4.999998

[Metadata]
Title:Minecraft song
TitleUnicode:Minecraft song
Artist:
ArtistUnicode:
Creator:EL-S
Version:Insane
Source:
Tags:
BeatmapID:607125
BeatmapSetID:266453

[Difficulty]
HPDrainRate:5
CircleSize:5
OverallDifficulty:5
ApproachRate:5
SliderMultiplier:3.59999990463257
SliderTickRate:1

[Events]
//Background and Video events
//Break Periods
//Storyboard Layer 0 (Background)
//Storyboard Layer 1 (Fail)
//Storyboard Layer 2 (Pass)
//Storyboard Layer 3 (Foreground)
//Storyboard Sound Samples

[TimingPoints]
155,685.714285714286,4,1,0,5,1,0

[HitObjects]
64,32,155,6,0,P|288:352|448:256,1,629.9999833107
416,192,1526,2,0,P|160:32|160:320,1,629.9999833107
128,32,2897,6,0,B|384:192|384:192|96:352,1,629.9999833107
192,288,4269,2,0,P|128:288|288:192,1,629.9999833107
480,64,5640,2,0,B|320:64|448:352|224:256|192:0|0:384,1,629.9999833107
256,96,7012,5,0,3:3:0:0:
320,96,8383,1,0,3:3:0:0:
96,64,11126,5,0,3:3:0:0:
160,64,12497,1,0,3:3:0:0:
160,128,13869,1,0,3:3:0:0:
96,128,15240,1,0,3:3:0:0:
96,192,16612,1,0,3:3:0:0:
160,192,17983,1,0,3:3:0:0:
224,192,19354,1,0,3:3:0:0:
256,32,22097,5,0,3:3:0:0:
256,352,23469,1,0,2:2:0:0:
256,128,24154,1,0,2:3:0:0:
256,256,24840,1,0,3:3:0:0:
160,192,26212,5,0,3:3:0:0:
352,192,26897,1,0,2:2:0:0:
256,128,27240,1,0,2:2:0:0:
256,128,27583,1,0,3:3:0:0:
448,64,28954,5,0,3:3:0:0:
320,64,29640,1,0,2:2:0:0:
384,64,29983,1,0,2:2:0:0:
448,64,30326,1,0,3:3:0:0:
256,128,33068,5,0,3:3:0:0:
192,128,33755,1,0,2:3:0:0:
320,128,34440,1,0,3:3:0:0:
256,64,35126,1,0,2:2:0:0:
256,192,35812,1,0,3:3:0:0:
352,128,37183,5,0,3:3:0:0:
416,128,37869,1,0,2:2:0:0:
416,64,38212,1,0,2:2:0:0:
480,64,38555,1,0,3:3:0:0:
288,160,39926,5,0,3:3:0:0:
224,160,40612,1,0,2:2:0:0:
224,224,40955,1,0,2:2:0:0:
352,160,41297,1,0,3:3:0:0:
192,256,44040,5,0,0:0:0:0:
160,192,44555,1,0,0:0:0:0:
160,128,44726,1,0,0:0:0:0:
192,64,45069,1,0,0:0:0:0:
256,32,45412,1,0,0:0:0:0:
352,32,45926,5,0,0:0:0:0:
416,64,46097,1,0,0:0:0:0:
448,128,46783,1,0,0:0:0:0:
448,192,47297,1,0,0:0:0:0:
416,256,47469,1,0,0:0:0:0:
352,288,47812,1,0,0:0:0:0:
192,64,48155,5,0,0:0:0:0:
352,64,48497,1,0,0:0:0:0:
192,256,48669,1,0,0:0:0:0:
256,256,48840,1,0,0:0:0:0:
32,160,49526,1,0,0:0:0:0:
320,160,50040,1,0,0:0:0:0:
448,160,50212,1,0,0:0:0:0:
320,288,50555,1,0,0:0:0:0:
160,288,50897,1,0,0:0:0:0:
448,256,51412,5,0,0:0:0:0:
384,192,51583,1,0,0:0:0:0:
224,128,52269,1,0,0:0:0:0:
288,320,52783,1,0,0:0:0:0:
352,320,52955,1,0,0:0:0:0:
352,128,53297,1,0,0:0:0:0:
96,64,53640,5,2,0:0:0:0:
288,224,53983,1,0,0:0:0:0:
384,224,54155,1,0,0:0:0:0:
448,96,54326,1,0,0:0:0:0:
128,128,55012,1,0,0:0:0:0:
256,288,55526,1,0,0:0:0:0:
320,320,55697,1,0,0:0:0:0:
480,224,56040,1,0,0:0:0:0:
416,96,56383,1,0,0:0:0:0:
96,96,56897,5,0,0:0:0:0:
160,96,57069,1,0,0:0:0:0:
352,96,57755,1,0,0:0:0:0:
288,256,58269,1,0,0:0:0:0:
384,256,58440,1,0,0:0:0:0:
480,256,58783,1,0,0:0:0:0:
128,256,59126,1,0,0:0:0:0:
224,64,59469,5,0,0:0:0:0:
288,64,59640,1,0,0:0:0:0:
384,64,59812,1,0,0:0:0:0:
96,320,60497,1,0,0:0:0:0:
288,224,61012,1,0,0:0:0:0:
384,224,61183,1,0,0:0:0:0:
160,96,61526,1,0,0:0:0:0:
64,96,61869,1,0,0:0:0:0:
64,256,62383,1,0,0:0:0:0:
160,256,62555,1,0,0:0:0:0:
288,32,63240,1,0,0:0:0:0:
352,288,63755,1,0,0:0:0:0:
416,224,63926,1,0,0:0:0:0:
96,224,64269,1,0,0:0:0:0:
96,96,64612,1,0,0:0:0:0:
320,128,64955,1,0,0:0:0:0:
352,128,65126,1,0,0:0:0:0:
224,288,65297,1,0,0:0:0:0:
448,192,65983,1,0,0:0:0:0:
384,64,66326,1,0,0:0:0:0:
192,160,66840,1,0,0:0:0:0:
192,224,67012,1,0,0:0:0:0:
192,160,67354,1,0,0:0:0:0:
192,224,67697,1,0,0:0:0:0:
320,32,68212,5,0,0:0:0:0:
256,32,68383,1,0,0:0:0:0:
384,256,68726,1,0,0:0:0:0:
256,256,69069,1,0,0:0:0:0:
96,128,69583,1,0,0:0:0:0:
192,128,69754,1,0,0:0:0:0:
96,320,70097,1,0,0:0:0:0:
288,320,70440,1,0,0:0:0:0:
480,192,70954,1,0,0:0:0:0:
448,96,71126,5,0,0:0:0:0:
320,96,71469,1,0,0:0:0:0:
160,96,71812,1,0,0:0:0:0:
160,256,72325,1,0,0:0:0:0:
256,256,72497,1,0,0:0:0:0:
448,256,72840,1,0,0:0:0:0:
448,96,73183,1,0,0:0:0:0:
128,96,73697,1,0,0:0:0:0:
192,96,73869,1,0,0:0:0:0:
320,160,74212,1,0,0:0:0:0:
224,288,74554,1,0,0:0:0:0:
384,32,75069,1,0,0:0:0:0:
448,32,75240,1,0,0:0:0:0:
160,32,75583,1,0,0:0:0:0:
160,160,75926,1,0,0:0:0:0:
416,192,76440,1,0,0:0:0:0:
416,256,76612,1,0,0:0:0:0:
256,256,76954,1,0,0:0:0:0:
128,256,77297,1,0,0:0:0:0:
288,64,77812,1,0,0:0:0:0:
352,64,77983,1,0,0:0:0:0:
384,256,78326,1,0,0:0:0:0:
192,256,78669,1,0,0:0:0:0:
96,128,79012,1,0,0:0:0:0:
352,128,79183,1,0,0:0:0:0:
480,128,79354,1,0,0:0:0:0:
224,32,79697,1,0,0:0:0:0:
224,256,80040,1,0,0:0:0:0:
480,256,80554,1,0,0:0:0:0:
480,96,80726,1,0,0:0:0:0:
224,96,81069,1,0,0:0:0:0:
224,256,81412,1,0,0:0:0:0:
384,256,81926,1,0,0:0:0:0:
480,256,82097,1,0,0:0:0:0:
384,96,82440,1,0,0:0:0:0:
192,96,82783,1,0,0:0:0:0:
224,256,83126,1,0,0:0:0:0:
384,256,83469,1,0,0:0:0:0:
384,160,83812,1,0,0:0:0:0:
384,64,84154,1,0,0:0:0:0:
192,160,84497,1,0,0:0:0:0:
192,320,84840,1,0,0:0:0:0:
352,320,85183,1,0,0:0:0:0:
448,128,85354,1,0,0:0:0:0:
367,89,85526,1,0,0:0:0:0:
430,55,85697,1,0,0:0:0:0:
488,97,85869,1,0,0:0:0:0:
339,266,86040,1,0,0:0:0:0:
273,320,86212,1,0,0:0:0:0:
223,255,86383,1,0,0:0:0:0:
128,352,86554,1,0,0:0:0:0:
138,355,86640,1,0,0:0:0:0:
162,357,86726,1,0,0:0:0:0:
178,352,86812,1,0,0:0:0:0:
192,342,86897,1,0,0:0:0:0:
206,321,86983,1,0,0:0:0:0:
214,301,87069,1,0,0:0:0:0:
217,275,87154,1,0,0:0:0:0:
230,247,87240,1,0,0:0:0:0:
243,236,87326,1,0,0:0:0:0:
268,232,87412,1,0,0:0:0:0:
291,257,87497,1,0,0:0:0:0:
310,278,87583,1,0,0:0:0:0:
362,301,87668,1,0,0:0:0:0:
393,292,87754,1,0,0:0:0:0:
408,267,87840,1,0,0:0:0:0:
416,224,87926,2,0,B|416:32|416:32|320:32,1,269.999992847443
320,288,88783,2,0,B|320:192|320:192|224:192,1,179.999995231629
171,272,89297,1,0,0:0:0:0:
165,120,89640,2,0,B|192:64|192:64|256:96|256:96|320:128,1,179.999995231629
480,32,90154,2,0,B|384:32|384:32|384:128,1,179.999995231629
425,272,90669,1,0,0:0:0:0:
192,192,90840,1,0,0:0:0:0:
48,220,91012,1,0,0:0:0:0:
96,128,91183,1,0,0:0:0:0:
149,42,91526,1,0,0:0:0:0:
228,326,91697,1,0,0:0:0:0:
352,128,91869,1,0,0:0:0:0:
352,224,92040,1,0,0:0:0:0:
325,316,92212,2,0,P|414:95|288:160,1,539.999985694885
334,250,93412,1,0,0:0:0:0:
412,219,93583,1,0,0:0:0:0:
420,134,93754,1,0,0:0:0:0:
273,123,93926,1,0,0:0:0:0:
334,250,94097,2,0,P|187:205|214:153,1,269.999992847443
123,223,97869,5,0,0:0:0:0:
256,224,98040,1,0,0:0:0:0:
220,163,98383,1,0,0:0:0:0:
194,55,98554,1,0,0:0:0:0:
352,224,98726,1,0,0:0:0:0:
333,106,98897,1,0,0:0:0:0:
448,256,99069,1,0,0:0:0:0:
384,32,99240,1,0,0:0:0:0:
