osu file format v14

[General]
AudioFilename: Minecraft song.mp3
AudioLeadIn: 0
PreviewTime: -1
Countdown: 1
SampleSet: Normal
StackLeniency: 0.7
Mode: 0
LetterboxInBreaks: 1
WidescreenStoryboard: 0

[Editor]
DistanceSpacing: 0.8
BeatDivisor: 4
GridSize: 32
TimelineZoom: 0.9000001

[Metadata]
Title:Minecraft song
TitleUnicode:Minecraft song
Artist:
ArtistUnicode:
Creator:EL-S
Version:Easy
Source:
Tags:
BeatmapID:607123
BeatmapSetID:266453

[Difficulty]
HPDrainRate:5
CircleSize:5
OverallDifficulty:5
ApproachRate:5
SliderMultiplier:1.59999990463257
SliderTickRate:1

[Events]
//Background and Video events
//Break Periods
//Storyboard Layer 0 (Background)
//Storyboard Layer 1 (Fail)
//Storyboard Layer 2 (Pass)
//Storyboard Layer 3 (Foreground)
//Storyboard Sound Samples

[TimingPoints]
155,685.714285714286,4,1,0,100,1,0

[HitObjects]
256,192,155,6,0,B|416:192|416:192|288:288,1,319.999980926514
224,192,2897,1,0,0:0:0:0:
32,128,4269,2,0,B|256:352|256:352|416:32|416:32,1,639.999961853028
160,128,8383,1,0,0:0:0:0:
64,96,11126,6,0,L|224:96|224:96,1,159.999990463257
352,288,12497,1,0,0:0:0:0:
224,288,13869,2,0,B|64:288|64:288|32:288,1,159.999990463257
352,96,15069,1,0,0:0:0:0:
352,288,16612,1,0,0:0:0:0:
352,192,17983,1,0,0:0:0:0:
256,192,19355,1,0,0:0:0:0:
160,192,21926,2,0,B|192:64|192:64|224:128,2,199.999988079071,0|0|0,0:0|0:0|0:0,0:0:0:0:
320,96,24154,1,0,0:0:0:0:
160,192,24840,1,0,0:0:0:0:
320,192,26212,1,0,0:0:0:0:
384,192,26897,1,0,0:0:0:0:
256,64,27240,1,0,0:0:0:0:
320,128,27583,2,0,L|256:192,1,79.9999952316285
96,192,28954,2,0,L|192:192|192:192,1,79.9999952316285
176,192,29640,1,0,0:0:0:0:
224,192,29983,1,0,0:0:0:0:
224,128,30326,1,0,0:0:0:0:
352,128,33069,1,0,0:0:0:0:
256,128,33755,1,0,0:0:0:0:
256,224,34440,1,0,0:0:0:0:
320,160,35126,1,0,0:0:0:0:
416,192,35812,2,0,B|416:96|320:64|320:64,1,159.999990463257
352,64,37183,1,0,0:0:0:0:
288,160,37869,1,0,0:0:0:0:
224,224,38212,1,0,0:0:0:0:
128,160,38555,2,0,B|64:320|288:288|256:288,1,239.999985694885
256,128,39926,1,0,0:0:0:0:
160,32,40612,1,0,0:0:0:0:
160,128,40955,1,0,0:0:0:0:
224,224,41297,2,0,L|288:224,15,39.9999976158142
256,128,44040,1,0,0:0:0:0:
128,128,44555,1,0,0:0:0:0:
128,224,44726,1,0,0:0:0:0:
352,224,45069,1,0,0:0:0:0:
352,128,45412,1,0,0:0:0:0:
352,32,45926,1,0,0:0:0:0:
224,32,46097,1,0,0:0:0:0:
224,160,46783,1,0,0:0:0:0:
96,160,47297,1,0,0:0:0:0:
96,64,47469,1,0,0:0:0:0:
224,64,47812,1,0,0:0:0:0:
224,256,48155,1,0,0:0:0:0:
96,256,48497,1,0,0:0:0:0:
96,352,48669,1,0,0:0:0:0:
224,352,48840,1,0,0:0:0:0:
384,352,49526,1,0,0:0:0:0:
384,160,50040,1,0,0:0:0:0:
384,64,50212,1,0,0:0:0:0:
224,64,50555,1,0,0:0:0:0:
224,192,50897,1,0,0:0:0:0:
96,192,51412,1,0,0:0:0:0:
96,288,51583,1,0,0:0:0:0:
224,288,52269,1,0,0:0:0:0:
320,288,52783,1,0,0:0:0:0:
