osu file format v5

[General]
AudioFilename: 06.mp3
AudioLeadIn: 0
PreviewTime: 68777
Countdown: 0
SampleSet: Normal
StackLeniency: 0.7
Mode: 0
LetterboxInBreaks: 1
EditorBookmarks: 18937,31201,137378

[Metadata]
Title:What Do They Know?
Artist:Mindless Self Indulgence
Creator:CheeseWarlock
Version:Normal
Source:
Tags:

[Difficulty]
HPDrainRate:5
CircleSize:4
OverallDifficulty:4
SliderMultiplier:1.4
SliderTickRate:2

[Events]
//Background and Video events
0,0,"you_ll_rebel_to_anything_2.jpg"
//Break Periods
2,48747,61523
2,81474,86458
2,118674,124048
//Storyboard Layer 0 (Background)
//Storyboard Layer 1 (Failing)
//Storyboard Layer 2 (Passing)
//Storyboard Layer 3 (Foreground)
//Storyboard Sound Samples
//Background Colour Transformations
3,100,0,0,0

[TimingPoints]
6439.6862745098,389.61038961039,4,1,0,100,1
62161,-100,4,2,0,100,0
65473,-200,4,2,0,100,0
66447,-100,4,1,0,100,0
98785,-200,4,2,0,100,0
106382,-100,4,1,0,100,0
107251,-100,4,2,0,100,0
107445,-100,4,1,0,100,0
110368,-100,4,2,0,100,0
110562,-100,4,1,0,100,0
113485,-100,4,2,0,100,0
113679,-100,4,1,0,100,0
116602,-100,4,2,0,100,0
116796,-100,4,1,0,100,0
134718,-100,4,1,0,100,0
135010,-100,4,1,0,100,0
137348,-100,4,1,0,100,0
143290,-100,4,1,0,100,0
143679,-100,4,1,0,100,0
149816,-100,4,1,0,100,0

[Colours]
Combo1 : 255,179,0
Combo2 : 74,249,0
Combo3 : 51,71,255
Combo4 : 249,0,143

[HitObjects]
408,192,18907,1,0
408,192,19102,1,8
280,192,19491,1,8
344,80,19881,1,8
216,80,20270,2,2,B|80:80|96:328,1,280,6|2
94,295,21244,1,0
94,295,21439,1,2
224,296,21829,5,4
352,296,22218,1,8
416,296,22413,2,0,B|416:232|488:256|488:184,1,140
424,184,22998,1,2
296,184,23387,1,4
192,112,23777,5,0
128,112,23972,1,8
128,176,24166,1,8
192,176,24361,1,0
192,296,24556,5,2
320,296,24946,1,6
448,296,25335,5,0
448,232,25530,1,8
448,232,25725,1,8
384,232,25920,1,0
384,120,26115,5,2
256,120,26504,1,4
128,120,26894,5,0
128,184,27089,2,0,B|80:224|160:264|120:320,1,140,8|0
232,320,27673,5,2
360,320,28063,1,4
232,320,28452,5,0
168,320,28647,1,8
104,320,28842,1,8
40,320,29037,1,0
40,208,29231,5,2
168,208,29621,1,4
256,120,30011,6,0,C|280:112|304:136|296:152,1,70,0|8
280,200,30400,2,0,C|264:216|288:240|320:224,1,70,8|0
376,168,30790,5,2
376,40,31179,1,2
376,40,31374,1,4
184,96,32153,6,4,B|104:192|184:288,1,210,4|4
328,96,33517,5,0
328,96,33712,2,2,B|408:192|328:288,1,210,0|0
192,160,35270,5,8
320,160,35660,1,0
320,32,36050,5,2
192,32,36439,1,0
192,160,36829,5,0
256,160,37024,1,0
320,160,37218,1,8
256,272,37608,1,4
328,96,38387,6,4,B|408:192|328:288,1,210,4|4
184,96,39751,5,0
184,96,39946,2,2,B|104:192|184:288,1,210,0|0
256,32,41504,5,8
256,160,41894,1,0
256,32,42283,1,2
256,160,42673,1,0
256,288,43063,1,0
256,224,43257,1,0
256,160,43452,1,8
120,104,43842,6,0,B|408:104,1,280,4|0
256,24,45400,2,0,B|256:320,1,280,4|8
256,192,46959,12,0,48517
416,256,62543,6,0,B|456:224|400:176|400:176|456:144|320:112|384:80,1,210,8|0
432,56,63322,6,2,B|472:40|504:112|328:176,1,210,2|2
272,184,64102,1,0
96,264,64686,1,0
144,312,64881,1,2
272,312,65270,1,2
400,312,65660,2,0,B|440:248|416:184,1,105,2|4
312,56,67218,5,8
200,112,67608,1,0
312,168,67998,5,2
200,224,68387,1,2
256,336,68777,5,4
256,336,68972,1,8
384,336,69361,1,8
320,224,69751,1,8
256,112,70140,2,0,B|184:168|192:256,1,140,0|0
192,296,70725,1,8
128,296,70920,1,8
64,296,71115,1,0
64,184,71309,5,8
160,112,71699,1,0
264,40,72089,5,0
264,40,72283,1,8
328,40,72478,1,8
328,40,72673,1,0
328,152,72868,1,2
200,152,73257,1,2
120,248,73647,6,0,B|32:248,3,70,0|8|8|0
120,184,74426,1,2
232,248,74816,1,2
360,248,75205,5,0
360,248,75400,1,8
424,248,75595,1,8
424,248,75790,1,0
424,136,75985,1,2
296,136,76374,1,4
128,40,76764,5,0
88,96,76959,1,8
128,152,77153,1,8
88,208,77348,1,0
128,264,77543,1,2
256,152,77933,1,4
384,40,78322,5,0
424,96,78517,1,8
384,152,78712,1,8
424,208,78907,1,0
384,264,79102,1,2
256,152,79491,1,4
256,280,79881,6,0,B|224:304|296:320|256:344,4,70,0|8|8|0|8
256,152,81050,1,2
256,152,81244,1,4
328,312,87478,6,0,C|320:288|352:280|328:264|328:232|352:232|336:208|320:208|344:184|320:160|344:144|344:120|344:128|320:120|344:96|320:72,1,420
184,72,89037,6,0,C|192:96|160:104|184:120|184:152|160:152|176:176|192:176|168:200|192:224|168:240|168:264|168:256|192:264|168:288|192:312,1,420
256,200,90595,1,4
192,56,91374,5,8
320,56,91764,1,0
320,184,92153,1,2
192,184,92543,1,0
256,296,92933,1,8
256,104,93517,1,2
320,96,93712,6,0,B|400:64|400:200|320:160,2,140,4|0|4
256,208,94881,1,8
192,96,95270,2,0,B|112:64|112:200|192:160,2,140,4|0|4
256,208,96439,1,2
256,192,96829,12,0,98387
80,248,99946,6,0,B|112:136|224:96,1,210,2|0
272,192,101504,2,0,B|384:168|464:72,1,210,2|0
464,192,103063,2,2,B|472:256|416:296,1,105,2|2
232,224,104621,2,2,B|184:256|168:312,1,105,2|8
256,312,105595,2,0,B|296:312,2,35,0|8|8
256,312,106179,5,4
408,192,106764,1,4
256,72,107348,1,8
128,72,107738,1,2
128,136,107933,1,0
128,200,108127,1,0
128,264,108322,2,8,L|128:336|272:336,1,210
392,336,109296,5,0
480,168,109881,1,4
288,168,110465,1,8
368,64,110855,1,2
368,128,111050,1,0
368,192,111244,1,0
368,256,111439,2,8,L|296:256|296:328|224:328,1,210
168,328,112218,1,2
56,328,112413,5,0
56,136,112998,1,4
56,136,113582,1,8
176,104,113972,1,2
176,168,114166,1,0
240,168,114361,1,0
240,104,114556,2,8,L|312:104|312:248,1,210
440,240,115530,5,0
256,288,116115,1,4
440,240,116699,1,8
400,120,117089,2,2,L|328:120|328:192,1,140
264,192,117673,2,8,L|264:120|192:120|192:192,1,210
128,192,118452,1,4
221,336,125076,6,0,L|293:336,5,70,0|8|0|8|0|8
256,240,126244,5,2
291,48,126634,6,0,L|219:48,5,70,0|8|0|8|0|8
256,144,127803,5,2
352,224,128192,5,0
352,224,128387,1,8
288,224,128582,1,8
288,224,128777,1,2
224,224,128972,1,2
224,224,129166,1,0
160,224,129361,1,4
128,344,129751,5,0
192,344,129946,1,8
256,344,130140,1,0
320,344,130335,1,2
384,344,130530,1,2
384,280,130725,1,0
256,192,131115,12,0,134231
256,40,134816,5,4
192,352,135790,1,2
320,352,136179,1,0
320,224,136569,1,8
192,224,136959,1,8
256,112,137348,1,4
