osu file format v5

[General]
AudioFilename: 06.mp3
AudioLeadIn: 0
PreviewTime: 68777
Countdown: 0
SampleSet: Normal
StackLeniency: 0.7
Mode: 0
LetterboxInBreaks: 1
EditorBookmarks: 18937,137378

[Metadata]
Title:What Do They Know?
Artist:Mindless Self Indulgence
Creator:CheeseWarlock
Version:Hard
Source:
Tags:

[Difficulty]
HPDrainRate:6
CircleSize:4
OverallDifficulty:6
SliderMultiplier:1.6
SliderTickRate:2

[Events]
//Background and Video events
0,0,"you_ll_rebel_to_anything_2.jpg"
//Break Periods
2,48747,61523
2,81474,86458
2,118674,124048
//Storyboard Layer 0 (Background)
//Storyboard Layer 1 (Failing)
//Storyboard Layer 2 (Passing)
//Storyboard Layer 3 (Foreground)
//Storyboard Sound Samples
//Background Colour Transformations
3,100,0,0,0

[TimingPoints]
6439.6862745098,389.61038961039,4,1,0,100,1
62161,-100,4,2,0,100,0
65473,-200,4,2,0,100,0
66447,-100,4,1,0,100,0
98785,-200,4,2,0,100,0
106382,-100,4,1,0,100,0
107251,-100,4,2,0,100,0
107445,-100,4,1,0,100,0
110368,-100,4,2,0,100,0
110562,-100,4,1,0,100,0
113485,-100,4,2,0,100,0
113679,-100,4,1,0,100,0
116602,-100,4,2,0,100,0
116796,-100,4,1,0,100,0
134718,-100,4,2,0,100,0
135010,-100,4,1,0,100,0
137348,-100,4,1,0,100,0
143679,-100,4,1,0,100,0
149816,-100,4,1,0,100,0

[Colours]
Combo1 : 255,179,0
Combo2 : 74,249,0
Combo3 : 51,71,255
Combo4 : 249,0,143

[HitObjects]
176,320,18907,5,4
176,320,19102,1,8
336,320,19491,1,8
256,184,19881,1,8
416,184,20270,2,2,B|488:120|416:40,1,160
336,40,20855,2,0,B|232:40,1,80,0|8
296,112,21244,1,8
216,112,21439,1,2
96,200,21829,6,2,B|24:264|96:344,1,160
176,344,22413,2,0,B|280:344,1,80,0|8
216,272,22803,1,8
296,272,22998,1,2
104,32,23387,2,2,B|-32:72|104:112,1,160,0|0
176,112,23972,1,0
256,112,24166,1,8
336,112,24361,1,0
152,192,24556,5,2
360,192,24946,1,6
176,272,25335,6,2,B|256:160|152:376|256:272,1,160
328,272,25920,1,8
328,272,26115,1,8
456,112,26504,1,2
256,48,26894,5,0
216,120,27089,1,8
296,120,27283,1,8
296,200,27478,1,0
216,200,27673,1,8
416,200,28063,6,2,B|488:264|416:344,1,160
336,344,28647,2,0,B|232:344,1,80,0|8
296,272,29037,1,8
216,272,29231,1,2
96,184,29621,6,2,B|24:120|96:40,1,160
176,40,30205,2,0,B|280:40,1,80,0|8
216,112,30595,1,8
296,112,30790,1,2
256,256,31179,2,0,B|232:296|280:296|256:336,1,80,0|4
416,328,32153,6,2,B|376:240|464:192|424:88,1,240
96,56,33517,5,0
96,56,33712,2,2,B|136:144|48:192|88:296,1,240
368,304,35270,5,8
144,304,35660,1,0
144,80,36050,1,2
368,80,36439,1,0
256,240,36829,1,8
256,160,37024,1,0
256,320,37413,1,4
336,320,37608,6,2,B|416:320|416:320|464:248|360:176|416:88,1,320
176,56,38972,1,0
256,56,39166,2,2,B|256:136|256:136|184:96|184:192|104:128|104:128|104:216,1,320
424,192,40725,1,4
144,304,41504,5,8
368,304,41894,1,0
368,80,42283,1,2
144,80,42673,1,0
256,240,43063,1,8
256,160,43257,1,0
256,320,43647,1,4
176,320,43842,6,2,B|112:320|112:320|40:320|40:264,1,160
40,192,44426,1,0
40,192,44621,1,2
144,80,45011,1,0
144,80,45205,1,2
232,120,45400,6,2,B|120:160|200:256|56:272,1,240,0|0
64,272,46179,1,8
288,272,46569,1,8
256,192,46959,12,2,48517
392,80,62550,5,4
168,216,63329,2,0,B|232:136|392:152,1,240,0|0
388,151,64109,1,0
388,151,64888,2,0,B|392:296|296:280,1,160,0|4
324,281,65473,1,0
324,281,65667,1,4
304,208,65862,2,8,B|240:216|240:288,1,80,0|0
152,96,67226,6,0,B|272:96,1,106.666666666667
368,96,67738,1,4
368,200,68005,2,0,B|224:224,1,106.666666666667
152,216,68517,1,4
208,304,68784,5,2
208,304,68979,1,8
360,344,69369,1,8
360,184,69758,1,8
200,160,70148,2,2,B|160:144|200:128|200:128|240:112|200:96|200:96|152:80|200:64,1,160
280,64,70732,1,8
360,64,70927,1,8
320,136,71122,1,0
400,136,71317,5,2
400,328,71706,1,4
168,288,72096,5,0
88,208,72291,1,8
88,288,72485,1,8
168,208,72680,1,0
128,136,72875,1,2
424,136,73265,1,4
336,352,73654,5,0
336,272,73849,1,0
256,272,74044,1,8
176,272,74239,1,0
360,192,74434,5,2
152,192,74823,1,6
256,72,75213,6,0,B|296:56,2,40,0|0|8
160,112,75602,1,8
256,152,75797,1,0
352,112,75992,1,2
408,160,76382,2,0,B|408:272,1,80,0|0
368,312,76771,5,0
288,312,76966,1,8
328,240,77161,1,8
248,240,77356,1,0
128,168,77550,1,2
168,240,77940,2,0,B|168:344,1,80,2|0
88,320,78330,5,0
40,256,78524,1,8
88,192,78719,1,8
40,128,78914,1,0
88,64,79109,1,2
88,64,79498,1,2
256,144,79888,5,0
256,144,80083,1,8
256,240,80278,1,8
256,240,80472,1,0
384,192,80667,1,2
128,192,81057,2,0,B|72:192,2,40,0|0|12
72,312,87485,6,0,B|240:344|288:200,2,240
136,232,88849,1,4
40,208,89044,6,0,B|77:93|245:125,2,240,4|0|4
200,208,90602,1,4
368,80,91382,5,8
368,304,91771,1,0
144,80,92161,1,2
144,304,92550,1,0
256,144,92940,1,2
256,144,93135,1,2
400,240,93524,1,0
440,312,93719,6,0,B|272:344|224:200,2,240
376,232,95083,1,4
471,208,95278,6,0,B|435:93|267:125,2,240,4|0|4
256,192,96836,12,0,98395
320,240,99953,6,0,B|408:240|392:104,1,160
232,144,101512,2,0,B|184:128|144:168,1,80
120,184,102096,2,0,B|184:216|152:256,1,80
128,272,102681,1,0
256,344,103070,5,8
296,344,103265,2,0,B|360:336|368:288,2,80
256,256,104239,1,2
256,40,104629,5,0
216,40,104823,2,0,B|152:48|144:96,2,80
256,128,105797,1,2
256,128,105992,1,2
256,128,106187,1,4
472,48,106771,5,4
320,336,107348,5,8
240,336,107542,1,0
320,256,107737,1,8
240,256,107932,1,0
160,256,108126,1,0
56,152,108321,2,0,B|104:88|232:104,1,160,4|0
280,104,108906,1,0
280,104,109100,1,0
440,104,109295,5,2
256,264,109880,1,4
72,104,110465,1,8
72,24,110659,1,0
152,104,110854,1,8
152,24,111049,1,0
232,24,111243,1,0
232,160,111438,6,0,B|176:192|232:256|96:264,1,160
120,344,112023,1,0
200,344,112217,1,0
360,344,112412,5,2
360,104,112997,1,4
360,344,113582,1,8
360,264,113776,1,0
280,344,113971,1,8
280,264,114166,1,0
280,184,114360,1,0
144,184,114555,6,0,B|224:144|176:72|88:120,1,160,4|0
40,160,115140,1,0
40,80,115334,1,0
200,40,115529,5,2
200,280,116114,1,4
440,280,116699,1,8
440,200,116893,1,0
360,280,117088,1,8
360,200,117283,1,0
360,120,117477,1,0
280,200,117672,1,2
280,120,117867,1,0
280,40,118062,1,2
280,40,118257,1,0
200,40,118451,1,4
208,208,125075,5,0
208,208,125270,1,0
304,208,125464,1,8
304,208,125659,1,8
208,208,125854,1,2
208,208,126049,1,2
96,96,126244,1,4
304,208,126633,5,0
304,208,126828,1,0
208,208,127023,1,8
208,208,127218,1,8
304,208,127412,1,2
304,208,127607,1,2
416,96,127802,1,4
208,208,128192,5,0
208,208,128386,1,0
304,208,128581,1,8
304,208,128776,1,8
208,208,128971,1,2
208,208,129166,1,2
96,96,129360,1,4
304,208,129750,5,2
304,208,129945,1,0
416,96,130140,1,4
208,208,130529,5,2
208,208,130724,1,0
96,96,130919,1,4
256,32,131114,6,6,C|240:48|272:64|240:80|272:96|240:112|272:128|240:144|272:160|240:176|272:192|240:208|272:224|240:240|272:256|240:272|272:288|240:304|272:320,2,640
256,32,134815,1,4
152,96,135789,6,0,B|272:96,1,106.666666666667
368,96,136309,1,4
368,200,136568,2,0,B|224:224,1,106.666666666667
152,216,137089,1,4
152,320,137348,5,0
152,320,137542,1,8
360,320,137932,1,8
256,160,138322,1,8
416,184,138711,2,2,B|488:120|416:40,1,160
336,40,139296,2,0,B|232:40,1,80,0|8
296,112,139685,1,8
256,112,139783,1,0
216,112,139880,1,2
96,200,140270,6,2,B|24:264|96:344,1,160
176,344,140854,1,0
256,344,141049,1,0
236,309,141146,1,0
216,272,141244,1,8
296,272,141438,1,2
432,192,141828,1,4
256,72,142218,5,0
216,136,142412,1,8
296,136,142607,1,8
176,72,142802,1,0
336,72,142997,1,8
256,336,143386,1,4
360,192,143776,5,2
360,192,143873,1,0
360,192,143971,1,8
424,128,144166,1,8
488,192,144360,1,0
424,256,144555,1,8
256,72,144945,5,4
152,192,145334,5,2
152,192,145432,1,0
152,192,145529,1,8
88,256,145724,1,8
24,192,145919,1,0
88,128,146114,1,8
256,312,146503,5,4
448,192,146893,5,2
448,192,146990,1,0
448,192,147088,1,8
472,120,147282,1,8
448,48,147477,1,0
368,192,147672,5,8
368,48,148062,1,4
256,152,148451,6,2,B|208:184|265:222,1,80,2|8
256,216,148841,6,2,B|304:184|248:149,1,80,0|8
258,153,149230,1,0
256,344,149620,1,2
256,344,149816,5,4
456,104,151374,5,4
56,104,152932,6,2,B|120:88|144:136|216:104,1,160,2|0
368,80,153712,5,8
368,304,154101,1,0
144,80,154491,1,2
144,304,154880,1,0
368,304,155270,1,0
144,80,155660,1,8
368,80,156049,1,4
472,192,156439,6,0,B|336:192,1,120,8|0
312,192,156828,1,4
312,192,156926,1,0
312,192,157023,1,0
240,232,157218,1,8
240,152,157413,1,0
176,192,157608,5,0
80,312,157997,6,0,B|216:312,1,120,8|0
240,312,158387,1,0
240,312,158484,1,0
240,312,158582,1,0
312,352,158777,1,8
312,272,158971,1,0
376,312,159166,5,4
144,80,159945,5,8
144,304,160335,1,0
368,80,160725,1,2
368,304,161114,1,0
144,304,161504,1,0
368,80,161893,1,2
144,80,162283,1,4
40,192,162673,6,0,B|176:192,1,120,8|0
200,192,163062,1,0
200,192,163160,1,0
200,192,163257,1,0
272,232,163452,1,8
272,152,163647,1,0
336,192,163841,5,0
120,344,164621,1,2
392,344,165010,1,2
256,192,165400,12,0,166958
