osu file format v5

[General]
AudioFilename: 06.mp3
AudioLeadIn: 0
PreviewTime: 68777
Countdown: 0
SampleSet: Normal
StackLeniency: 0.7
Mode: 0
LetterboxInBreaks: 1
EditorBookmarks: 18937,31201,137378

[Metadata]
Title:What Do They Know?
Artist:Mindless Self Indulgence
Creator:CheeseWarlock
Version:Easy
Source:
Tags:

[Difficulty]
HPDrainRate:3
CircleSize:3
OverallDifficulty:2
SliderMultiplier:1.2
SliderTickRate:2

[Events]
//Background and Video events
0,0,"you_ll_rebel_to_anything_2.jpg"
//Break Periods
2,48747,61523
2,81474,86458
2,118674,124048
//Storyboard Layer 0 (Background)
//Storyboard Layer 1 (Failing)
//Storyboard Layer 2 (Passing)
//Storyboard Layer 3 (Foreground)
//Storyboard Sound Samples
//Background Colour Transformations
3,100,0,0,0

[TimingPoints]
6439.6862745098,389.61038961039,4,1,0,100,1
62161,-100,4,2,0,100,0
65473,-200,4,2,0,100,0
66447,-100,4,1,0,100,0
98785,-200,4,2,0,100,0
106382,-100,4,1,0,100,0
107251,-100,4,2,0,100,0
107445,-100,4,1,0,100,0
110368,-100,4,2,0,100,0
110562,-100,4,1,0,100,0
113485,-100,4,2,0,100,0
113679,-100,4,1,0,100,0
116602,-100,4,2,0,100,0
116796,-100,4,1,0,100,0
134718,-100,4,2,0,100,0
135010,-100,4,1,0,100,0
137348,-100,4,1,0,100,0
143290,-50,4,1,0,100,0
143679,-100,4,1,0,100,0
149816,-100,4,1,0,100,0

[Colours]
Combo1 : 255,179,0
Combo2 : 74,249,0
Combo3 : 51,71,255
Combo4 : 249,0,143

[HitObjects]
472,192,18907,2,0,L|280:192,1,180,0|8
176,192,19881,1,8
176,304,20270,2,10,L|432:304,1,240,2|10
416,192,21439,1,0
416,80,21829,2,0,L|160:80,1,240,0|8
64,80,22998,1,8
64,192,23387,2,2,L|64:256|176:256,3,120,2|2|2|10
224,256,24946,1,8
224,80,25530,5,0
112,80,25920,2,0,L|112:144|48:144|48:224,1,180,0|8
208,192,27089,1,0
320,192,27478,2,2,L|448:192|448:128,1,180,2|10
448,304,28647,1,0
336,304,29037,2,0,L|144:304,2,180,0|8|0
336,192,30595,1,2
160,192,31179,6,0,L|240:192,1,60,0|4
416,96,32153,6,0,L|416:288,1,180,0|4
96,272,33712,2,0,L|96:80,1,180,0|4
256,32,35270,6,2,L|168:112|288:112|200:200,1,360
176,304,36829,1,8
336,304,37413,1,8
464,48,38387,6,0,B|352:48|352:160,1,180,0|4
176,160,39556,1,0
64,159,39946,2,0,B|64:49|176:49,1,180,0|4
448,48,41504,6,2,L|448:168|368:80|368:208,1,360
256,208,43063,1,8
256,32,43647,1,8
64,240,44621,6,0,B|208:240|208:112,2,180,0|4|0
64,352,46179,2,2,B|240:352,1,120
256,192,46959,12,0,48517
448,112,62543,6,0,B|368:80|272:160|208:112,1,240
64,288,64102,6,0,B|144:256|240:336|304:288,1,240
400,240,65270,1,8
432,128,65660,1,2
48,352,67218,1,0
48,128,67998,1,2
48,240,68387,1,8
160,240,68777,6,0,B|352:240,1,180,0|8
448,240,69751,1,8
448,128,70140,2,2,B|176:128,1,240,2|10
96,128,71309,1,8
96,240,71699,2,0,L|224:240|224:352,1,240,0|8
336,352,72868,1,8
448,352,73257,2,2,L|448:224,3,120,2|2|2|10
448,112,74816,1,8
272,112,75400,5,0
160,112,75790,2,0,L|160:48|96:48|96:112,1,180,0|8
96,272,76959,1,0
208,272,77348,2,2,L|272:272|272:336|368:336,1,180,2|10
496,336,78517,1,0
496,224,78907,2,0,L|368:224|368:160,1,180,0|8
192,160,80076,1,2
192,48,80465,1,2
80,48,80855,1,0
80,160,81244,1,4
48,128,87478,6,2,L|48:64|112:64|112:128|320:128,1,360
384,128,89037,2,2,L|384:192|320:192|320:240|128:240,1,360
144,352,90595,1,4
368,352,91374,1,0
256,160,92153,1,8
464,80,92933,1,2
464,192,93322,1,0
352,192,93712,6,2,L|352:256|288:256|288:192|112:192,1,360
112,80,95270,2,2,L|176:80|176:16|240:16|240:192,1,360
256,192,96829,12,0,98387
336,240,99946,6,0,B|400:208|304:176|336:112,1,120
112,160,101504,2,0,B|80:112|160:80|176:112,1,90
192,336,103063,2,0,B|240:304|272:352|288:304,1,90,2|0
464,128,104621,1,2
192,160,105595,2,0,B|240:160,3,30,0|0|0|4
368,80,106764,5,4
368,240,107348,1,8
256,240,107738,2,0,B|48:240,2,180,0|8|0
256,128,109296,5,4
96,128,109881,1,4
96,288,110465,1,8
208,288,110855,2,0,B|400:288,2,180,0|8|0
208,176,112413,5,0
368,176,112998,1,4
368,16,113582,1,8
256,16,113972,2,0,B|64:16,2,180,0|8|0
256,128,115530,5,0
96,128,116115,1,4
96,288,116699,1,8
208,288,117089,2,0,B|416:288,1,180,0|8
384,176,118063,2,0,B|256:176,1,120,8|2
304,192,125270,5,0
416,192,125660,1,8
416,352,126244,1,4
256,352,126829,1,0
144,352,127218,1,8
144,192,127803,1,2
304,192,128387,5,0
416,192,128777,1,8
416,32,129361,1,4
256,32,129946,1,0
144,32,130335,1,8
144,144,130725,1,0
256,144,131115,1,2
256,192,131699,12,0,134231
256,48,135790,5,8
256,272,136569,1,2
200,176,136959,1,0
312,176,137348,1,4
