osu file format v5

[General]
AudioFilename: 03_mindless_self_indulgence-straight_to_video.mp3
AudioLeadIn: 0
PreviewTime: -1
Countdown: 1
SampleSet: Normal
StackLeniency: 0.7
Mode: 0
LetterboxInBreaks: 1
EditorBookmarks: 15814,47034,62644,93863,101668,125079,140688,180690,198251,221666

[Metadata]
Title:Straight To Video
Artist:Mindless Self Indulgence
Creator:awp
Version:Harder
Source:
Tags:

[Difficulty]
HPDrainRate:7
CircleSize:6
OverallDifficulty:7
SliderMultiplier:1.8
SliderTickRate:2

[Events]
//Background and Video events
0,0,"bg.jpg"
//Break Periods
2,47234,61324
2,94063,100348
2,125279,139368
2,180890,196931
//Storyboard Layer 0 (Background)
//Storyboard Layer 1 (Failing)
//Storyboard Layer 2 (Passing)
//Storyboard Layer 3 (Foreground)
4,3,1,"double.png",320,273 F,0,60690,61178,0,1 F,0,61666,62154,1,0
4,3,1,"slow.png",328,181 F,0,69227,69471,0,1 F,0,69715,69959,1,0
//Storyboard Sound Samples
//Background Colour Transformations
3,100,0,0,0

[TimingPoints]
8004.06523992957,487.80487804878,4,1,0,100,1
62154,-50,4,1,0,100,0
63375,-50,4,2,0,100,0
64351,-50,4,1,0,100,0
65327,-50,4,2,0,100,0
66302,-50,4,1,0,100,0
67278,-50,4,2,0,100,0
68375,-50,4,1,0,100,0
69107,-50,4,2,0,100,0
70082,-100,4,1,0,100,0
157032,-100,4,2,0,100,0
158007,-100,4,1,0,100,0
158983,-100,4,2,0,100,0
159958,-100,4,1,0,100,0
160934,-100,4,2,0,100,0
161909,-100,4,1,0,100,0
164349,-100,4,2,0,80,0
164836,-100,4,1,0,100,0
214349,-100,4,1,0,80,0
216056,-100,4,1,0,70,0
218251,-100,4,1,0,70,0
220203,-100,4,1,0,50,0

[Colours]
Combo1 : 0,0,255
Combo2 : 22,0,147
Combo3 : 0,0,255
Combo4 : 91,91,255

[HitObjects]
256,32,15808,1,0
304,112,16052,1,0
208,112,16296,1,8
344,192,16784,5,8
256,160,17028,1,0
256,216,17150,1,0
256,272,17272,1,8
208,216,17516,1,0
256,216,17638,1,0
304,216,17760,6,0,B|408:216,2,90,8|0|8
456,112,18735,1,8
368,112,18979,1,0
320,112,19101,1,0
272,112,19223,1,8
184,112,19467,1,0
136,112,19589,1,0
88,112,19711,5,8
88,200,19955,1,0
88,288,20199,1,8
264,288,20686,6,0,B|296:352|328:288,1,90,8|0
352,256,21052,1,0
384,288,21174,1,8
464,248,21418,2,0,B|504:288,2,45,0|0|8
464,160,21906,1,0
464,72,22150,1,8
376,72,22394,5,0
288,72,22638,1,0
376,136,22882,1,0
288,136,23126,1,4
168,152,23613,5,0
136,184,23735,1,0
112,224,23857,1,0
136,264,23979,1,0
160,304,24101,1,8
344,224,24589,2,0,B|160:224,1,180,0|8
288,152,25565,5,0
320,184,25687,1,0
344,224,25809,1,0
320,264,25931,1,0
296,304,26053,1,8
112,224,26541,2,0,B|296:224,1,180,0|8
256,48,27516,6,0,B|216:88,1,45
224,79,27760,2,0,B|264:120,1,45
224,152,28004,1,8
208,344,28491,5,0
304,344,28735,1,0
304,240,28979,1,8
208,240,29223,1,0
160,152,29467,5,0
208,152,29589,1,0
256,152,29711,1,0
304,152,29833,1,0
352,152,29955,1,8
256,328,30443,5,4
400,192,30930,6,0,B|368:256|336:192,1,90
336,96,31418,2,0,B|296:32|200:200|168:112,1,180,4|0
48,280,32394,2,0,B|96:360|152:216|208:280,1,180
400,296,33369,5,0
400,192,33613,1,0
360,224,33735,1,0
320,256,33857,1,0
224,224,34101,1,0
264,192,34223,1,0
304,160,34345,1,0
344,128,34467,1,0
384,96,34589,2,2,B|456:32,2,90
280,96,35321,6,0,B|80:96,1,180,4|0
32,280,36296,2,0,B|216:280,1,180
384,184,37272,2,0,B|288:184|288:72|392:72|392:144,1,180
384,264,38247,2,0,B|480:264|480:376|376:376|376:304,1,180,0|0
304,280,38979,1,0
256,192,39223,6,0,L|296:112|256:24,1,180,4|0
80,112,40199,2,0,L|40:192|80:280,1,180,0|0
256,144,41174,5,0
232,184,41296,1,0
280,184,41418,1,0
328,264,41662,5,0
288,240,41784,1,0
288,288,41906,1,0
192,264,42150,5,2
232,240,42272,1,2
232,288,42394,1,2
256,360,42638,6,0,L|384:360|384:304,1,180,0|4
384,112,43613,1,0
184,104,44101,1,0
72,104,44345,1,0
128,192,44589,1,0
128,288,44833,1,0
56,360,45077,6,0,L|160:360,1,90
248,360,45565,2,0,L|192:272,1,90
288,248,46052,2,0,L|360:328,1,90
424,248,46540,2,2,L|360:240,1,45
352,192,46784,2,2,L|424:184,1,45,2|2
400,136,47028,1,2
168,88,62638,6,0,L|352:88,2,180,0|0|0
256,304,63613,5,0
208,216,63857,1,0
256,192,63979,1,0
304,216,64101,1,8
480,128,64589,6,0,B|480:16|368:16,1,180
368,128,65077,1,0
200,256,65565,2,0,B|200:368|320:368,1,180
384,256,66052,1,8
256,72,66540,5,0
152,72,66784,1,0
152,168,67028,1,0
32,352,67516,6,0,B|200:408|200:112|328:248,1,360,0|8
424,248,68247,1,8
368,160,68491,5,0
424,56,68735,6,0,B|216:56,1,180
136,56,69223,6,0,B|136:240,1,180
56,160,69711,2,0,B|56:352,1,180,0|8
192,192,70443,6,0,B|192:304,1,90
280,240,70930,2,0,B|280:48,2,180,8|0|8
472,192,72394,5,0
368,192,72638,1,0
416,280,72882,1,8
416,80,73369,1,0
416,280,73857,1,8
216,280,74345,6,0,B|320:280,2,90,0|0|8
352,136,75321,1,0
152,136,75808,1,8
256,48,76296,5,0
256,96,76418,1,0
256,144,76540,1,0
256,192,76662,1,0
256,240,76784,1,8
256,360,77272,1,4
112,192,77760,6,0,B|144:256|176:192,1,90
176,96,78248,2,0,B|216:32|312:200|344:112,1,180,4|0
464,280,79224,2,0,B|416:360|360:216|304:280,1,180
112,296,80199,5,0
112,192,80443,1,0
152,224,80565,1,0
192,256,80687,1,8
288,224,80931,1,0
248,192,81053,1,0
208,160,81175,1,8
168,128,81297,1,8
128,96,81419,2,0,B|56:32,2,90,8|0|0
232,96,82151,6,0,B|432:96,1,180,4|0
480,280,83126,2,0,B|296:280,1,180
128,184,84102,2,0,B|224:184|224:72|120:72|120:144,1,180
128,264,85077,2,0,B|32:264|32:376|136:376|136:304,1,180,0|0
208,280,85809,1,0
256,192,86053,6,2,L|216:112|256:24,1,180,6|2
432,112,87029,2,2,L|472:192|432:280,1,180,2|2
256,144,88004,5,0
280,184,88126,1,0
232,184,88248,1,0
184,264,88492,5,0
224,240,88613,1,0
224,288,88735,1,0
320,264,88980,5,2
280,240,89102,1,2
280,288,89224,1,2
256,360,89468,6,0,L|128:360|128:304,1,180,0|4
128,112,90443,1,0
328,104,90931,1,0
440,104,91175,1,0
384,192,91419,1,0
384,288,91663,1,0
456,360,91907,6,0,L|352:360,1,90
264,360,92395,2,0,L|320:272,1,90
224,248,92882,2,0,L|152:328,1,90
88,248,93370,2,2,L|152:240,1,45
160,192,93614,2,2,L|88:184,1,45
112,136,93858,1,2
256,192,101662,5,4
56,192,102150,1,0
136,136,102394,2,0,B|176:232,1,90
224,296,102882,1,0
272,272,103004,1,0
296,224,103126,1,0
304,128,103369,1,0
352,152,103491,1,0
368,200,103613,1,4
368,352,104101,6,0,B|472:352,1,90
456,248,104589,2,0,B|456:152,1,90
456,56,105077,1,0
360,56,105321,1,0
256,56,105565,6,0,B|256:160|384:160,1,180,4|0
376,256,106296,1,0
272,256,106540,1,0
168,256,106784,1,0
64,256,107028,2,4,B|64:64,1,180,0|4
256,120,108004,5,0
256,216,108247,1,0
256,312,108491,6,0,B|312:312,1,45,2|0
352,312,108735,2,0,B|344:264,1,45,2|0
392,256,108979,2,0,B|424:296,1,45,2|0
448,248,109223,2,0,B|440:192,1,45,2|0
392,200,109467,1,6
216,112,109955,5,0
112,112,110199,2,0,B|112:224,1,90
208,200,110686,2,0,B|208:296,1,90
304,288,111174,2,0,B|304:184,1,90
488,192,111906,1,8
408,136,112150,6,0,B|408:248,1,90
304,192,112638,2,0,B|304:288,1,90
216,240,113126,2,0,B|216:144,1,90
24,192,113857,1,8
32,96,114101,5,0
128,96,114345,1,0
80,192,114589,1,0
176,192,114833,1,0
128,288,115077,1,0
224,288,115321,1,0
256,96,115808,1,8
336,40,116052,6,0,B|440:40,1,90
480,120,116540,2,0,B|384:120,1,90
336,208,117028,2,0,B|432:208,1,90,0|4
256,192,117760,5,0
256,288,118004,2,0,B|184:288|184:232,1,90
184,144,118491,1,0
184,48,118735,2,0,B|80:48|80:176,1,180,0|0
16,360,119711,5,0
112,360,119955,1,0
208,360,120199,1,0
304,360,120443,1,0
400,360,120686,1,0
496,360,120930,2,0,B|496:264,1,90,0|4
456,72,121662,5,0
352,72,121906,2,0,B|400:72|400:136,1,90
296,136,122394,2,0,B|352:136|352:208,2,90
240,216,123126,1,0
88,192,123613,1,4
88,288,123857,6,0,B|136:288,1,45
184,288,124101,2,0,B|208:328,1,45,0|0
256,320,124345,2,0,B|248:272,1,45,0|0
272,232,124589,2,0,B|312:264,1,45,2|2
344,232,124833,2,0,B|328:176,1,45,2|2
280,176,125077,1,2
232,192,140686,5,2
256,144,140808,1,0
280,192,140930,1,2
256,232,141052,2,0,B|256:336,2,90,0|2|0
232,88,141906,1,2
280,88,142028,1,0
56,192,142638,5,0
104,192,142760,2,0,B|168:192,1,45,2|0
248,192,143126,1,2
248,192,143247,1,2
344,192,143491,2,0,B|344:336,1,135,0|2
344,327,143979,1,0
136,192,144589,6,0,B|136:240,1,45,0|2
136,237,144833,2,0,B|232:240,2,90
128,336,145565,1,0
176,328,145686,1,2
224,320,145808,1,0
272,328,145930,1,2
320,344,146052,1,0
440,344,146540,6,0,B|440:288,1,45,0|2
440,299,146784,2,0,B|384:272,1,45
399,279,147028,2,0,B|400:216,1,45
399,234,147272,2,0,B|360:192,1,45
368,201,147516,2,0,B|368:144,1,45,0|2
144,192,148247,5,0
232,192,148491,5,0
256,240,148613,1,2
280,192,148735,1,0
256,152,148857,2,0,B|256:48,2,90,0|2|0
232,296,149711,1,2
280,296,149833,1,0
56,192,150443,5,0
104,192,150565,2,0,B|168:192,1,45,2|0
248,192,150931,1,0
248,192,151052,1,2
344,192,151296,2,0,B|344:48,1,135,0|2
344,57,151784,1,0
136,192,152394,6,0,B|136:144,1,45,0|2
136,147,152638,2,0,B|232:144,2,90
128,48,153370,1,0
176,56,153491,1,2
224,64,153613,1,0
272,56,153735,1,2
320,40,153857,1,0
440,40,154345,6,0,B|440:96,1,45
440,85,154589,2,0,B|384:112,1,45
399,105,154833,2,0,B|400:168,1,45
399,150,155077,2,0,B|360:192,1,45
368,183,155321,2,0,B|368:240,1,45
368,228,155565,2,8,B|368:296,2,45
168,96,156296,5,0
168,192,156540,1,0
168,296,156784,1,0
280,144,157272,6,0,B|328:96|256:36|184:96|232:144,1,180,0|8
344,288,158247,5,0
344,192,158491,1,0
344,88,158735,1,0
232,240,159223,6,0,B|184:288|256:348|328:288|280:240,1,180,0|8
64,192,160199,5,0
160,192,160443,1,0
256,192,160686,1,0
168,72,161174,6,0,B|368:72,1,180,0|8
448,192,162150,5,0
352,192,162394,1,0
256,192,162637,1,0
256,192,162882,12,8,164589
336,288,165077,6,0,B|296:352|200:184|168:272,1,180,4|0
48,104,166053,2,0,B|96:24|152:168|208:104,1,180
400,88,167028,5,0
400,192,167272,1,0
360,160,167394,1,0
320,128,167516,1,8
224,160,167760,1,0
264,192,167882,1,0
304,224,168004,1,8
344,256,168126,1,8
384,288,168248,2,2,B|456:352,2,90,10|2|2
280,288,168980,6,0,B|80:288,1,180,4|0
32,104,169955,2,0,B|216:104,1,180
384,200,170931,2,0,B|288:200|288:312|392:312|392:240,1,180
456,200,171662,1,0
384,120,171906,2,0,B|480:120|480:8|376:8|376:80,1,180,0|0
304,104,172638,1,0
256,192,172882,6,2,L|296:272|256:360,1,180,6|2
80,272,173858,2,2,L|40:192|80:104,1,180,2|2
256,240,174833,5,0
280,200,174955,1,0
232,200,175077,1,8
328,120,175321,5,0
288,144,175443,1,0
288,96,175565,1,8
192,120,175809,5,2
232,96,175930,1,2
232,144,176052,1,2
256,24,176297,6,0,L|384:24|384:80,1,180,0|4
384,272,177272,1,0
184,280,177760,1,0
72,280,178004,1,0
128,192,178248,1,0
128,96,178492,1,0
56,24,178736,6,0,L|160:24,1,90
248,24,179224,2,0,L|192:112,1,90
288,136,179711,2,0,L|360:56,1,90
424,136,180199,2,2,L|360:144,1,45
352,192,180443,2,2,L|424:200,1,45
400,248,180687,1,2
256,128,198247,5,4
160,160,198979,5,0
200,256,199223,1,0
256,344,199467,1,0
312,256,199711,1,0
360,160,199955,2,4,B|264:160,1,90
256,40,200930,5,0
352,40,201174,1,0
448,40,201418,1,0
448,136,201662,1,0
448,232,201906,2,0,B|448:344,1,90,0|4
152,336,202882,5,0
64,288,203126,1,0
152,248,203369,1,0
64,192,203613,1,0
152,144,203857,2,4,B|64:104,1,90
352,192,204833,5,0
448,192,205077,2,0,B|448:144,1,45
448,96,205321,2,0,B|376:96,1,45
392,152,205565,2,0,B|352:128,1,45
352,72,205808,2,0,B|320:24,1,45
288,80,206052,1,4
256,192,206540,12,4,207760
256,192,208004,5,4
256,192,208491,12,4,209955
256,192,210443,12,4,211662
256,192,211906,5,4
256,192,212394,12,4,213857
72,192,214589,6,0,B|136:120,1,90
192,192,215077,2,0,B|256:120,1,90
352,120,215565,2,4,B|408:192,1,90
400,320,216296,5,0
304,320,216540,1,0
256,320,216662,1,0
208,320,216784,1,0
144,240,217028,1,0
192,240,217150,1,0
240,240,217272,1,0
304,160,217516,1,0
256,160,217638,1,0
208,160,217760,1,4
48,48,218491,6,0,B|160:48,1,90
240,48,218979,1,0
336,48,219223,1,0
384,56,219345,1,0
424,80,219467,1,4
448,120,219589,1,0
456,168,219711,1,4
368,192,220443,6,0,B|343:240|288:208,1,90,0|4
208,152,220930,1,0
136,88,221174,2,0,B|96:56|64:56|48:144|48:216,1,180,0|4
