osu file format v5

[General]
AudioFilename: Shut Me Up.mp3
AudioLeadIn: 0
PreviewTime: -1
Countdown: 0
SampleSet: Normal
EditorBookmarks: 37609,58340,59719,61099,62478,63857,65237,92708,93283,121961,122133,122306,122478,122650,122823,122995,123340,123512,123857

[Metadata]
Title:Shut Me Up
Artist:Mindless Self Indulgence
Creator:Mifune24
Version:Hard

[Difficulty]
HPDrainRate:7
CircleSize:5
OverallDifficulty:7
SliderMultiplier:2.6
SliderTickRate:2

[Events]
//Background and Video events
1,-41150,"638b40816b19892f1b9fec3d9c914893.avi"
//Break Periods
2,110954,121061
//Storyboard Layer 0 (Background)
//Storyboard Layer 1 (Failing)
//Storyboard Layer 2 (Passing)
//Storyboard Layer 3 (Foreground)
//Storyboard Sound Samples
//Background Colour Transformations
3,100,163,162,255

[TimingPoints]
11518,689.655172413793,4,1,0,100

[Colours]
Combo1 : 255,128,0
Combo2 : 5,240,5
Combo3 : 5,5,240
Combo4 : 240,5,5

[HitObjects]
96,64,11345,1,0
96,64,11517,1,0
256,64,12035,1,0
256,64,12207,1,0
416,64,12724,1,0
416,64,12897,1,0
416,224,13414,1,0
416,224,13586,1,0
416,224,13759,1,0
416,320,14104,5,0
352,288,14276,1,0
288,320,14449,1,0
224,288,14621,1,0
160,320,14793,1,0
96,288,14966,1,0
96,192,15311,1,2
192,192,15655,1,2
288,192,16000,1,2
384,192,16345,1,2
384,192,16517,1,2
384,128,16690,5,4
384,128,16862,1,4
384,128,17035,1,4
224,128,17552,1,0
224,128,17724,1,0
64,128,18242,1,0
64,128,18414,1,0
64,288,18931,1,0
64,288,19104,1,0
64,288,19276,1,0
160,352,19621,5,0
192,288,19793,1,0
160,224,19966,1,0
192,160,20138,1,0
160,96,20311,1,0
192,32,20483,1,0
288,32,20828,1,2
288,128,21173,1,2
288,224,21517,1,2
288,320,21862,1,2
288,320,22035,1,2
288,320,22207,1,2
384,320,22552,5,0
448,224,22897,1,0
384,128,23242,1,0
288,192,23586,1,0
224,96,23931,1,0
128,160,24276,1,0
192,256,24621,1,0
96,320,24966,1,0
32,224,25311,1,0
32,128,25655,5,0
32,64,25828,1,0
96,64,26000,1,0
160,64,26173,1,0
160,128,26345,1,0
96,128,26518,1,0
256,64,27035,1,0
256,128,27207,1,0
320,128,27380,1,0
320,64,27552,1,0
384,64,27724,1,0
384,128,27897,1,0
384,192,28069,5,2
384,288,28414,1,2
288,352,28759,1,2
224,256,29104,1,2
128,320,29449,1,2
64,224,29793,1,2
160,160,30138,1,2
96,64,30483,1,2
192,0,30828,1,2
256,64,31173,5,0
320,64,31345,1,0
320,128,31518,1,0
320,192,31690,1,0
320,256,31862,1,0
256,256,32035,1,0
96,192,32552,1,0
96,128,32724,1,0
160,128,32897,1,0
160,192,33069,1,0
256,64,33586,5,0
352,128,33931,1,0
416,224,34276,1,0
352,320,34621,1,0
352,320,34793,2,0,B|288:320|224:320|192:224,1,195
288,224,35655,1,0
288,128,36000,1,0
288,64,36173,1,0
192,64,36518,5,0
128,160,36862,1,0
64,256,37207,1,0
192,320,37724,2,0,B|256:384|320:320,1,130
384,256,38414,1,2
384,256,38759,1,2
288,224,39104,5,0
288,128,39449,1,0
192,64,39793,1,0
96,128,40138,1,0
96,128,40311,2,0,B|96:192|128:256|192:288,1,195
288,320,41173,1,0
384,288,41518,1,0
448,256,41690,1,0
32,32,43242,5,2
256,352,43931,1,2
480,32,44621,1,2
384,32,44966,5,0
320,96,45311,1,0
224,32,45655,1,0
224,32,45828,2,0,B|160:32|128:96|160:192,1,195
176,284,46690,1,0
256,352,47035,1,0
320,352,47207,1,0
32,96,47552,5,0
128,32,47897,1,0
224,96,48242,1,0
352,32,48759,2,0,B|352:192,1,130
352,256,49449,1,2
352,256,49793,1,2
256,320,50138,5,0
160,288,50483,1,0
192,192,50828,1,0
96,128,51173,1,0
96,128,51345,1,0
224,32,51862,1,0
288,128,52207,1,0
352,32,52552,1,0
352,32,52724,1,0
480,352,54276,5,2
256,32,54966,1,2
32,352,55655,1,4
160,64,57035,5,0
256,64,57380,1,0
352,64,57724,1,0
480,224,58414,2,0,B|448:352|256:64|64:256,1,455
128,288,59793,1,0
224,288,60138,1,0
320,288,60483,1,0
480,160,61173,2,0,B|384:0|224:288|32:64,1,455
128,64,62552,1,0
224,64,62897,1,0
320,64,63242,1,0
448,224,63931,2,0,B|416:320|384:352|224:384|160:352|96:320|64:288|32:224,1,520
256,192,65828,1,4
256,192,66000,1,4
96,64,66518,5,0
96,64,66690,1,0
96,224,67207,1,0
96,224,67380,1,0
256,224,67897,1,0
256,224,68069,1,0
256,64,68586,1,0
256,64,68759,1,0
256,64,68931,1,0
352,64,69276,5,0
416,96,69449,1,0
416,160,69621,1,0
352,128,69793,1,0
352,192,69966,1,0
288,160,70138,1,0
224,256,70483,1,2
160,320,70828,1,2
96,256,71173,1,2
160,192,71518,1,2
160,192,71690,1,2
160,256,71862,5,4
160,256,72035,1,4
160,256,72207,1,4
320,256,72724,1,0
320,256,72897,1,0
448,160,73414,1,0
448,160,73586,1,0
288,160,74104,1,0
288,160,74276,1,0
288,160,74449,1,0
192,160,74793,5,0
128,192,74966,1,0
128,128,75138,1,0
64,96,75311,1,0
64,160,75483,1,0
64,224,75655,1,0
128,320,76000,1,0
224,288,76345,1,0
320,320,76690,1,0
416,288,77035,1,0
416,288,77207,1,0
416,288,77380,1,0
416,192,77724,5,0
320,128,78069,1,0
288,224,78414,1,0
192,160,78759,1,0
256,64,79104,1,0
160,96,79449,1,0
256,160,79793,1,0
192,256,80138,1,0
96,320,80483,1,0
96,224,80828,5,0
32,224,81000,1,0
32,160,81173,1,0
32,96,81345,1,0
96,96,81518,1,0
96,160,81690,1,0
256,160,82207,1,0
256,224,82380,1,0
320,224,82552,1,0
320,160,82724,1,0
320,96,82897,1,0
256,96,83069,1,0
192,96,83242,5,2
288,32,83586,1,2
384,96,83931,1,2
384,192,84276,1,2
448,288,84621,1,2
352,352,84966,1,2
256,288,85311,1,2
160,352,85655,1,2
256,352,86000,1,2
352,288,86345,5,0
416,288,86518,1,0
416,224,86690,1,0
416,160,86862,1,0
416,96,87035,1,0
352,96,87207,1,0
192,160,87724,1,0
192,224,87897,1,0
256,224,88069,1,0
256,160,88242,1,0
96,96,88759,5,0
192,64,89104,1,0
288,96,89449,1,0
384,64,89793,1,0
384,64,89966,2,0,B|448:128|384:256,1,195
320,320,90828,1,0
224,288,91173,1,0
224,288,91345,1,0
128,320,91690,5,0
64,224,92035,1,0
128,128,92380,1,0
256,64,92897,2,0,B|320:64|384:128,1,130
448,192,93586,1,2
448,192,93931,1,2
384,320,94276,5,0
288,256,94621,1,0
224,160,94966,1,0
128,96,95311,1,0
128,96,95483,1,0
128,256,96000,1,0
224,320,96345,1,0
320,256,96690,1,0
320,256,96862,1,0
32,192,98414,5,2
256,32,99104,1,2
480,192,99793,1,2
384,224,100138,5,0
288,256,100483,1,0
192,224,100828,1,0
192,224,101000,2,0,B|96:224|32:160|64:96,1,195
128,32,101862,1,0
224,64,102207,1,0
224,128,102380,1,0
320,320,102724,5,0
320,224,103069,1,0
320,128,103414,1,0
320,0,103931,2,0,B|384:0|448:96,1,130
448,160,104621,1,2
448,160,104966,1,2
384,256,105311,5,0
288,288,105655,1,0
192,320,106000,1,0
96,288,106345,1,0
96,288,106518,2,0,B|96:192|224:128,1,195
288,96,107380,1,0
384,128,107724,1,0
384,128,107897,1,0
480,192,109449,5,2
256,352,110138,1,2
32,192,110828,1,4
96,64,122035,5,0
160,64,122207,1,0
224,64,122380,1,0
288,64,122552,1,0
352,64,122724,1,0
416,64,122897,1,0
416,128,123069,2,0,B|256:128,1,130
224,128,123586,1,0
224,128,123931,1,0
64,320,124793,5,0
128,320,124966,1,0
192,320,125138,1,0
256,320,125311,1,0
320,320,125483,1,0
384,320,125655,1,0
384,256,125828,2,0,B|224:256,1,130
192,256,126345,1,0
192,256,126690,1,0
416,96,127552,5,2
480,96,127724,1,2
480,160,127897,1,2
416,160,128069,1,2
416,224,128242,1,2
480,224,128414,1,2
480,288,128586,2,2,B|320:288,1,130
352,224,129104,1,2
352,128,129449,1,2
96,192,131345,5,2
96,192,131518,1,2
256,192,132035,1,2
256,192,132207,1,2
416,192,132724,1,4
416,192,132897,1,4
416,256,133069,5,0
416,320,133242,1,0
352,320,133414,1,0
288,320,133586,1,0
288,256,133759,1,0
224,256,133931,1,0
224,320,134104,2,0,B|64:320,1,130
96,256,134621,1,0
96,256,134966,1,0
32,256,135138,5,2
32,192,135311,1,2
32,128,135483,1,2
32,64,135655,1,2
96,64,135828,5,0
160,64,136000,1,0
160,128,136173,1,0
224,128,136345,1,0
224,64,136518,1,0
288,64,136690,1,0
288,128,136862,2,0,B|448:128,1,130
416,64,137380,1,0
416,64,137724,1,0
480,64,137897,5,2
480,128,138069,1,2
480,192,138242,1,2
480,256,138414,1,2
416,256,138586,5,0
384,192,138759,1,0
352,256,138931,1,0
320,192,139104,1,0
288,256,139276,1,0
256,192,139449,1,0
224,256,139621,2,0,B|64:256,1,130
96,192,140138,1,0
192,192,140483,1,0
192,128,140655,5,2
256,128,140828,1,2
320,128,141000,1,2
384,128,141173,1,2
256,320,142380,5,2
256,320,142552,1,2
96,64,143069,1,2
96,64,143242,1,2
416,64,143759,1,4
416,64,143931,1,4
416,160,144276,5,0
352,256,144621,1,0
256,320,144966,1,0
256,320,145138,2,0,B|160:320|96:288|64:256,1,195
32,160,146000,1,0
96,64,146345,1,0
96,64,146518,1,0
384,64,146862,5,0
448,160,147207,1,0
384,256,147552,1,0
256,192,148069,2,0,B|192:160|160:256,1,130
128,352,148759,1,2
128,352,149104,1,2
224,352,149449,5,0
320,320,149793,1,0
416,352,150138,1,0
416,256,150483,1,0
416,256,150655,1,0
320,128,151173,1,0
224,64,151517,1,0
128,128,151862,1,0
128,128,152035,1,0
32,32,153586,5,2
256,352,154276,1,2
480,32,154966,1,2
256,192,155311,12,0,157552
256,64,157897,1,0
256,160,158242,1,0
256,256,158586,1,0
128,320,159104,2,0,B|192:384|256:352,1,130
352,320,159793,1,2
352,320,160138,1,2
256,192,160483,12,0,163242
480,32,164621,5,2
256,352,165311,1,2
32,32,166000,1,2
256,192,166518,1,4
256,192,166690,1,4
