osu file format v5

[General]
AudioFilename: 09prom.mp3
AudioLeadIn: 0
PreviewTime: 34826
Countdown: 0
SampleSet: Normal
StackLeniency: 0.7
Mode: 0
LetterboxInBreaks: 1

[Metadata]
Title:Prom
Artist:Mindless Self Indulgence
Creator:mtmcl
Version:You Make Me Normal
Source:
Tags:

[Difficulty]
HPDrainRate:5
CircleSize:5
OverallDifficulty:5
SliderMultiplier:1.3
SliderTickRate:1

[Events]
//Background and Video events
0,0,"msi.jpg"
//Break Periods
2,38443,40526
2,58440,69856
2,105102,107185
2,118434,122516
//Storyboard Layer 0 (Background)
//Storyboard Layer 1 (Failing)
//Storyboard Layer 2 (Passing)
//Storyboard Layer 3 (Foreground)
//Storyboard Sound Samples
//Background Colour Transformations
3,100,163,162,255

[TimingPoints]
5564,333.333333333333,4,1,0,80,1
113563,-100,4,2,0,80,0
114897,-100,4,1,0,80,0
133564,-100,4,2,0,80,0
134897,-100,4,1,0,80,0

[Colours]
Combo1 : 117,70,0
Combo2 : 0,94,47
Combo3 : 0,0,85
Combo4 : 100,0,0

[HitObjects]
256,192,5569,1,8
168,192,5903,1,8
80,192,6236,1,8
168,288,6736,5,0
296,288,7236,5,0
296,200,7569,1,0
296,112,7903,1,0
384,112,8236,5,2
384,200,8569,1,2
384,288,8903,1,2
480,200,9403,1,0
480,72,9903,1,0
480,72,10069,1,0
352,72,10569,5,0
264,72,10903,5,8
176,72,11236,1,8
176,160,11570,1,8
304,160,12070,5,0
392,160,12403,1,0
392,288,12903,5,0
480,288,13236,1,0
480,376,13570,5,2
392,376,13903,1,2
304,376,14236,1,2
176,376,14736,1,0
176,248,15236,1,0
176,248,15403,1,0
256,24,16903,6,4,L|256:160,1,130
168,304,17903,1,0
344,304,18570,1,0
104,192,19569,6,4,L|240:192,1,130
80,104,20569,1,0
80,280,21236,1,0
328,200,22236,6,4,L|328:64,1,130
440,200,23236,1,0
440,376,23903,1,0
176,376,24903,6,4,L|176:240,1,130
344,192,25903,1,0
256,192,26236,1,0
168,192,26569,1,0
256,192,26903,12,4,28236
256,192,28569,5,0
256,104,28903,1,0
256,16,29236,1,0
256,192,29569,12,4,30903
256,192,31236,5,0
256,280,31569,1,0
256,368,31903,1,0
256,192,32236,12,0,33569
256,192,33903,5,0
168,192,34236,1,0
80,192,34569,1,0
80,104,34903,5,6
432,104,36236,5,6
192,352,37569,5,6
280,352,37903,1,6
368,352,38236,1,6
256,192,41570,5,0
256,192,41903,1,0
168,192,42236,2,8,L|88:192,2,65
168,280,42903,5,0
168,280,43236,1,0
256,280,43570,2,8,L|328:280,2,65
256,368,44236,5,0
256,368,44570,1,0
344,368,44903,2,2,L|480:368,1,130
472,280,45570,2,8,L|472:208,2,65
384,280,46236,1,0
384,192,46570,1,0
256,192,46903,12,4,48236
256,192,48570,6,0,L|256:264,3,65
256,192,49570,12,4,50903
256,192,51403,5,0
216,112,51736,1,0
304,112,52070,1,0
256,192,52236,12,4,53570
256,192,53903,5,0
256,104,54236,1,0
256,16,54570,1,0
256,104,54903,5,6
496,360,56236,5,6
144,360,57570,6,6,L|72:360,4,65
256,360,70903,5,0
256,272,71236,1,0
256,184,71570,2,2,L|256:40,1,130
344,40,72236,5,8
432,40,72570,1,8
432,128,72903,1,8
432,256,73403,5,0
304,256,73903,5,0
216,256,74236,1,0
128,256,74570,1,0
128,344,74903,5,2
216,344,75236,1,2
304,344,75570,1,2
304,216,76070,1,0
304,88,76570,1,0
304,88,76736,1,0
176,80,77236,5,0
88,80,77570,5,8
88,168,77903,1,8
176,168,78236,1,8
176,40,78736,5,0
264,40,79069,1,0
264,168,79569,5,0
264,256,79903,1,0
352,256,80236,5,2
352,168,80569,1,2
440,168,80903,1,2
440,296,81403,1,0
312,328,81903,1,0
312,328,82069,1,0
80,152,83569,6,4,L|80:16,1,130
256,32,84569,1,0
256,208,85236,1,0
496,112,86236,2,4,L|360:112,1,130
192,112,87236,1,0
192,288,87903,1,0
440,216,88903,2,4,L|440:352,1,130
264,344,89903,1,0
264,168,90569,1,0
8,240,91569,2,4,L|8:376,1,130
120,240,92569,1,0
120,328,92903,1,0
208,328,93236,1,0
256,192,93569,12,4,94903
256,192,95236,5,0
256,280,95569,1,0
256,368,95903,1,0
256,192,96236,12,4,97569
256,192,97903,5,0
256,104,98236,1,0
256,16,98569,1,0
256,192,98903,12,4,100236
256,192,100569,5,0
344,192,100903,1,0
432,192,101236,1,0
432,280,101569,5,6
80,280,102903,5,6
320,32,104236,5,6
232,32,104569,1,6
144,32,104903,1,6
256,192,108236,5,0
256,192,108569,1,0
344,192,108903,2,8,L|424:192,2,65
344,104,109569,5,0
344,104,109903,1,0
256,104,110236,2,8,L|184:104,2,65
256,16,110903,1,0
256,16,111236,5,0
168,16,111569,2,2,L|32:16,1,130
40,104,112236,2,8,L|40:176,3,65
40,256,113069,1,2
152,192,113569,5,0
328,192,114236,5,0
256,192,114903,12,4,118236
256,192,123569,5,2
256,192,123903,1,2
40,192,124903,5,2
40,192,125236,1,2
256,336,126236,5,0
344,336,126569,1,0
432,336,126903,1,0
432,208,127403,5,2
432,120,127736,1,2
136,192,128903,6,2,L|136:56,1,130
360,192,130236,6,2,L|360:328,1,130
96,320,131569,6,0,L|232:320,1,130,0|2
224,232,132236,2,0,L|88:232,1,130
96,144,132903,2,0,L|232:144,1,130,0|2
224,56,133569,5,4
400,56,134236,5,0
488,208,134903,5,6
136,208,136236,5,6
456,352,137569,6,6,L|376:352,1,65
