osu file format v5

[General]
AudioFilename: 09prom.mp3
AudioLeadIn: 0
PreviewTime: -1
Countdown: 0
SampleSet: Normal
StackLeniency: 0.7
Mode: 0
LetterboxInBreaks: 1

[Metadata]
Title:Prom
Artist:Mindless Self Indulgence
Creator:mtmcl
Version:You Make Me Hard
Source:
Tags:

[Difficulty]
HPDrainRate:6
CircleSize:5
OverallDifficulty:6
SliderMultiplier:2
SliderTickRate:2

[Events]
//Background and Video events
0,0,"msi.jpg"
//Break Periods
2,38443,40526
2,58440,69856
2,105102,107185
2,118434,122516
//Storyboard Layer 0 (Background)
//Storyboard Layer 1 (Failing)
//Storyboard Layer 2 (Passing)
//Storyboard Layer 3 (Foreground)
//Storyboard Sound Samples
//Background Colour Transformations
3,100,163,162,255

[TimingPoints]
5564,333.333333333333,4,1,0,80,1
113563,-100,4,2,0,80,0
114897,-100,4,1,0,80,0
133564,-100,4,2,0,80,0
134897,-100,4,1,0,80,0

[Colours]
Combo1 : 117,70,0
Combo2 : 0,94,47
Combo3 : 0,0,85
Combo4 : 100,0,0

[HitObjects]
392,72,5569,2,0,L|280:72,1,100,8|0
200,32,5903,2,0,L|200:136,1,100,8|0
144,216,6236,2,0,L|272:216,2,100,8|0|8
56,264,6736,2,0,L|56:128,1,100,8|0
104,72,7069,2,0,L|0:72,2,100,0|8|0
184,128,7569,2,0,L|184:24,1,100,8|0
280,24,7903,2,0,L|280:136,1,100,8|0
368,72,8236,5,4
368,272,8569,1,4
168,272,8903,1,4
448,160,9403,1,4
144,160,9903,2,2,L|256:160,1,100
472,352,10570,5,0
368,352,10736,1,0
264,352,10903,6,0,L|264:248,1,100,8|0
208,168,11236,2,8,L|208:272,1,100
152,352,11570,2,0,L|152:248,2,100,8|0|8
96,272,12070,2,0,L|96:160,2,100,8|0|8
96,72,12736,2,0,L|200:72,2,100,0|8|0
176,128,13236,2,0,L|280:128,1,100,8|0
376,128,13570,5,4
376,328,13903,2,4,L|176:328,1,200
256,40,14736,1,4
256,336,15236,2,2,L|256:232,1,100
256,192,15570,12,4,16236
256,192,16903,6,0,L|56:192,1,200
456,192,17903,2,2,L|456:344|352:344|352:192,1,400
256,24,18903,5,0
256,224,19236,1,0
80,120,19570,6,0,L|288:120,1,200
480,120,20236,1,0
480,320,20569,2,2,L|328:320|328:208|472:208,1,400
264,208,21569,5,0
64,208,21903,1,0
160,32,22236,6,0,L|160:240,1,200
352,192,22903,1,0
256,16,23236,2,2,L|408:16|408:120|256:120,1,400
464,120,24236,5,0
464,320,24569,1,0
264,320,24903,6,0,L|264:216|168:216,2,200
264,120,25903,1,4
64,120,26236,1,4
64,320,26569,1,4
64,320,26736,1,4
256,192,26903,12,4,28236
256,32,28403,6,0,L|256:136,1,100,0|8
208,224,28736,2,0,L|312:224,2,100,0|8|0
208,320,29236,2,0,L|320:320,1,100,8|0
256,192,29569,12,4,30903
256,32,31069,5,0
136,192,31403,1,8
256,352,31736,1,0
376,192,32069,1,0
256,192,32236,12,0,33569
256,24,33736,6,0,L|256:128,1,100,0|8
256,224,34069,2,0,L|368:224,2,100,0|8|0
152,224,34569,2,0,L|152:328,1,100,8|0
256,328,34903,5,6
456,328,35236,6,0,L|352:328|352:232,2,200
456,128,36236,5,6
256,128,36569,6,0,L|256:16|352:16,2,200
256,192,37569,12,4,38236
200,96,41570,5,4
200,296,41903,1,4
24,192,42236,2,0,L|88:192,3,50
304,96,42903,5,4
304,296,43236,1,4
472,192,43570,2,0,L|416:192,3,50
168,192,44236,5,4
368,192,44570,1,4
264,24,44903,1,0
264,224,45236,1,0
64,192,45570,2,0,L|64:88,2,100,0|8|0
256,136,46236,1,0
448,80,46570,1,0
448,80,46736,1,0
256,192,46903,12,4,48236
256,192,48403,5,0
152,192,48570,1,0
152,88,48736,2,0,L|256:88,2,100,0|8|0
48,88,49236,2,0,L|48:200,1,100,8|0
256,192,49570,12,4,50903
152,80,51070,5,0
352,80,51403,1,8
352,280,51736,1,0
152,280,52070,1,0
256,192,52236,12,4,53570
32,192,53736,6,0,L|136:192,1,100,0|8
272,248,54070,2,0,L|272:128,2,100,0|8|0
224,88,54570,2,0,L|344:88,1,100,8|0
432,192,54903,5,2
136,192,55236,5,0
424,128,55570,5,0
128,128,55903,5,0
416,64,56236,5,2
120,64,56570,5,0
408,0,56903,5,0
112,0,57236,5,0
256,192,57570,12,4,58236
256,360,70903,5,8
256,256,71070,1,0
256,152,71236,1,8
256,48,71403,1,0
360,48,71570,2,0,L|360:256,1,200
152,256,72236,5,0
152,152,72403,1,8
48,152,72570,2,0,L|48:264,1,100,0|8
48,352,72903,2,0,L|160:352,1,100,0|8
248,352,73236,2,0,L|248:240,2,100,0|8|0
352,352,73736,2,0,L|464:352,2,100,0|8|0
352,248,74236,2,0,L|464:248,1,100,8|0
456,144,74570,2,0,L|352:144,1,100,8|0
248,144,74903,5,0
248,352,75236,2,0,L|248:248|144:248,1,200
456,192,76070,1,0
144,192,76570,2,2,L|40:192,1,100
424,352,77403,5,0
320,352,77570,2,0,L|208:352,1,100,8|0
216,248,77903,2,0,L|328:248,1,100,8|0
320,144,78236,2,0,L|216:144,1,100,8|0
216,40,78570,1,0
112,40,78736,2,0,L|112:152,2,100,8|0|8
112,248,79403,1,0
112,352,79569,2,0,L|224:352,1,100,8|0
368,352,79903,2,0,L|248:352,1,100,8|0
240,256,80236,5,0
240,48,80569,1,0
240,256,80903,1,0
472,48,81403,1,0
472,352,81903,1,2
472,352,82069,1,2
256,192,82236,12,4,82903
256,192,83569,6,0,L|144:192|144:288,1,200
144,72,84236,1,0
352,72,84569,2,2,L|192:72|192:128|384:128,1,400
376,336,85569,5,0
168,336,85903,1,0
168,128,86236,6,0,L|280:128|280:240,1,200
488,216,86903,1,0
488,8,87236,2,2,L|488:160|384:160|384:16,1,400
256,176,88236,5,0
256,384,88569,1,0
48,384,88903,6,0,L|48:168,1,200
232,280,89569,1,0
440,280,89903,2,2,L|440:168|344:168|344:280|296:280|296:248,1,400
256,48,90903,5,0
104,192,91236,1,0
312,192,91569,6,0,L|464:192|464:248,2,200
224,8,92569,1,0
224,216,92903,1,0
16,216,93236,1,0
256,192,93569,12,4,94903
256,384,95069,6,0,L|256:256,1,100,0|8
256,0,95403,2,0,L|256:112,1,100,0|8
256,192,95736,1,0
256,192,95903,1,8
256,192,96069,1,0
152,104,96236,6,2,L|152:312,4,200
48,104,97736,1,0
48,312,98069,1,8
112,112,98403,1,0
112,320,98736,1,0
256,192,98903,12,4,100236
256,360,100403,6,0,L|256:256,1,100,0|8
304,168,100736,2,0,L|192:168,2,100,0|8|0
304,64,101236,2,0,L|200:64,1,100,8|0
96,64,101569,1,6
416,320,102903,5,6
256,192,104236,12,4,104903
312,288,108236,5,4
312,88,108569,1,4
488,192,108903,2,0,L|424:192,3,50
208,288,109569,5,4
208,88,109903,1,4
40,192,110236,2,0,L|96:192,3,50
344,192,110903,5,4
144,192,111236,1,4
248,360,111569,1,0
248,160,111903,1,0
448,192,112236,2,0,L|448:296,2,100,0|8|0
448,88,112736,2,0,L|248:88,1,200
80,352,113569,6,0,L|80:152,1,200
144,344,114236,2,0,L|144:136,1,200
352,344,114903,5,2
352,48,115236,5,0
288,336,115569,5,0
288,40,115903,5,0
224,328,116236,6,0,L|224:224|128:224,1,200,2|0
224,32,116903,6,0,L|224:144|328:144,1,200,2|0
256,192,117569,12,4,118236
96,192,123569,6,2,L|96:248|0:248|0:200,1,200
304,192,124903,2,2,L|304:248|200:248|200:208,1,200
504,192,126236,2,2,L|504:248|400:248|400:200,1,200
400,104,126903,6,0,L|296:104,1,100
200,104,127236,2,0,L|88:104,1,100
200,272,127736,1,0
488,24,128903,6,2,L|488:136|384:136,1,200
96,24,130236,2,2,L|96:128|0:128,1,200
256,224,131403,6,0,L|256:112,2,100,0|8|0
200,304,131903,2,0,L|312:304,1,100,8|0
376,360,132236,2,0,L|376:256,2,100,8|0|8
464,304,132736,2,2,L|464:104,1,200
168,32,133569,6,0,L|368:32,1,200
368,232,134236,2,0,L|160:232,1,200
24,96,134903,5,6
488,288,136236,5,6
256,192,137569,12,4,138236
